osu file format v5

[General]
AudioFilename: Utawarerumono_-_Kimi_ga_Tame.mp3
AudioLeadIn: 0
PreviewTime: -1
Countdown: 0
SampleSet: Soft
StackLeniency: 0.7
Mode: 0
LetterboxInBreaks: 1
EditorBookmarks: 129637,166708,229195,266173

[Metadata]
Title:Kimi ga Tame
Artist:Suara
Creator:eirrol
Version:Normal
Source:
Tags:

[Difficulty]
HPDrainRate:4
CircleSize:5
OverallDifficulty:4
SliderMultiplier:2.4
SliderTickRate:1

[Events]
//Background and Video events
0,0,"uta.png"
//Break Periods
2,104322,114802
2,156118,165847
2,242319,265819
//Storyboard Layer 0 (Background)
//Storyboard Layer 1 (Failing)
//Storyboard Layer 2 (Passing)
//Storyboard Layer 3 (Foreground)
//Storyboard Sound Samples
//Background Colour Transformations
3,100,163,162,255

[TimingPoints]
32917,750,4,2,0,100,1
367630,750,4,2,0,100,1

[Colours]
Combo1 : 255,206,132
Combo2 : 128,255,255
Combo3 : 255,181,255
Combo4 : 151,255,151

[HitObjects]
264,72,56168,1,0
264,72,56543,1,0
264,72,56918,1,0
216,328,58043,1,0
296,328,58418,1,0
280,152,59168,5,0
192,152,59543,1,0
264,96,59918,2,4,B|8:96,1,240
152,208,61418,2,4,B|432:208,1,240
344,136,62543,5,0
344,136,62918,1,2
88,112,64043,1,0
152,56,64418,2,2,B|272:5|400:64,1,240
424,136,65543,6,2,B|481:169|472:264,1,120
408,296,66293,2,2,B|238:398|40:288,1,360
128,240,67793,2,2,B|48:200|40:128,1,120
120,112,68543,5,0
176,176,68918,2,0,B|228:221|328:176,2,120
240,120,70043,1,0
176,72,70418,2,0,B|128:28|8:72,2,120
264,64,71543,1,0
352,80,71918,2,0,B|402:128|352:224,2,120
296,144,73043,1,0
256,216,73418,2,2,B|256:376,2,120,2|2|2
104,136,74543,5,0
152,56,74918,1,0
264,128,75480,1,0
384,48,76043,2,0,B|448:80|440:192,1,120
352,152,76793,2,0,B|341:236|176:240|280:384,1,240
344,320,77918,1,4
416,272,78293,5,4
456,144,78855,1,4
328,96,79418,1,4
264,160,79793,1,2
200,104,80168,5,0
200,104,80543,1,0
136,160,80918,2,0,B|84:240|128:336,2,180
56,120,82418,2,0,B|136:46|324:42|416:120,1,360
344,192,83918,2,2,B|184:192,3,120
208,272,85418,1,4
344,272,86168,5,0
344,272,86543,1,0
416,312,86918,2,4,B|483:210|416:48,1,240
336,72,88043,1,0
312,152,88418,6,4,B|261:260|152:160,2,180
256,80,89918,2,2,B|134:62|95:95|26:197|48:312,1,360
120,240,91418,1,2
120,240,91793,1,2
120,240,92168,1,4
280,320,92918,5,0
416,312,93480,1,0
416,312,93668,1,2
416,224,94043,2,2,B|464:35|309:26|176:88,1,360
144,152,95543,1,0
56,168,95918,1,0
184,272,96668,2,2,B|255:324|468:306|472:120,1,360
312,88,98168,6,0,B|354:30|456:88,2,120
384,136,99293,2,4,B|340:174|232:136,2,120
384,224,100418,2,0,B|434:281|384:376,5,120,0|0|0|4|6|6
352,264,102668,1,4
320,184,103043,1,4
240,208,103418,1,2
168,160,103793,1,2
88,120,104168,1,6
256,320,116168,5,0
256,320,116543,1,0
296,240,116918,2,4,B|478:327|508:200|490:104|450:79|359:55|248:176,1,480
256,224,118793,1,0
256,224,119168,1,0
256,224,119543,1,2
184,248,119918,6,4,B|48:280|-8:208|32:80|112:32|192:39|288:168,1,480
256,224,121793,1,0
256,136,122168,1,0
312,64,122543,6,2,B|152:64,8,120
256,192,125918,12,4,130418
256,64,131168,5,0
256,152,131543,1,0
328,200,131918,1,0
160,248,132668,1,0
320,328,133418,2,4,B|448:328,2,120
368,256,134543,2,6,B|368:112,2,120
288,280,135668,1,6
288,280,136043,1,6
256,200,136418,6,4,B|256:56,3,120
328,112,137918,2,0,B|344:32|304:16|224:24|160:48|160:96|184:184|184:248|168:336|256:352|368:344|424:328|472:280|480:168|456:48,1,840
384,96,140918,5,0
304,136,141293,1,2
232,184,141668,1,0
160,232,142043,1,2
88,280,142418,1,2
88,280,142605,1,0
168,320,142980,1,0
216,320,143168,1,6
312,288,143543,6,0,B|448:216,1,120
344,192,144293,2,0,B|286:145|192:192,5,120
112,120,146918,5,2
232,72,147480,1,0
368,72,148043,1,4
456,72,148418,1,4
456,160,148793,1,6
368,160,149168,1,6
200,88,149543,6,0,B|296:88,2,60
80,320,151043,1,2
168,320,151418,1,2
256,320,151793,1,2
344,320,152168,1,2
432,320,152543,1,0
256,192,152918,12,2,155918
312,280,167167,5,0
312,280,167542,1,0
376,224,167917,2,0,B|428:144|384:48,2,180
456,264,169417,2,0,B|376:338|188:342|96:264,1,360
168,192,170917,2,2,B|328:192,3,120
304,112,172417,1,4
168,112,173167,5,0
168,112,173542,1,0
96,72,173917,2,4,B|29:174|96:336,1,240
176,312,175042,1,0
200,232,175417,6,4,B|251:124|360:224,2,180
256,304,176917,2,2,B|378:322|417:289|486:187|464:72,1,360
392,144,178417,1,2
392,144,178792,1,2
392,144,179167,1,4
232,64,179917,5,0
96,72,180479,1,0
96,72,180667,1,2
96,160,181042,2,2,B|48:349|203:358|336:296,1,360
368,232,182542,1,0
456,216,182917,1,0
328,112,183667,2,2,B|257:60|44:78|40:264,1,360
200,296,185167,6,0,B|158:354|56:296,2,120
128,248,186292,2,4,B|172:210|280:248,2,120
128,160,187417,2,0,B|78:103|128:8,5,120,0|0|0|4|6|6
160,120,189667,1,4
192,200,190042,1,4
112,152,190417,1,2
144,64,190792,1,2
232,40,191167,1,6
256,104,191543,5,0
256,104,191729,1,0
256,104,191918,2,4,B|256:240,1,120
256,312,192668,1,0
424,112,193793,1,0
344,144,194168,1,4
256,160,194543,1,4
168,184,194918,2,0,B|168:40,3,120
256,56,196418,1,2
328,96,196793,5,0
328,184,197168,1,0
256,232,197543,1,0
168,216,197918,2,4,B|168:80,4,120
168,296,199793,1,0
256,296,200168,1,0
344,296,200543,1,0
400,224,200918,6,2,B|256:224,3,120
224,152,202418,2,2,B|72:152,2,120
256,192,203918,12,0,206168
184,72,206917,6,0,B|98:143|76:240|92:345|376:312,1,480
376,224,208792,1,0
336,152,209167,1,0
256,168,209542,1,0
176,128,209917,1,0
256,288,210668,1,0
408,184,211418,1,2
256,88,212168,1,2
312,248,212917,5,0
232,288,213293,1,4
176,224,213668,1,2
144,304,214043,1,4
88,232,214418,1,4
120,152,214793,1,4
216,168,215168,1,4
240,344,215918,6,0,B|400:352|480:320|504:184|517:23|437:14|66:0|-5:85|55:238|136:320,1,960
256,192,219668,1,4
160,40,220418,1,4
336,40,221168,1,4
256,192,221918,1,4
256,304,223043,1,2
256,304,223418,1,2
256,40,224543,5,0
304,112,224918,2,2,B|336:176|304:248,2,120
224,112,226043,1,0
136,112,226418,1,0
176,192,226793,1,0
256,192,227168,1,0
256,192,227543,1,0
256,192,227918,12,0,230167
256,80,230918,5,0
256,256,231668,1,0
344,104,232418,1,0
256,256,233168,1,0
160,104,233918,2,0,B|40:192|72:328|264:328,1,360
344,304,235418,1,0
256,56,236543,5,0
256,56,236918,1,0
384,296,238043,5,2
312,248,238418,1,2
256,320,238793,1,2
208,248,239168,1,2
136,296,239543,1,2
256,192,239918,12,0,242168
136,152,266918,5,0
256,48,267668,1,0
384,144,268418,1,0
344,216,268793,1,0
256,224,269168,1,0
184,176,269543,1,0
96,168,269918,1,0
96,296,270480,1,2
224,296,271043,5,0
312,296,271418,1,0
384,184,271980,1,2
256,64,272730,1,2
256,64,272918,1,2
256,296,273855,5,4
256,296,274043,1,4
256,296,274230,1,4
256,296,274418,1,4
112,72,275543,1,0
200,72,275918,1,2
400,168,276855,6,0,B|400:240,6,60
184,168,278918,5,0
256,328,279668,1,0
328,168,280418,1,0
184,72,281168,2,0,B|104:120|120:192,1,120
208,152,281918,2,0,B|200:224|75:212|136:360,1,240
192,320,283043,2,0,B|260:352|344:296,1,120
360,256,283793,2,4,B|432:200|432:56|312:32,1,240
96,96,285668,5,0
176,256,286418,1,0
264,152,286980,1,0
384,200,287543,1,0
432,112,287918,2,0,B|336:32|208:32|48:120,1,360
104,184,289418,2,0,B|149:146|272:128,1,120
304,152,290168,1,0
344,224,290543,1,0
320,304,290917,6,6,B|261:347|176:280,8,120,6|6|6|6|6|6|0|0|6
256,152,294668,5,0
256,152,295418,1,0
344,304,296168,1,0
168,304,296918,1,0
328,232,297668,2,2,B|456:232,2,120
328,144,298793,2,6,B|328:0,2,120
336,232,299918,1,0
336,232,300293,1,0
240,232,300668,6,4,B|72:232,3,120
216,240,302168,2,0,B|232:320|192:336|112:328|48:304|48:256|72:168|72:104|56:16|144:0|256:8|312:24|360:72|368:184|344:304,1,840
432,272,305168,5,0
344,256,305543,1,2
256,240,305918,1,0
168,224,306293,1,2
88,280,306668,1,2
88,280,306855,1,0
168,320,307230,1,0
216,320,307418,1,6
312,288,307793,6,0,B|448:216,1,120
344,192,308543,2,0,B|286:145|192:192,5,120
112,120,311168,5,2
232,72,311730,1,0
368,72,312293,1,4
456,72,312668,1,4
456,160,313043,1,6
368,160,313418,1,6
296,200,313793,1,2
216,240,314168,1,2
136,200,314543,1,2
80,264,314918,5,0
64,176,315293,5,0
96,96,315668,1,0
136,72,315855,5,2
216,48,316230,1,2
304,48,316605,5,4
344,64,316793,1,4
384,88,316980,1,4
440,160,317355,5,4
432,200,317543,1,4
408,232,317730,1,4
256,192,317918,12,4,320168
256,80,320918,5,0
256,248,321668,1,0
408,168,322418,1,0
232,168,323168,1,0
112,296,323918,5,0
240,296,324480,1,2
360,240,325043,1,0
408,168,325418,1,2
352,96,325793,1,2
264,96,326168,1,2
208,160,326543,1,0
136,112,326918,5,0
128,288,327668,1,4
304,288,328418,1,4
376,216,329168,5,0
328,144,329543,1,0
272,80,329918,1,0
136,184,330668,2,0,B|146:276|218:334|328:272,3,240
256,192,333293,12,0,335168
480,320,336668,5,0
392,320,337043,1,0
304,320,337418,1,0
216,320,337793,1,0
128,320,338168,1,2
40,320,338543,1,2
256,192,338730,12,4,340418
256,336,341543,5,2
256,296,341730,1,2
256,256,341918,1,2
80,56,343043,5,0
168,56,343418,1,0
256,56,343793,1,0
344,56,344168,1,0
432,56,344543,1,2
256,192,344917,12,0,349698
