osu file format v12

[General]
AudioFilename: kimigatame.mp3
AudioLeadIn: 0
PreviewTime: 126615
Countdown: 1
SampleSet: Normal
StackLeniency: 0.7
Mode: 0
LetterboxInBreaks: 1

[Editor]
Bookmarks: 50865,98865,126631,162625,174997,186995,213615,237611,252608,276414
DistanceSpacing: 1
BeatDivisor: 4
GridSize: 8

[Metadata]
Title:Kimi ga Tame
TitleUnicode:キミガタメ
Artist:Suara
ArtistUnicode:Suara
Creator:Steph De Chine
Version:Simple
Source:Utawarerumono
Tags:Anime Japanese
BeatmapID:164791
BeatmapSetID:54164

[Difficulty]
HPDrainRate:0
CircleSize:2
OverallDifficulty:0
ApproachRate:2
SliderMultiplier:1.4
SliderTickRate:2

[Events]
//Background and Video events
0,0,"kimigatame.jpg",0,0
Video,0,"kimigatame.avi"
//Break Periods
2,151365,161055
//Storyboard Layer 0 (Background)
//Storyboard Layer 1 (Fail)
//Storyboard Layer 2 (Pass)
//Storyboard Layer 3 (Foreground)
//Storyboard Sound Samples
//Background Colour Transformations
3,100,163,162,255

[TimingPoints]
28365,750,4,1,1,45,1,0
57240,-100,4,1,1,60,0,0
127381,-100,4,1,1,85,0,1
149865,-100,4,1,1,60,0,0
214364,-100,4,1,1,85,0,1
236865,-100,4,1,1,60,0,0
253356,-100,4,1,1,100,0,1
299865,-100,4,1,1,60,0,0
305865,-100,4,1,1,45,0,0
306615,-100,4,1,1,30,0,0
307365,-100,4,1,1,15,0,0
308115,-100,4,1,1,5,0,0

[Colours]
Combo1 : 0,255,255
Combo2 : 5,240,5
Combo3 : 255,0,0
Combo4 : 255,128,0
Combo5 : 255,255,0

[HitObjects]
64,104,28365,2,0,P|48:176|104:232,1,140
208,288,29865,2,0,P|280:312|344:280,1,140,2|0,0:0|0:0,0:0:0:0:
448,208,31365,6,0,P|464:160|448:120,1,70
424,80,32115,1,0,0:0:0:0:
288,64,32865,2,0,P|232:64|200:96,1,70,2|0,0:0|0:0,0:0:0:0:
168,112,33615,1,0,0:0:0:0:
128,248,34365,6,0,B|192:288|192:288|256:248,1,140
352,160,35865,1,8,0:0:0:0:
384,24,36615,1,0,0:0:0:0:
248,48,37365,5,0,0:0:0:0:
120,112,38115,1,2,0:0:0:0:
88,248,38865,1,0,0:0:0:0:
224,288,39615,1,2,0:0:0:0:
360,272,40365,2,8,P|320:136|176:112,1,280,8|0,0:0|0:0,0:0:0:0:
64,144,42615,5,8,0:0:0:0:
112,280,43365,2,0,P|192:200|192:104,1,210
128,80,44865,2,2,P|226:41|272:132,1,210,2|0,0:0|0:0,0:0:0:0:
256,184,46365,1,2,0:0:0:0:
192,316,47115,1,2,0:0:0:0:
53,294,47865,1,0,0:0:0:0:
31,155,48615,1,0,0:0:0:0:
156,92,49365,1,4,0:0:0:0:
184,160,51615,6,0,B|184:72|272:72,1,140,8|0,0:0|0:0,0:0:0:0:
480,72,53490,1,0,0:0:0:0:
496,144,53865,1,8,0:0:0:0:
408,256,54615,1,0,0:0:0:0:
344,272,54990,1,0,0:0:0:0:
272,272,55365,2,0,P|184:184|296:120,1,280,8|8,0:0|0:0,0:0:0:0:
424,120,57615,6,0,B|384:48|304:32,1,140,8|0,0:0|0:0,0:0:0:0:
120,48,59490,1,0,0:0:0:0:
80,104,59865,1,8,0:0:0:0:
112,240,60615,1,0,0:0:0:0:
176,272,60990,1,0,0:0:0:0:
248,280,61365,2,0,P|336:192|224:128,1,280,8|8,0:0|0:0,0:0:0:0:
24,144,63990,5,0,0:0:0:0:
72,192,64365,1,0,0:0:0:0:
192,256,65115,1,0,0:0:0:0:
256,280,65490,2,0,P|336:296|464:256,1,210,2|0,0:0|0:0,0:0:0:0:
424,200,66990,5,0,0:0:0:0:
376,152,67365,1,0,0:0:0:0:
240,152,68115,1,0,0:0:0:0:
240,224,68490,2,0,B|240:344|96:344,1,210,2|0,0:0|0:0,0:0:0:0:
32,336,69990,5,0,0:0:0:0:
16,264,70365,2,0,P|72:216|160:216,1,140,2|0,0:0|0:0,0:0:0:0:
200,232,71490,1,2,0:0:0:0:
272,232,71865,1,2,0:0:0:0:
336,200,72240,1,0,0:0:0:0:
376,144,72615,1,2,0:0:0:0:
384,72,72990,2,8,P|232:72|200:240,1,350,0|8,0:0|0:0,0:0:0:0:
64,288,75615,5,0,0:0:0:0:
128,320,75990,1,0,0:0:0:0:
192,336,76365,2,0,B|272:344|320:288,1,140,8|0,0:0|0:0,0:0:0:0:
360,232,77490,1,0,0:0:0:0:
376,160,77865,2,0,B|384:112|352:80,1,70,8|0,0:0|0:0,0:0:0:0:
304,136,78615,1,0,0:0:0:0:
240,168,78990,1,0,0:0:0:0:
176,192,79365,2,0,P|104:208|32:192,2,140,8|0|8,0:0|0:0|0:0,0:0:0:0:
304,136,81615,5,0,0:0:0:0:
344,192,81990,1,0,0:0:0:0:
376,256,82365,2,0,B|376:336|296:368,1,140,8|0,0:0|0:0,0:0:0:0:
232,368,83490,1,0,0:0:0:0:
160,352,83865,2,0,B|120:328|120:280,1,70,8|0,0:0|0:0,0:0:0:0:
120,224,84615,1,0,0:0:0:0:
168,168,84990,1,0,0:0:0:0:
240,176,85365,2,0,B|240:88|144:88,2,140,8|0|8,0:0|0:0|0:0,0:0:0:0:
32,176,87990,6,0,B|112:176,1,70
240,176,89115,2,0,B|240:96,1,70,0|8,0:0|0:0,0:0:0:0:
432,120,90990,6,0,B|432:192,1,70
432,328,92115,2,0,B|344:328,1,70,0|8,0:0|0:0,0:0:0:0:
160,272,93615,5,0,0:0:0:0:
192,208,93990,1,0,0:0:0:0:
240,152,94365,2,0,B|288:88|360:80,1,140,8|0,0:0|0:0,0:0:0:0:
424,80,95490,1,0,0:0:0:0:
496,88,95865,2,0,B|496:168|416:208,2,140,8|0|8,0:0|0:0|0:0,0:0:0:0:
72,328,99990,5,0,0:0:0:0:
24,272,100365,2,8,P|24:160|168:160,1,280,8|8,0:0|0:0,0:0:0:0:
216,200,102240,5,0,0:0:0:0:
272,240,102615,1,8,0:0:0:0:
344,256,102990,1,0,0:0:0:0:
416,248,103365,2,0,P|480:152|336:96,1,280,2|8,0:0|0:0,0:0:0:0:
304,112,105240,5,0,0:0:0:0:
248,152,105615,1,0,0:0:0:0:
192,192,105990,1,0,0:0:0:0:
136,240,106365,2,8,P|80:264|72:104,1,280,8|8,0:0|0:0,0:0:0:0:
104,80,108240,5,8,0:0:0:0:
176,80,108615,1,0,0:0:0:0:
240,112,108990,1,0,0:0:0:0:
280,168,109365,2,0,P|296:240|96:264,1,280,8|0,0:0|0:0,0:0:0:0:
56,200,111615,6,0,B|120:152|208:232,1,140,0|8,0:0|0:0,0:0:0:0:
296,296,113115,1,0,0:0:0:0:
360,328,113490,1,8,0:0:0:0:
440,160,115365,6,0,B|416:128|328:128,1,70,8|0,0:0|0:0,0:0:0:0:
304,128,116115,1,0,0:0:0:0:
232,144,116490,1,8,0:0:0:0:
120,232,117240,5,0,0:0:0:0:
48,216,117615,1,0,0:0:0:0:
8,160,117990,1,0,0:0:0:0:
8,88,118365,2,0,B|8:40|56:40,1,70,8|0,0:0|0:0,0:0:0:0:
120,40,119115,2,0,B|192:40,1,70
256,40,119865,2,0,B|304:40|304:88,1,70,8|0,0:0|0:0,0:0:0:0:
304,152,120615,2,0,B|304:200|352:200,1,70
416,208,121365,2,0,P|392:280|160:144,1,420,8|0,0:0|0:0,0:0:0:0:
256,192,124365,12,0,125865,0:0:0:0:
128,72,126615,5,0,0:0:0:0:
88,128,126990,1,0,0:0:0:0:
96,200,127365,1,4,0:0:0:0:
200,296,128115,1,8,0:0:0:0:
336,304,128865,1,0,0:0:0:0:
456,232,129615,1,8,0:0:0:0:
472,96,130365,2,0,P|400:48|336:96,1,140,0|8,0:0|0:0,0:0:0:0:
296,104,131490,2,0,B|248:136,2,35
80,72,132990,5,0,0:0:0:0:
152,64,133365,2,0,B|184:64|240:80|240:160,1,140,8|0,0:0|0:0,0:0:0:0:
248,224,134490,1,8,0:0:0:0:
224,288,134865,1,0,0:0:0:0:
168,328,135240,1,8,0:0:0:0:
96,336,135615,1,0,0:0:0:0:
24,328,135990,1,0,0:0:0:0:
24,256,136365,6,0,B|24:208|88:208,1,70
136,208,137115,2,0,B|184:208|184:264,1,70,8|0,0:0|0:0,0:0:0:0:
184,320,137865,2,0,B|184:360|240:360,1,70,8|0,0:0|0:0,0:0:0:0:
304,352,138615,5,0,0:0:0:0:
368,320,138990,1,0,0:0:0:0:
400,256,139365,1,4,0:0:0:0:
384,120,140115,1,8,0:0:0:0:
256,56,140865,1,0,0:0:0:0:
120,80,141615,1,8,0:0:0:0:
32,192,142365,2,0,B|72:248|152:264,1,140,8|0,0:0|0:0,0:0:0:0:
216,264,143490,2,0,B|272:264,2,35
416,336,144990,5,0,0:0:0:0:
472,288,145365,2,0,P|504:208|496:152,1,140,8|0,0:0|0:0,0:0:0:0:
456,96,146490,1,8,0:0:0:0:
400,56,146865,1,0,0:0:0:0:
328,48,147240,1,8,0:0:0:0:
264,64,147615,1,0,0:0:0:0:
208,112,147990,1,0,0:0:0:0:
256,192,148365,12,0,149865,0:0:0:0:
448,288,162615,5,8,0:0:0:0:
384,320,162990,1,0,0:0:0:0:
320,336,163365,2,0,B|240:344|192:288,1,140,8|0,0:0|0:0,0:0:0:0:
248,248,164490,1,0,0:0:0:0:
304,208,164865,2,0,B|344:184|352:136,1,70,8|0,0:0|0:0,0:0:0:0:
368,88,165615,1,0,0:0:0:0:
296,80,165990,1,0,0:0:0:0:
232,112,166365,2,0,P|200:184|216:248,2,140,8|0|8,0:0|0:0|0:0,0:0:0:0:
344,192,168615,5,8,0:0:0:0:
312,256,168990,1,0,0:0:0:0:
264,304,169365,2,0,B|216:352|112:328,1,140,8|0,0:0|0:0,0:0:0:0:
160,264,170490,1,0,0:0:0:0:
184,200,170865,2,0,B|200:160|160:112,1,70,8|0,0:0|0:0,0:0:0:0:
112,96,171615,1,0,0:0:0:0:
40,96,171990,1,0,0:0:0:0:
56,168,172365,2,0,B|80:240|176:272,2,140,8|0|8,0:0|0:0|0:0,0:0:0:0:
248,88,174990,6,0,P|312:48|376:64,1,140
424,104,176115,2,8,B|480:160,1,70,0|8,0:0|0:0,0:0:0:0:
152,296,178365,5,8,0:0:0:0:
88,168,179115,2,0,B|48:80,1,70,0|8,0:0|0:0,0:0:0:0:
264,88,180615,5,0,0:0:0:0:
232,152,180990,1,0,0:0:0:0:
184,216,181365,2,0,B|144:280|56:280,1,140,8|0,0:0|0:0,0:0:0:0:
64,200,182490,1,0,0:0:0:0:
136,152,182865,2,0,B|192:120|192:32,2,140,8|0|8,0:0|0:0|0:0,0:0:0:0:
472,320,186990,5,0,0:0:0:0:
400,304,187365,2,8,P|336:192|416:80,1,280,8|8,0:0|0:0,0:0:0:0:
488,88,189240,5,0,0:0:0:0:
464,152,189615,1,8,0:0:0:0:
408,200,189990,1,0,0:0:0:0:
344,216,190365,2,0,P|240:192|280:56,1,280,8|0,0:0|0:0,0:0:0:0:
344,40,192240,5,0,0:0:0:0:
416,48,192615,1,0,0:0:0:0:
472,96,192990,1,0,0:0:0:0:
480,168,193365,2,0,P|424:264|272:232,1,280,8|0,0:0|0:0,0:0:0:0:
232,184,195240,5,8,0:0:0:0:
296,152,195615,1,0,0:0:0:0:
368,168,195990,1,0,0:0:0:0:
416,216,196365,2,0,P|352:312|192:312,1,280,8|0,0:0|0:0,0:0:0:0:
272,192,198615,6,0,B|248:112|160:88,1,140,0|8,0:0|0:0,0:0:0:0:
40,72,200115,1,0,0:0:0:0:
40,144,200490,1,8,0:0:0:0:
320,264,202365,6,0,B|344:296|384:296,1,70,8|0,0:0|0:0,0:0:0:0:
448,296,203115,1,0,0:0:0:0:
512,264,203490,1,8,0:0:0:0:
432,152,204240,5,0,0:0:0:0:
368,120,204615,1,0,0:0:0:0:
304,96,204990,1,0,0:0:0:0:
232,104,205365,2,0,B|184:104|160:152,1,70,8|0,0:0|0:0,0:0:0:0:
136,192,206115,2,0,B|104:272,1,70
80,320,206865,2,0,B|56:352|8:352,1,70,8|0,0:0|0:0,0:0:0:0:
0,280,207615,2,0,B|0:224|32:200,1,70
64,160,208365,2,0,P|136:104|224:328,1,420,8|0,0:0|0:0,0:0:0:0:
256,192,211365,12,0,212865,0:0:0:0:
384,72,213615,5,0,0:0:0:0:
424,128,213990,1,0,0:0:0:0:
416,200,214365,1,4,0:0:0:0:
312,296,215115,1,8,0:0:0:0:
176,304,215865,1,0,0:0:0:0:
56,232,216615,1,8,0:0:0:0:
40,96,217365,2,0,P|112:48|176:96,1,140,0|8,0:0|0:0,0:0:0:0:
216,104,218490,2,0,B|264:136,2,35
432,64,219990,5,0,0:0:0:0:
360,64,220365,2,0,B|328:64|272:80|272:160,1,140
264,224,221490,1,8,0:0:0:0:
288,288,221865,1,0,0:0:0:0:
344,328,222240,1,8,0:0:0:0:
416,336,222615,1,0,0:0:0:0:
488,328,222990,1,0,0:0:0:0:
488,256,223365,6,0,B|488:208|424:208,1,70,0|0,0:0|0:0,0:0:0:0:
376,208,224115,2,0,B|328:208|328:264,1,70,8|0,0:0|0:0,0:0:0:0:
328,320,224865,2,0,B|328:360|272:360,1,70,8|0,0:0|0:0,0:0:0:0:
208,352,225615,5,0,0:0:0:0:
144,320,225990,1,0,0:0:0:0:
112,256,226365,1,4,0:0:0:0:
128,120,227115,1,8,0:0:0:0:
256,56,227865,1,0,0:0:0:0:
392,80,228615,1,8,0:0:0:0:
480,192,229365,2,0,B|440:248|360:264,1,140,8|0,0:0|0:0,0:0:0:0:
296,264,230490,2,0,B|240:264,2,35
96,336,231990,5,0,0:0:0:0:
40,288,232365,2,0,P|8:208|16:152,1,140,8|0,0:0|0:0,0:0:0:0:
56,96,233490,1,8,0:0:0:0:
112,56,233865,1,0,0:0:0:0:
184,56,234240,1,8,0:0:0:0:
256,72,234615,1,0,0:0:0:0:
304,120,234990,1,0,0:0:0:0:
256,192,235365,12,0,236865,0:0:0:0:
176,304,237615,6,0,P|144:280|144:224,1,70
128,184,238365,2,0,P|184:88|320:144,1,280,2|0,0:0|0:0,0:0:0:0:
360,312,240802,5,2,0:0:0:0:
360,312,240990,1,0,0:0:0:0:
296,320,241365,2,0,P|192:216|264:128,1,280
464,104,243990,5,2,0:0:0:0:
464,104,244365,2,0,P|440:176|368:208,1,140,2|0,0:0|0:0,0:0:0:0:
320,216,245490,5,0,0:0:0:0:
320,216,245865,2,0,P|224:168|272:72,1,210
296,144,247365,2,0,P|400:200|296:280,1,280,4|0,0:0|0:0,0:0:0:0:
216,256,249240,5,0,0:0:0:0:
160,216,249615,1,0,0:0:0:0:
120,160,249990,1,0,0:0:0:0:
256,192,250365,12,4,251865,0:0:0:0:
128,312,252615,5,0,0:0:0:0:
88,256,252990,1,0,0:0:0:0:
96,184,253365,1,4,0:0:0:0:
200,88,254115,1,8,0:0:0:0:
336,80,254865,1,0,0:0:0:0:
456,152,255615,1,8,0:0:0:0:
472,288,256365,2,0,P|400:336|336:288,1,140,8|0,0:0|0:0,0:0:0:0:
296,280,257490,2,0,B|248:248,2,35
88,320,258990,5,0,0:0:0:0:
152,320,259365,2,0,B|184:320|240:304|240:224,1,140,8|0,0:0|0:0,0:0:0:0:
248,160,260490,1,8,0:0:0:0:
224,96,260865,1,0,0:0:0:0:
168,56,261240,1,8,0:0:0:0:
96,48,261615,1,0,0:0:0:0:
24,56,261990,1,8,0:0:0:0:
24,128,262365,6,0,B|24:176|80:208,1,70
120,208,263115,2,0,B|176:208|192:160,1,70,8|0,0:0|0:0,0:0:0:0:
232,128,263865,2,0,B|248:88|304:80,1,70,8|0,0:0|0:0,0:0:0:0:
352,72,264615,5,0,0:0:0:0:
416,88,264990,1,0,0:0:0:0:
472,128,265365,1,4,0:0:0:0:
392,248,266115,1,8,0:0:0:0:
264,312,266865,1,0,0:0:0:0:
120,304,267615,1,8,0:0:0:0:
32,192,268365,2,0,B|72:136|152:120,1,140,8|0,0:0|0:0,0:0:0:0:
216,120,269490,2,0,B|272:120,2,35
416,48,270990,5,0,0:0:0:0:
472,96,271365,2,0,P|504:176|496:232,1,140,8|0,0:0|0:0,0:0:0:0:
456,288,272490,1,8,0:0:0:0:
400,328,272865,1,0,0:0:0:0:
328,328,273240,1,8,0:0:0:0:
256,312,273615,1,0,0:0:0:0:
208,264,273990,1,0,0:0:0:0:
256,192,274365,12,8,275865,0:0:0:0:
384,312,276615,5,0,0:0:0:0:
424,256,276990,1,0,0:0:0:0:
416,184,277365,1,4,0:0:0:0:
312,88,278115,1,8,0:0:0:0:
176,80,278865,1,0,0:0:0:0:
56,152,279615,1,8,0:0:0:0:
40,288,280365,2,0,P|112:336|176:288,1,140,8|0,0:0|0:0,0:0:0:0:
216,280,281490,2,0,B|264:248,2,35
424,320,282990,5,0,0:0:0:0:
360,320,283365,2,0,B|328:320|272:304|272:224,1,140,8|0,0:0|0:0,0:0:0:0:
264,160,284490,1,8,0:0:0:0:
288,96,284865,1,0,0:0:0:0:
344,56,285240,1,8,0:0:0:0:
416,48,285615,1,0,0:0:0:0:
488,56,285990,1,0,0:0:0:0:
488,128,286365,6,0,B|488:176|440:208,1,70
392,200,287115,2,0,B|344:200|304:168,1,70,8|0,0:0|0:0,0:0:0:0:
264,144,287865,2,0,B|240:112|184:112,1,70,8|0,0:0|0:0,0:0:0:0:
136,104,288615,5,0,0:0:0:0:
64,112,288990,1,0,0:0:0:0:
0,144,289365,1,4,0:0:0:0:
96,240,290115,1,8,0:0:0:0:
232,272,290865,1,0,0:0:0:0:
368,272,291615,1,8,0:0:0:0:
480,192,292365,2,0,B|440:136|360:120,1,140,8|0,0:0|0:0,0:0:0:0:
296,112,293490,2,0,B|232:112,2,35
96,48,294990,5,0,0:0:0:0:
40,96,295365,2,0,P|8:176|16:232,1,140,8|0,0:0|0:0,0:0:0:0:
56,288,296490,1,8,0:0:0:0:
112,328,296865,1,0,0:0:0:0:
184,328,297240,1,8,0:0:0:0:
256,312,297615,1,0,0:0:0:0:
304,264,297990,1,0,0:0:0:0:
256,192,298365,12,0,299865,0:0:0:0:
72,96,300990,6,0,B|48:40,2,35
184,272,302490,1,0,0:0:0:0:
248,304,302865,1,0,0:0:0:0:
320,304,303240,1,0,0:0:0:0:
384,272,303615,1,0,0:0:0:0:
416,208,303990,1,0,0:0:0:0:
256,192,304365,12,0,308865,0:0:0:0:
