osu file format v12

[General]
AudioFilename: kimigatame.mp3
AudioLeadIn: 0
PreviewTime: 126615
Countdown: 0
SampleSet: Normal
StackLeniency: 0.7
Mode: 0
LetterboxInBreaks: 1

[Editor]
Bookmarks: 51270,57269,63615,75266,126256,150252,162625,174997,186995,213615,237611,252608
DistanceSpacing: 1
BeatDivisor: 4
GridSize: 8

[Metadata]
Title:Kimi ga Tame
TitleUnicode:キミガタメ
Artist:Suara
ArtistUnicode:Suara
Creator:Steph De Chine
Version:Normale
Source:Utawarerumono
Tags:Anime Japanese
BeatmapID:165855
BeatmapSetID:54164

[Difficulty]
HPDrainRate:5
CircleSize:2
OverallDifficulty:2
ApproachRate:4
SliderMultiplier:2
SliderTickRate:2

[Events]
//Background and Video events
0,0,"kimigatame.jpg",0,0
Video,0,"kimigatame.avi"
//Break Periods
2,151365,161295
//Storyboard Layer 0 (Background)
//Storyboard Layer 1 (Fail)
//Storyboard Layer 2 (Pass)
//Storyboard Layer 3 (Foreground)
//Storyboard Sound Samples
//Background Colour Transformations
3,100,163,162,255

[TimingPoints]
28365,750,4,1,1,45,1,0
57269,-100,4,1,1,60,0,0
127381,-100,4,1,1,85,0,1
149865,-100,4,1,1,60,0,0
214364,-100,4,1,1,85,0,1
236865,-100,4,1,1,60,0,0
253365,-100,4,1,1,100,0,1
299865,-133.333333333333,4,1,1,70,0,0
305115,-133.333333333333,4,1,1,60,0,0
305865,-133.333333333333,4,1,1,45,0,0
306615,-133.333333333333,4,1,1,30,0,0
307365,-133.333333333333,4,1,1,15,0,0
308115,-133.333333333333,4,1,1,5,0,0

[Colours]
Combo1 : 0,255,255
Combo2 : 5,240,5
Combo3 : 255,0,0
Combo4 : 255,128,0
Combo5 : 255,255,0

[HitObjects]
88,240,28177,1,0,0:0:0:0:
76,192,28365,1,0,0:0:0:0:
88,144,28552,2,0,B|104:104|136:88,1,50
204,52,29115,1,8,0:0:0:0:
404,52,29865,5,0,0:0:0:0:
432,92,30052,2,0,B|448:128|432:188,1,50
400,232,30615,1,8,0:0:0:0:
216,304,31365,5,0,0:0:0:0:
160,288,31552,2,0,B|120:280|80:240,1,50
80,176,32115,1,8,0:0:0:0:
216,24,32865,5,0,0:0:0:0:
268,32,33052,2,0,B|312:40|336:72,1,50
368,136,33615,1,8,0:0:0:0:
272,312,34365,5,0,0:0:0:0:
224,300,34552,1,8,0:0:0:0:
188,264,34740,1,0,0:0:0:0:
176,216,34927,1,0,0:0:0:0:
192,168,35115,1,8,0:0:0:0:
352,48,35865,5,0,0:0:0:0:
368,248,36615,2,0,B|368:312|428:368,1,100
472,264,37365,6,4,B|424:328|344:296,1,100,4|0,0:0|0:0,0:0:0:0:
288,288,38115,2,0,B|224:264|224:208,1,100,8|0,0:0|0:0,0:0:0:0:
200,120,38865,2,0,B|136:120|136:200,1,100,0|0,0:0|0:0,0:0:0:0:
136,280,39615,2,0,B|136:344|232:344,1,100,8|0,0:0|0:0,0:0:0:0:
300,348,40365,2,12,B|444:364|492:108|268:92|204:172|220:220,1,400,4|0,0:0|0:0,0:0:0:0:
300,252,42615,5,8,0:0:0:0:
400,252,43365,2,0,P|295:355|200:268,1,300
300,252,44865,2,0,P|221:169|96:268,1,300,2|0,0:0|0:0,0:0:0:0:
76,364,46365,6,0,B|12:364|12:300,1,100,2|0,0:0|0:0,0:0:0:0:
8,204,47115,2,0,B|20:144|80:136,1,100,2|0,0:0|0:0,0:0:0:0:
172,132,47865,2,0,B|236:132|248:200,1,100,0|0,0:0|0:0,0:0:0:0:
280,280,48615,2,0,B|304:324|392:336,1,100,0|0,0:0|0:0,0:0:0:0:
460,316,49365,5,0,0:0:0:0:
496,280,49552,1,8,0:0:0:0:
512,232,49740,1,0,0:0:0:0:
504,184,49927,1,0,0:0:0:0:
480,140,50115,1,8,0:0:0:0:
400,76,50490,1,8,0:0:0:0:
300,64,50865,1,12,0:0:0:0:
152,136,51615,5,0,0:0:0:0:
216,216,51990,1,0,0:0:0:0:
308,256,52365,2,0,B|420:256|484:144,1,200,8|0,0:0|0:0,0:0:0:0:
396,96,53490,1,0,0:0:0:0:
296,96,53865,2,0,B|216:96|208:176,1,100,8|0,0:0|0:0,0:0:0:0:
304,200,54615,5,0,0:0:0:0:
240,276,54990,1,8,0:0:0:0:
148,312,55365,1,0,0:0:0:0:
48,316,55740,1,0,0:0:0:0:
24,292,55927,1,0,0:0:0:0:
12,260,56115,1,8,0:0:0:0:
8,160,56490,1,0,0:0:0:0:
48,68,56865,1,4,0:0:0:0:
232,152,57615,5,0,0:0:0:0:
264,56,57990,1,0,0:0:0:0:
356,16,58365,2,0,B|484:16|484:160,1,200,8|0,0:0|0:0,0:0:0:0:
424,220,59490,1,0,0:0:0:0:
328,240,59865,2,0,B|264:240|264:176,1,100,8|0,0:0|0:0,0:0:0:0:
360,152,60615,5,0,0:0:0:0:
312,64,60990,1,8,0:0:0:0:
216,40,61365,1,0,0:0:0:0:
120,40,61740,1,0,0:0:0:0:
80,48,61927,1,0,0:0:0:0:
56,80,62115,1,8,0:0:0:0:
48,180,62490,1,8,0:0:0:0:
92,268,62865,1,12,0:0:0:0:
380,184,63990,5,0,0:0:0:0:
340,276,64365,1,0,0:0:0:0:
144,272,65115,1,0,0:0:0:0:
100,184,65490,2,0,B|68:132|-12:132,3,100,8|0|0|8,0:0|0:0|0:0|0:0,0:0:0:0:
16,232,66990,5,0,0:0:0:0:
88,300,67365,1,0,0:0:0:0:
288,304,68115,1,0,0:0:0:0:
368,240,68490,2,0,B|396:192|492:192,3,100,8|0|0|8,0:0|0:0|0:0|0:0,0:0:0:0:
456,296,69990,5,0,0:0:0:0:
416,324,70178,1,0,0:0:0:0:
368,344,70365,2,0,B|320:376|272:376|272:312|224:312|176:344,1,200,8|0,0:0|0:0,0:0:0:0:
96,368,71490,1,8,0:0:0:0:
16,312,71865,1,0,0:0:0:0:
8,216,72240,1,0,0:0:0:0:
64,136,72615,1,8,0:0:0:0:
160,112,72990,2,0,B|360:52|384:212|272:308|160:212|176:52|400:112,1,500,2|0,0:0|0:0,0:0:0:0:
416,304,75615,5,0,0:0:0:0:
320,296,75990,1,0,0:0:0:0:
224,280,76365,2,0,B|112:256|56:136,1,200,8|0,0:0|0:0,0:0:0:0:
124,84,77490,1,0,0:0:0:0:
224,84,77865,2,0,B|304:84|304:164,1,100,8|0,0:0|0:0,0:0:0:0:
216,188,78615,5,0,0:0:0:0:
260,276,78990,1,8,0:0:0:0:
344,328,79365,1,0,0:0:0:0:
444,328,79740,1,0,0:0:0:0:
476,316,79928,1,0,0:0:0:0:
496,288,80115,1,8,0:0:0:0:
508,188,80490,1,8,0:0:0:0:
480,92,80865,1,12,0:0:0:0:
308,192,81615,5,0,0:0:0:0:
220,148,81990,1,0,0:0:0:0:
160,68,82365,2,0,B|32:68|32:212,1,200,8|0,0:0|0:0,0:0:0:0:
112,252,83490,1,0,0:0:0:0:
212,248,83865,2,0,B|276:248|276:184,1,100,8|0,0:0|0:0,0:0:0:0:
184,152,84615,5,0,0:0:0:0:
220,60,84990,1,8,0:0:0:0:
316,28,85365,1,0,0:0:0:0:
412,56,85740,1,0,0:0:0:0:
436,80,85927,1,0,0:0:0:0:
444,120,86115,1,8,0:0:0:0:
440,220,86490,1,8,0:0:0:0:
396,308,86865,1,12,0:0:0:0:
116,168,87990,5,0,0:0:0:0:
192,232,88365,2,0,B|224:264|288:264,1,100
372,260,89115,1,0,0:0:0:0:
464,224,89490,2,0,B|512:176|480:96,3,100,8|0|0|8,0:0|0:0|0:0|0:0,0:0:0:0:
392,156,90990,5,0,0:0:0:0:
316,88,91365,2,0,B|284:56|220:56,1,100
124,56,92115,1,8,0:0:0:0:
64,136,92490,2,0,B|32:168|0:264,1,100,0|0,0:0|0:0,0:0:0:0:
212,184,93615,5,0,0:0:0:0:
280,256,93990,1,0,0:0:0:0:
360,316,94365,2,0,B|456:316|488:284|488:156,1,200,8|0,0:0|0:0,0:0:0:0:
484,96,95490,1,8,0:0:0:0:
384,96,95865,2,0,B|292:84|248:116,1,100
188,132,96615,1,0,0:0:0:0:
100,176,96990,1,0,0:0:0:0:
56,268,97365,5,0,0:0:0:0:
148,308,97740,1,0,0:0:0:0:
180,320,97927,1,0,0:0:0:0:
216,320,98115,1,8,0:0:0:0:
316,308,98490,1,0,0:0:0:0:
408,268,98865,2,4,B|504:220|504:92,1,200
404,104,99990,5,0,0:0:0:0:
368,104,100177,1,0,0:0:0:0:
332,104,100365,2,0,B|236:104|236:232|332:232,1,200,8|0,0:0|0:0,0:0:0:0:
412,256,101490,1,0,0:0:0:0:
448,252,101677,1,0,0:0:0:0:
476,228,101865,1,8,0:0:0:0:
488,128,102240,5,0,0:0:0:0:
408,68,102615,1,8,0:0:0:0:
312,44,102990,1,0,0:0:0:0:
212,44,103365,1,0,0:0:0:0:
120,84,103740,1,0,0:0:0:0:
64,164,104115,1,8,0:0:0:0:
56,264,104490,1,0,0:0:0:0:
108,348,104865,1,0,0:0:0:0:
208,356,105240,5,0,0:0:0:0:
300,316,105615,1,0,0:0:0:0:
360,236,105990,1,0,0:0:0:0:
260,248,106365,2,0,B|196:280|100:248|68:152|100:56|196:24|260:56,1,400,8|0,0:0|0:0,0:0:0:0:
340,80,108240,1,8,0:0:0:0:
412,152,108615,1,0,0:0:0:0:
420,252,108990,1,0,0:0:0:0:
344,328,109365,2,0,B|224:388|128:260|256:132|384:260|288:388|160:324,1,400
48,188,111615,6,0,B|68:132|112:92,1,100
176,48,112365,1,8,0:0:0:0:
372,80,113115,1,0,0:0:0:0:
464,120,113490,2,0,B|520:128|520:184|512:220|512:240|472:280|408:280|344:240|376:160,1,300,8|0,0:0|0:0,0:0:0:0:
172,176,115365,6,0,B|156:240|172:304,1,100,8|0,0:0|0:0,0:0:0:0:
256,232,116115,1,0,0:0:0:0:
344,188,116490,2,0,B|400:172|472:188,1,100,8|0,0:0|0:0,0:0:0:0:
488,272,117240,5,0,0:0:0:0:
396,232,117615,1,0,0:0:0:0:
344,144,117990,1,0,0:0:0:0:
440,116,118365,2,0,B|440:52|376:52,1,100,8|0,0:0|0:0,0:0:0:0:
280,40,119115,2,0,B|224:32|152:40,1,100
80,36,119865,2,0,B|16:36|16:100,1,100
16,196,120615,2,0,B|16:260|80:280,1,100
168,296,121365,2,0,B|224:328|436:212|392:112|280:40|160:104|116:212|336:336|384:304,1,600,4|0,0:0|0:0,0:0:0:0:
256,192,124365,12,0,125865,0:0:0:0:
64,112,126615,5,0,0:0:0:0:
64,192,126990,1,0,0:0:0:0:
64,272,127365,2,4,B|64:336|128:336,1,100,4|0,0:0|0:0,0:0:0:0:
208,336,128115,2,8,B|272:336|272:272,1,100,8|0,0:0|0:0,0:0:0:0:
272,192,128865,2,0,B|272:128|336:128,1,100,0|0,0:0|0:0,0:0:0:0:
416,128,129615,2,4,B|480:128|480:192,1,100,8|0,0:0|0:0,0:0:0:0:
480,272,130365,2,4,B|384:336|288:272,1,200,4|0,0:0|0:0,0:0:0:0:
240,216,131490,1,0,0:0:0:0:
224,192,131677,1,0,0:0:0:0:
208,168,131865,1,8,0:0:0:0:
224,32,132990,5,0,0:0:0:0:
256,32,133177,1,0,0:0:0:0:
288,32,133365,2,0,B|384:32|416:96|384:192,1,200,8|0,0:0|0:0,0:0:0:0:
368,240,134490,1,0,0:0:0:0:
324,308,134865,1,0,0:0:0:0:
252,340,135240,1,0,0:0:0:0:
172,344,135615,1,0,0:0:0:0:
96,320,135990,1,0,0:0:0:0:
28,280,136365,6,4,B|28:184|92:184,1,100,4|0,0:0|0:0,0:0:0:0:
140,176,137115,2,4,B|204:176|236:112,1,100,8|0,0:0|0:0,0:0:0:0:
272,68,137865,2,4,B|304:36|368:36,1,100,8|0,0:0|0:0,0:0:0:0:
380,116,138615,5,0,0:0:0:0:
408,192,138990,1,0,0:0:0:0:
420,272,139365,2,4,B|420:336|356:336,1,100,4|0,0:0|0:0,0:0:0:0:
280,340,140115,2,0,B|216:340|216:276,1,100,8|0,0:0|0:0,0:0:0:0:
216,200,140865,2,4,B|216:136|152:136,1,100,0|0,0:0|0:0,0:0:0:0:
76,136,141615,2,4,B|12:136|12:200,1,100,8|0,0:0|0:0,0:0:0:0:
20,276,142365,2,4,B|116:340|212:276,1,200,4|0,0:0|0:0,0:0:0:0:
264,220,143490,1,0,0:0:0:0:
288,196,143677,1,0,0:0:0:0:
312,172,143865,1,8,0:0:0:0:
244,36,144990,5,0,0:0:0:0:
212,36,145177,1,0,0:0:0:0:
180,36,145365,2,4,B|84:36|52:100|84:196,1,200,8|0,0:0|0:0,0:0:0:0:
124,256,146490,1,8,0:0:0:0:
184,335,146865,1,0,0:0:0:0:
278,300,147240,1,8,0:0:0:0:
275,201,147615,1,0,0:0:0:0:
179,173,147990,1,0,0:0:0:0:
256,192,148365,12,4,149865,0:0:0:0:
440,208,162615,5,8,0:0:0:0:
360,148,162990,1,0,0:0:0:0:
264,128,163365,2,0,B|152:128|92:240,1,200
176,288,164490,1,0,0:0:0:0:
276,300,164865,2,0,B|356:300|384:248,1,100
296,200,165615,5,0,0:0:0:0:
200,160,165990,1,0,0:0:0:0:
96,160,166365,2,0,P|32:176|-8:240,2,100
200,160,167490,1,0,0:0:0:0:
296,200,167865,1,4,0:0:0:0:
276,332,168615,5,0,0:0:0:0:
176,316,168990,1,0,0:0:0:0:
92,260,169365,2,0,B|12:224|12:80,1,200
112,104,170490,1,0,0:0:0:0:
208,136,170865,2,0,B|264:148|284:196,1,100
184,256,171615,5,0,0:0:0:0:
272,304,171990,1,0,0:0:0:0:
368,312,172365,2,0,P|448:304|480:288,2,100
272,304,173490,1,0,0:0:0:0:
184,256,173865,1,0,0:0:0:0:
8,224,174990,5,0,0:0:0:0:
52,136,175365,1,0,0:0:0:0:
140,84,175740,1,0,0:0:0:0:
240,88,176115,1,0,0:0:0:0:
292,172,176490,2,0,B|292:236|372:236,4,100
288,72,178365,5,0,0:0:0:0:
88,72,179115,1,0,0:0:0:0:
88,172,179490,2,0,B|88:236|-8:236,1,100
0,32,180615,5,0,0:0:0:0:
96,24,180990,1,0,0:0:0:0:
192,48,181365,2,0,B|240:88|288:88|288:8|336:8|400:48,1,200
440,104,182490,1,0,0:0:0:0:
432,200,182865,2,0,P|408:264|376:280,1,100
280,280,183615,1,0,0:0:0:0:
184,256,183990,2,0,B|44:164|132:-3|293:38|312:210|126:262|60:108,1,500
144,272,186990,5,0,0:0:0:0:
180,272,187177,1,0,0:0:0:0:
216,272,187365,2,0,B|312:272|312:144|216:144,1,200
132,140,188490,1,0,0:0:0:0:
96,136,188677,1,0,0:0:0:0:
60,136,188865,1,0,0:0:0:0:
24,228,189240,5,0,0:0:0:0:
104,320,189615,1,0,0:0:0:0:
192,232,189990,1,0,0:0:0:0:
128,128,190365,1,0,0:0:0:0:
64,232,190740,1,0,0:0:0:0:
168,296,191115,1,0,0:0:0:0:
248,208,191490,1,0,0:0:0:0:
168,120,191865,1,0,0:0:0:0:
64,184,192240,5,0,0:0:0:0:
48,280,192615,1,0,0:0:0:0:
120,352,192990,1,0,0:0:0:0:
216,376,193365,2,0,B|280:408|376:376|408:280|376:184|280:152|216:184,1,400,4|0,0:0|0:0,0:0:0:0:
256,280,195240,1,0,0:0:0:0:
160,256,195615,1,0,0:0:0:0:
72,208,195990,1,0,0:0:0:0:
56,112,196365,2,0,B|184:48|280:176|152:304|24:176|120:48|248:112,1,400
432,176,198615,6,0,B|368:272,1,100
320,340,199365,1,8,0:0:0:0:
144,244,200115,1,0,0:0:0:0:
60,188,200490,2,0,B|-57:128|-18:34|68:-17|143:91,1,300,8|0,0:0|0:0,0:0:0:0:
304,160,202365,6,0,B|368:160|400:64,1,100,8|0,0:0|0:0,0:0:0:0:
288,64,203115,1,0,0:0:0:0:
192,16,203490,2,0,B|64:16,1,100,8|0,0:0|0:0,0:0:0:0:
16,80,204240,5,0,0:0:0:0:
80,144,204615,1,0,0:0:0:0:
128,224,204990,1,8,0:0:0:0:
32,256,205365,2,0,B|32:320|96:320,1,100,8|0,0:0|0:0,0:0:0:0:
192,320,206115,2,0,B|320:320,1,100
384,320,206865,2,0,B|448:320|448:256,1,100,0|0,0:0|0:0,0:0:0:0:
448,160,207615,2,0,B|448:96|384:96,1,100
320,160,208365,2,0,B|256:256|32:96|96:32|192:-64|288:32|352:96|128:256|64:160,1,600,4|0,0:0|0:0,0:0:0:0:
256,192,211365,12,0,212865,0:0:0:0:
448,272,213615,5,0,0:0:0:0:
448,192,213990,1,0,0:0:0:0:
448,112,214365,2,4,B|448:48|384:48,1,100,4|0,0:0|0:0,0:0:0:0:
304,48,215115,2,4,B|240:48|240:112,1,100,8|0,0:0|0:0,0:0:0:0:
240,192,215865,2,4,B|240:256|176:256,1,100,0|0,0:0|0:0,0:0:0:0:
96,256,216615,2,4,B|32:256|32:192,1,100,8|0,0:0|0:0,0:0:0:0:
32,112,217365,2,4,B|128:48|224:112,1,200,8|0,0:0|0:0,0:0:0:0:
272,176,218490,1,0,0:0:0:0:
288,208,218677,1,0,0:0:0:0:
296,240,218865,1,8,0:0:0:0:
104,240,219990,5,0,0:0:0:0:
96,208,220177,1,0,0:0:0:0:
96,176,220365,2,0,B|104:88|184:48|224:48|272:48,1,200,4|8,0:0|0:0,0:0:0:0:
312,48,221490,1,8,0:0:0:0:
384,80,221865,1,0,0:0:0:0:
432,144,222240,1,8,0:0:0:0:
440,224,222615,1,0,0:0:0:0:
400,296,222990,1,0,0:0:0:0:
344,352,223365,2,4,B|248:352|248:288,1,100,8|0,0:0|0:0,0:0:0:0:
224,248,224115,2,4,B|200:192|144:168,1,100,8|0,0:0|0:0,0:0:0:0:
88,144,224865,2,4,B|56:112|56:48,1,100,8|0,0:0|0:0,0:0:0:0:
136,72,225615,5,0,0:0:0:0:
208,96,225990,1,0,0:0:0:0:
288,96,226365,2,4,B|352:96|392:40,1,100,4|0,0:0|0:0,0:0:0:0:
448,16,227115,2,4,B|480:72|448:136,1,100,8|0,0:0|0:0,0:0:0:0:
400,168,227865,2,4,B|352:200|352:264,1,100,0|0,0:0|0:0,0:0:0:0:
376,328,228615,2,4,B|408:376|472:368,1,100,8|0,0:0|0:0,0:0:0:0:
448,288,229365,2,4,B|512:192|448:96,1,200,8|0,0:0|0:0,0:0:0:0:
392,48,230490,1,0,0:0:0:0:
360,40,230677,1,0,0:0:0:0:
328,40,230865,1,8,0:0:0:0:
200,248,231990,5,0,0:0:0:0:
224,272,232177,1,0,0:0:0:0:
256,288,232365,2,4,B|352:288|384:224|352:128,1,200,4|8,0:0|0:0,0:0:0:0:
312,88,233490,1,8,0:0:0:0:
240,48,233865,1,0,0:0:0:0:
160,48,234240,1,8,0:0:0:0:
88,80,234615,1,0,0:0:0:0:
56,152,234990,1,0,0:0:0:0:
256,192,235365,12,8,236865,0:0:0:0:
192,288,237615,5,0,0:0:0:0:
192,288,237802,1,0,0:0:0:0:
192,288,237990,1,0,0:0:0:0:
192,288,238177,1,0,0:0:0:0:
192,288,238365,2,0,B|320:352|352:192|256:96|160:192|192:352|320:288,1,400,8|8,0:0|0:0,0:0:0:0:
448,288,240802,5,4,0:0:0:0:
416,288,240990,1,8,0:0:0:0:
352,288,241365,2,0,B|224:352|192:192|288:96|384:192|352:352|224:288,1,400,0|8,0:0|0:0,0:0:0:0:
212,200,243990,5,0,0:0:0:0:
216,236,244177,1,0,0:0:0:0:
224,272,244365,2,4,B|240:352|352:368|416:304,1,200,4|0,0:0|0:0,0:0:0:0:
448,288,245490,1,0,0:0:0:0:
464,256,245677,1,0,0:0:0:0:
448,224,245865,1,0,0:0:0:0:
416,208,246052,1,0,0:0:0:0:
384,192,246240,1,0,0:0:0:0:
368,160,246427,1,0,0:0:0:0:
352,128,246615,5,0,0:0:0:0:
368,96,246802,1,0,0:0:0:0:
400,80,246990,1,0,0:0:0:0:
432,96,247177,1,0,0:0:0:0:
448,128,247365,2,0,B|544:256|384:352|320:224|384:96|544:192|448:352,1,400,4|0,0:0|0:0,0:0:0:0:
384,368,249240,5,4,0:0:0:0:
288,352,249615,1,4,0:0:0:0:
200,296,249990,1,4,0:0:0:0:
256,192,250365,12,0,251865,0:0:0:0:
448,112,252615,5,0,0:0:0:0:
448,192,252990,1,0,0:0:0:0:
448,272,253365,2,4,B|448:336|384:336,1,100,4|0,0:0|0:0,0:0:0:0:
304,336,254115,2,4,B|240:336|240:272,1,100,4|0,0:0|0:0,0:0:0:0:
240,192,254865,2,4,B|240:128|176:128,1,100,4|0,0:0|0:0,0:0:0:0:
96,128,255615,2,4,B|32:128|32:192,1,100,4|0,0:0|0:0,0:0:0:0:
32,272,256365,2,4,B|128:336|224:272,1,200,4|0,0:0|0:0,0:0:0:0:
272,216,257490,1,0,0:0:0:0:
288,192,257677,1,0,0:0:0:0:
304,168,257865,1,4,0:0:0:0:
288,32,258990,5,0,0:0:0:0:
256,32,259177,1,0,0:0:0:0:
224,32,259365,2,0,B|128:32|96:96|128:192,1,200,4|0,0:0|0:0,0:0:0:0:
144,240,260490,1,0,0:0:0:0:
188,308,260865,1,0,0:0:0:0:
260,340,261240,1,0,0:0:0:0:
340,344,261615,1,0,0:0:0:0:
416,320,261990,1,0,0:0:0:0:
484,280,262365,6,4,B|484:184|420:184,1,100,4|0,0:0|0:0,0:0:0:0:
372,176,263115,2,4,B|308:176|276:112,1,100,4|0,0:0|0:0,0:0:0:0:
240,68,263865,2,4,B|208:36|144:36,1,100,4|0,0:0|0:0,0:0:0:0:
132,116,264615,5,0,0:0:0:0:
104,192,264990,1,0,0:0:0:0:
92,272,265365,2,4,B|92:336|156:336,1,100,4|0,0:0|0:0,0:0:0:0:
232,340,266115,2,4,B|296:340|296:276,1,100,4|0,0:0|0:0,0:0:0:0:
296,200,266865,2,4,B|296:136|360:136,1,100,4|0,0:0|0:0,0:0:0:0:
436,136,267615,2,4,B|500:136|500:200,1,100,4|0,0:0|0:0,0:0:0:0:
492,276,268365,2,4,B|396:340|300:276,1,200,4|0,0:0|0:0,0:0:0:0:
248,220,269490,1,0,0:0:0:0:
224,196,269677,1,0,0:0:0:0:
200,172,269865,1,4,0:0:0:0:
268,36,270990,5,0,0:0:0:0:
300,36,271177,1,0,0:0:0:0:
332,36,271365,2,4,B|428:36|460:100|428:196,1,200,4|0,0:0|0:0,0:0:0:0:
388,256,272490,1,0,0:0:0:0:
328,335,272865,1,0,0:0:0:0:
234,300,273240,1,0,0:0:0:0:
237,201,273615,1,0,0:0:0:0:
333,173,273990,1,0,0:0:0:0:
256,192,274365,12,0,275865,0:0:0:0:
64,272,276615,5,0,0:0:0:0:
64,192,276990,1,0,0:0:0:0:
64,112,277365,2,4,B|64:48|128:48,1,100,4|0,0:0|0:0,0:0:0:0:
208,48,278115,2,4,B|272:48|272:112,1,100,4|0,0:0|0:0,0:0:0:0:
272,192,278865,2,4,B|272:256|336:256,1,100,4|0,0:0|0:0,0:0:0:0:
416,256,279615,2,4,B|480:256|480:192,1,100,4|0,0:0|0:0,0:0:0:0:
480,112,280365,2,4,B|384:48|288:112,1,200,4|0,0:0|0:0,0:0:0:0:
240,176,281490,1,0,0:0:0:0:
224,208,281677,1,0,0:0:0:0:
216,240,281865,1,4,0:0:0:0:
408,240,282990,5,0,0:0:0:0:
416,208,283177,1,0,0:0:0:0:
416,176,283365,2,0,B|408:88|328:48|288:48|240:48,1,200,4|0,0:0|0:0,0:0:0:0:
200,48,284490,1,0,0:0:0:0:
128,80,284865,1,0,0:0:0:0:
80,144,285240,1,0,0:0:0:0:
72,224,285615,1,0,0:0:0:0:
112,296,285990,1,0,0:0:0:0:
168,352,286365,2,4,B|264:352|264:288,1,100,4|0,0:0|0:0,0:0:0:0:
288,248,287115,2,4,B|312:192|368:168,1,100,4|0,0:0|0:0,0:0:0:0:
424,144,287865,2,4,B|456:112|456:48,1,100,4|0,0:0|0:0,0:0:0:0:
376,72,288615,5,0,0:0:0:0:
304,96,288990,1,0,0:0:0:0:
224,96,289365,2,4,B|160:96|120:40,1,100,4|0,0:0|0:0,0:0:0:0:
64,16,290115,2,4,B|32:72|64:136,1,100,4|0,0:0|0:0,0:0:0:0:
112,168,290865,2,4,B|160:200|160:264,1,100,4|0,0:0|0:0,0:0:0:0:
136,328,291615,2,4,B|104:376|40:368,1,100,4|0,0:0|0:0,0:0:0:0:
64,288,292365,2,4,B|0:192|64:96,1,200,4|0,0:0|0:0,0:0:0:0:
120,48,293490,1,0,0:0:0:0:
152,40,293677,1,0,0:0:0:0:
184,40,293865,1,4,0:0:0:0:
312,248,294990,5,0,0:0:0:0:
288,272,295177,1,0,0:0:0:0:
256,288,295365,2,4,B|160:288|128:224|160:128,1,200,4|0,0:0|0:0,0:0:0:0:
200,88,296490,5,0,0:0:0:0:
272,48,296865,1,0,0:0:0:0:
352,48,297240,1,0,0:0:0:0:
424,80,297615,1,0,0:0:0:0:
456,152,297990,1,0,0:0:0:0:
256,192,298365,12,0,299865,0:0:0:0:
256,288,300990,5,0,0:0:0:0:
224,288,301177,1,0,0:0:0:0:
192,288,301365,2,0,B|96:288|96:192,1,150.000005722046
96,128,302490,1,0,0:0:0:0:
128,64,302865,1,0,0:0:0:0:
192,32,303240,1,0,0:0:0:0:
256,32,303615,1,0,0:0:0:0:
320,64,303990,1,0,0:0:0:0:
256,192,304365,12,0,308864,0:0:0:0:
