osu file format v12

[General]
AudioFilename: kimigatame.mp3
AudioLeadIn: 0
PreviewTime: 126615
Countdown: 0
SampleSet: Normal
StackLeniency: 0.7
Mode: 0
LetterboxInBreaks: 1

[Editor]
Bookmarks: 51240,57269,63643,75266,126256,151365,162625,174997,186995,213615,237611,252608
DistanceSpacing: 1.1
BeatDivisor: 4
GridSize: 8

[Metadata]
Title:Kimi ga Tame
TitleUnicode:キミガタメ
Artist:Suara
ArtistUnicode:Suara
Creator:Steph De Chine
Version:Difficile
Source:Utawarerumono
Tags:Anime Japanese
BeatmapID:193930
BeatmapSetID:54164

[Difficulty]
HPDrainRate:9
CircleSize:2
OverallDifficulty:5
ApproachRate:8
SliderMultiplier:3
SliderTickRate:2

[Events]
//Background and Video events
0,0,"kimigatame.jpg",0,0
Video,0,"kimigatame.avi"
//Break Periods
2,151565,161865
//Storyboard Layer 0 (Background)
//Storyboard Layer 1 (Fail)
//Storyboard Layer 2 (Pass)
//Storyboard Layer 3 (Foreground)
//Storyboard Sound Samples
//Background Colour Transformations
3,100,163,162,255

[TimingPoints]
28365,750,4,1,1,70,1,0
40365,-111.111111111111,4,1,1,50,0,0
43365,-100,4,1,1,30,0,0
44865,-100,4,1,1,50,0,0
51615,-100,4,1,1,40,0,0
124365,-100,4,1,1,70,0,0
127381,-100,4,1,1,70,0,1
151365,-100,4,1,1,55,0,0
211365,-100,4,1,1,70,0,0
214364,-100,4,1,1,70,0,1
237236,-100,4,1,1,60,0,0
250358,-100,4,1,1,70,0,1
251865,-100,4,1,1,100,0,0
253365,-100,4,1,1,100,0,1
300615,-200,4,1,1,70,0,0
305115,-200,4,1,1,60,0,0
305865,-200,4,1,1,45,0,0
306615,-200,4,1,1,30,0,0
307365,-200,4,1,1,15,0,0
308115,-200,4,1,1,5,0,0

[Colours]
Combo1 : 0,255,255
Combo2 : 5,240,5
Combo3 : 255,0,0
Combo4 : 255,128,0
Combo5 : 255,255,0

[HitObjects]
112,64,28177,1,2,0:0:0:0:
192,64,28365,1,4,1:0:0:0:
256,96,28552,1,2,0:0:0:0:
288,160,28740,2,0,B|248:192|192:200,1,75,0|0,0:0|0:0,0:0:0:0:
144,200,29115,1,8,0:0:0:0:
224,320,29490,5,0,0:0:0:0:
288,288,29677,1,2,0:0:0:0:
320,224,29865,2,0,B|256:128,1,75,4|2,0:0|0:0,0:0:0:0:
320,224,30240,2,0,B|384:320,1,75
416,320,30615,1,8,0:0:0:0:
512,224,30990,5,0,0:0:0:0:
480,160,31177,1,2,0:0:0:0:
416,128,31365,2,0,B|352:128|320:160,1,75,0|2,0:0|0:0,0:0:0:0:
416,128,31740,2,0,B|384:96|384:32,1,75
312,72,32115,2,0,P|232:120|176:96,1,150,8|0,0:0|0:0,0:0:0:0:
104,208,32865,2,0,P|136:120|200:104,1,150,0|0,0:0|0:0,0:0:0:0:
264,232,33615,2,0,B|360:232|360:136,1,150,8|0,0:0|0:0,0:0:0:0:
480,64,34365,5,0,0:0:0:0:
448,128,34552,1,2,0:0:0:0:
384,160,34740,1,0,0:0:0:0:
320,160,34927,1,0,0:0:0:0:
256,128,35115,1,8,0:0:0:0:
184,256,35490,5,0,0:0:0:0:
112,248,35677,1,2,0:0:0:0:
64,192,35865,2,0,B|96:112|184:88,1,150,0|0,0:0|0:0,0:0:0:0:
320,96,36615,1,0,0:0:0:0:
448,160,36990,1,0,0:0:0:0:
496,304,37365,5,0,0:0:0:0:
448,160,37740,1,0,0:0:0:0:
384,288,38115,2,0,B|376:328|320:352,1,75,0|8,0:0|0:0,0:0:0:0:
384,288,38490,2,0,B|368:232|312:216,1,75,0|2,0:0|0:0,0:0:0:0:
288,176,38865,1,0,0:0:0:0:
136,152,39240,1,0,0:0:0:0:
8,232,39615,1,2,0:0:0:0:
88,360,39990,1,10,0:0:0:0:
216,328,40365,2,2,B|248:200|376:264|456:56|312:8|216:80|216:80|120:8|0:48|24:264|184:200|208:328,1,809.999975280762,2|8,0:0|0:0,0:0:0:0:
336,272,43365,22,2,B|288:128|480:64|512:192|480:320|288:256|336:112,1,450,0|8,0:0|0:0,0:0:0:0:
176,112,44865,2,2,B|224:256|32:320|0:192|32:64|224:128|176:272,1,450,2|8,0:0|0:0,0:0:0:0:
328,224,46365,6,0,B|384:176|336:120,1,75,0|2,0:0|0:0,0:0:0:0:
288,160,46740,2,0,B|224:128|160:192,1,75
144,176,47115,1,2,0:0:0:0:
56,296,47490,1,0,0:0:0:0:
16,360,47677,1,2,0:0:0:0:
56,296,47865,5,0,0:0:0:0:
120,264,48052,1,2,0:0:0:0:
184,232,48240,1,0,0:0:0:0:
200,160,48427,1,0,0:0:0:0:
160,96,48615,1,8,0:0:0:0:
312,96,48990,2,0,B|432:96,1,75
387,96,49365,2,0,B|440:160|386:192,1,75,0|2,0:0|0:0,0:0:0:0:
388,96,49740,2,0,B|345:160|313:128,1,75,0|0,0:0|0:0,0:0:0:0:
256,152,50115,1,8,0:0:0:0:
112,128,50490,2,0,B|37:96|37:64,2,75
40,296,51615,5,8,0:0:0:0:
192,272,51990,1,0,0:0:0:0:
336,224,52365,2,0,B|384:256|400:304,1,75
336,224,52740,2,0,B|288:192|272:144,1,75
360,152,53115,1,8,0:0:0:0:
448,32,53490,5,0,0:0:0:0:
304,48,53865,2,8,B|240:48|224:144,1,75,8|0,0:0|0:0,0:0:0:0:
224,160,54240,2,0,B|208:208|128:240,1,75
104,240,54615,1,0,0:0:0:0:
248,280,54990,1,0,0:0:0:0:
400,288,55365,6,0,B|480:288|480:224,1,75
448,192,55740,2,0,B|480:144|464:80,1,75
464,48,56115,1,2,0:0:0:0:
312,64,56490,1,0,0:0:0:0:
184,144,56865,1,8,0:0:0:0:
480,192,57615,5,8,0:0:0:0:
360,280,57990,1,0,0:0:0:0:
208,264,58365,2,0,B|160:296|144:344,1,75
208,264,58740,2,0,B|256:232|272:184,1,75
184,192,59115,1,8,0:0:0:0:
48,120,59490,5,0,0:0:0:0:
184,64,59865,2,8,B|240:48|288:96,1,75
304,128,60240,2,8,B|320:176|400:184,1,75
432,192,60615,1,0,0:0:0:0:
432,40,60990,1,0,0:0:0:0:
280,56,61365,6,0,B|200:56|200:120,1,75
232,152,61740,2,0,B|200:200|216:264,1,75
216,296,62115,1,2,0:0:0:0:
360,264,62490,1,0,0:0:0:0:
480,176,62865,1,8,0:0:0:0:
112,176,63990,6,0,P|88:80|128:32,1,150
416,48,65115,2,0,P|440:128|408:216,1,150,0|8,0:0|0:0,0:0:0:0:
288,120,65865,1,0,0:0:0:0:
160,40,66240,1,0,0:0:0:0:
136,112,66427,1,0,0:0:0:0:
136,184,66615,1,8,0:0:0:0:
208,312,66990,6,0,P|80:312|32:272,1,150
288,104,68115,6,0,P|416:104|464:144,1,150
352,240,68865,1,0,0:0:0:0:
208,280,69240,1,0,0:0:0:0:
160,224,69427,1,0,0:0:0:0:
144,152,69615,1,8,0:0:0:0:
296,136,69990,5,0,0:0:0:0:
352,192,70177,1,0,0:0:0:0:
344,264,70365,2,0,P|216:248|272:128,1,300,8|0,0:0|0:0,0:0:0:0:
344,264,71490,5,8,0:0:0:0:
456,184,71865,1,0,0:0:0:0:
312,184,72240,1,0,0:0:0:0:
424,264,72615,1,0,0:0:0:0:
384,120,72990,1,0,0:0:0:0:
344,264,73365,1,8,0:0:0:0:
448,176,73740,2,0,B|496:152|512:80,1,75
424,104,74115,1,8,0:0:0:0:
280,136,74490,1,8,0:0:0:0:
168,240,74865,1,8,0:0:0:0:
472,296,75615,5,8,0:0:0:0:
320,272,75990,1,0,0:0:0:0:
176,224,76365,2,0,B|128:256|112:304,1,75
176,224,76740,2,0,B|224:192|240:144,1,75
152,152,77115,1,8,0:0:0:0:
64,32,77490,5,8,0:0:0:0:
208,48,77865,2,0,B|272:48|288:144,1,75,0|0,0:0|0:0,0:0:0:0:
288,160,78240,2,0,B|304:208|384:240,1,75
408,240,78615,1,8,0:0:0:0:
264,280,78990,1,0,0:0:0:0:
112,272,79365,5,4,0:0:0:0:
48,136,79740,2,0,B|16:88|32:24,1,75
104,80,80115,1,8,0:0:0:0:
248,112,80490,1,0,0:0:0:0:
344,224,80865,1,4,0:0:0:0:
40,296,81615,5,8,0:0:0:0:
192,272,81990,1,0,0:0:0:0:
336,224,82365,2,0,B|384:256|400:304,1,75
336,224,82740,2,0,B|288:192|272:144,1,75
360,152,83115,1,8,0:0:0:0:
448,32,83490,5,8,0:0:0:0:
304,48,83865,2,0,B|240:48|224:144,1,75
224,160,84240,2,0,B|208:208|128:240,1,75
104,240,84615,1,8,0:0:0:0:
248,280,84990,1,0,0:0:0:0:
400,280,85365,5,8,0:0:0:0:
480,152,85740,2,0,B|512:104|496:40,1,75
424,88,86115,1,8,0:0:0:0:
272,80,86490,1,0,0:0:0:0:
120,56,86865,1,12,0:0:0:0:
400,208,87990,6,0,B|432:240|456:320|400:376,1,150
128,344,89115,2,0,B|96:312|72:232|128:176,1,150,0|8,0:0|0:0,0:0:0:0:
248,256,89865,1,0,0:0:0:0:
112,192,90240,1,0,0:0:0:0:
176,152,90427,1,0,0:0:0:0:
248,144,90615,1,8,0:0:0:0:
392,184,90990,6,0,B|424:152|448:72|392:16,1,150
128,40,92115,2,0,B|96:72|72:152|128:208,1,150,2|0,0:0|0:0,0:0:0:0:
248,128,92865,1,0,0:0:0:0:
112,192,93240,1,0,0:0:0:0:
176,232,93427,1,0,0:0:0:0:
248,240,93615,21,8,0:0:0:0:
392,192,93990,1,0,0:0:0:0:
256,128,94365,2,0,B|128:96|96:192|128:288|256:256,1,300,0|0,0:0|0:0,0:0:0:0:
384,240,95490,5,2,0:0:0:0:
272,140,95865,1,8,0:0:0:0:
420,144,96240,1,0,0:0:0:0:
308,240,96615,1,0,0:0:0:0:
344,96,96990,1,0,0:0:0:0:
480,160,97365,1,2,0:0:0:0:
352,240,97740,2,0,B|299:304|320:336,1,75
240,304,98115,1,8,0:0:0:0:
120,208,98490,1,0,0:0:0:0:
56,72,98865,1,8,0:0:0:0:
432,192,99990,5,0,0:0:0:0:
400,128,100177,1,0,0:0:0:0:
336,96,100365,2,0,B|304:80|240:80|256:144|240:208|176:208|160:144|176:80|112:80|80:96,1,300,2|0,0:0|0:0,0:0:0:0:
32,224,101490,1,0,0:0:0:0:
80,280,101677,1,0,0:0:0:0:
152,304,101865,1,2,0:0:0:0:
312,304,102240,5,0,0:0:0:0:
448,224,102615,1,2,0:0:0:0:
416,80,102990,1,0,0:0:0:0:
272,32,103365,1,8,0:0:0:0:
128,80,103740,1,0,0:0:0:0:
80,224,104115,1,8,0:0:0:0:
192,320,104490,1,0,0:0:0:0:
336,288,104865,1,8,0:0:0:0:
416,160,105240,5,0,0:0:0:0:
264,160,105615,1,0,0:0:0:0:
368,268,105990,1,0,0:0:0:0:
340,120,106365,1,8,0:0:0:0:
296,264,106740,2,0,B|232:264|216:296,1,75
160,320,107115,1,8,0:0:0:0:
152,172,107490,1,0,0:0:0:0:
80,304,107865,1,8,0:0:0:0:
216,248,108240,5,0,0:0:0:0:
72,216,108615,1,0,0:0:0:0:
48,64,108990,1,0,0:0:0:0:
184,128,109365,1,0,0:0:0:0:
328,88,109740,2,0,B|304:40|248:16,1,75
200,32,110115,1,8,0:0:0:0:
88,128,110490,1,0,0:0:0:0:
152,264,110865,1,12,0:0:0:0:
400,96,111615,5,0,0:0:0:0:
256,48,111990,1,0,0:0:0:0:
104,72,112365,2,0,P|72:144|80:216,1,150,8|0,0:0|0:0,0:0:0:0:
208,160,113115,1,0,0:0:0:0:
288,288,113490,2,0,P|352:152|272:32,1,300,8|0,0:0|0:0,0:0:0:0:
208,160,114615,2,0,B|112:208|144:320,1,150
256,336,115365,5,8,0:0:0:0:
368,272,115740,1,0,0:0:0:0:
424,160,116115,2,0,B|448:112|440:16|352:-16,1,150,0|8,0:0|0:0,0:0:0:0:
280,112,117240,5,0,0:0:0:0:
136,72,117615,1,0,0:0:0:0:
8,152,117990,1,8,0:0:0:0:
80,288,118365,2,0,B|192:240|176:128,1,150,8|0,0:0|0:0,0:0:0:0:
320,176,119115,2,0,B|432:224|416:336,1,150
320,176,119865,2,0,B|432:128|416:16,1,150,8|0,0:0|0:0,0:0:0:0:
272,32,120615,2,0,B|160:80|176:192,1,150
320,104,121365,2,0,B|376:72|424:112,1,75
368,160,121740,2,0,B|421:224|389:240,1,75
472,216,122115,2,0,B|480:232|469:312|376:296,1,150,8|0,0:0|0:0,0:0:0:0:
240,352,122865,2,0,B|228:335|192:272|224:216|272:176|288:176,1,150
384,152,123615,2,0,B|336:48|224:64,1,150
256,192,124365,12,8,125864,0:0:0:0:
416,144,126615,5,0,0:0:0:0:
288,64,126990,1,0,0:0:0:0:
144,80,127365,5,4,0:0:0:0:
88,216,127740,2,0,B|64:256|104:312,1,75
168,256,128115,5,8,0:0:0:0:
312,216,128490,2,0,B|360:184|352:112,1,75
272,152,128865,5,0,0:0:0:0:
128,144,129240,2,0,B|72:144|16:72,1,75
120,64,129615,5,8,0:0:0:0:
272,56,129990,2,0,B|328:104|312:160,1,75
232,128,130365,5,8,0:0:0:0:
88,200,130740,2,0,B|56:216|40:264,1,75
56,336,131115,5,8,0:0:0:0:
224,336,131490,1,0,0:0:0:0:
291,310,131677,1,0,0:0:0:0:
330,250,131865,2,0,B|371:173|296:117,1,150,8|0,0:0|0:0,0:0:0:0:
152,80,132615,1,8,0:0:0:0:
296,120,132990,5,0,0:0:0:0:
232,88,133177,1,0,0:0:0:0:
152,80,133365,2,0,P|72:120|56:200,1,150,0|0,0:0|0:0,0:0:0:0:
48,320,134115,1,2,0:0:0:0:
176,240,134490,5,8,0:0:0:0:
56,152,134865,1,0,0:0:0:0:
144,32,135240,2,0,B|192:16|240:32,1,75,8|0,0:0|0:0,0:0:0:0:
288,48,135615,1,0,0:0:0:0:
384,160,135990,1,0,0:0:0:0:
368,304,136365,1,8,0:0:0:0:
224,304,136740,2,0,B|192:256|208:208,1,75
288,248,137115,1,8,0:0:0:0:
264,96,137490,2,0,B|328:64|384:96,1,75
328,152,137865,2,0,B|384:176|400:232|384:296,1,150,2|0,0:0|0:0,0:0:0:0:
240,256,138615,5,0,0:0:0:0:
328,152,138990,1,0,0:0:0:0:
352,296,139365,5,4,0:0:0:0:
424,168,139740,2,0,B|448:128|408:72,1,75
352,136,140115,5,8,0:0:0:0:
200,168,140490,2,0,B|144:192|168:264,1,75
240,232,140865,5,0,0:0:0:0:
376,208,141240,2,0,B|416:160|400:104,1,75
320,144,141615,5,8,0:0:0:0:
176,168,141990,2,0,B|120:216|136:272,1,75
216,240,142365,5,8,0:0:0:0:
352,192,142740,2,0,B|384:176|400:128,1,75
416,64,143115,1,8,0:0:0:0:
264,56,143490,5,0,0:0:0:0:
200,96,143677,1,0,0:0:0:0:
168,168,143865,2,0,B|144:264|232:320,1,150,8|0,0:0|0:0,0:0:0:0:
352,336,144615,1,0,0:0:0:0:
208,304,144990,5,0,0:0:0:0:
280,328,145177,1,0,0:0:0:0:
352,336,145365,2,0,P|432:280|408:200,1,150,8|0,0:0|0:0,0:0:0:0:
368,104,146115,1,0,0:0:0:0:
200,104,146490,5,8,0:0:0:0:
64,192,146865,1,0,0:0:0:0:
160,304,147240,2,0,B|208:320|256:304,1,75,8|0,0:0|0:0,0:0:0:0:
312,296,147615,1,0,0:0:0:0:
424,200,147990,1,0,0:0:0:0:
360,64,148365,1,4,0:0:0:0:
216,88,148740,2,0,B|184:136|200:184,1,75
272,144,149115,1,0,0:0:0:0:
424,128,149490,1,0,0:0:0:0:
256,192,149865,12,0,151365,0:0:0:0:
400,296,162615,5,2,0:0:0:0:
456,160,162990,1,0,0:0:0:0:
336,64,163365,2,0,B|288:96|272:144,1,75
256,184,163740,2,0,B|232:240|168:248,1,75
136,256,164115,1,0,0:0:0:0:
136,104,164490,5,0,0:0:0:0:
40,216,164865,1,8,0:0:0:0:
168,304,165240,2,0,B|216:272|232:224,1,75
256,184,165615,1,0,0:0:0:0:
360,72,165990,1,0,0:0:0:0:
208,48,166365,6,0,B|128:48|128:112,1,75
88,128,166740,2,0,B|56:176|96:240,1,75
112,264,167115,1,2,0:0:0:0:
240,344,167490,1,0,0:0:0:0:
392,360,167865,1,4,0:0:0:0:
408,64,168615,5,2,0:0:0:0:
416,216,168990,1,0,0:0:0:0:
320,328,169365,2,0,B|272:296|256:248,1,75
240,208,169740,2,0,B|216:152|152:144,1,75
120,128,170115,1,8,0:0:0:0:
136,280,170490,5,0,0:0:0:0:
40,168,170865,1,2,0:0:0:0:
168,80,171240,2,0,B|216:112|232:160,1,75
248,200,171615,1,0,0:0:0:0:
344,312,171990,1,2,0:0:0:0:
192,328,172365,6,0,B|112:328|112:264,1,75
72,256,172740,2,0,B|40:208|80:144,1,75
88,112,173115,1,2,0:0:0:0:
208,24,173490,1,0,0:0:0:0:
360,40,173865,1,4,0:0:0:0:
256,208,174990,6,0,B|296:232|320:312|240:360,2,150
128,288,176115,2,0,B|80:272|80:224|64:176|136:128,1,150,0|2,0:0|0:0,0:0:0:0:
240,224,176865,1,0,0:0:0:0:
120,136,177240,1,0,0:0:0:0:
256,72,177615,1,2,0:0:0:0:
240,224,177990,1,0,0:0:0:0:
264,368,178365,6,0,B|296:336|320:256|264:200,1,150
176,128,179115,2,2,B|144:160|120:240|176:296,1,150,2|8,0:0|0:0,0:0:0:0:
264,368,179865,1,0,0:0:0:0:
408,336,180240,1,0,0:0:0:0:
472,200,180615,21,0,0:0:0:0:
400,64,180990,1,0,0:0:0:0:
248,56,181365,2,0,B|144:56|112:152|144:248|272:248,1,300,2|0,0:0|0:0,0:0:0:0:
392,248,182490,5,2,0:0:0:0:
280,148,182865,1,0,0:0:0:0:
428,152,183240,1,0,0:0:0:0:
316,248,183615,1,0,0:0:0:0:
352,104,183990,1,0,0:0:0:0:
392,248,184365,1,2,0:0:0:0:
280,148,184740,2,0,B|227:212|248:244,1,75
224,284,185115,1,0,0:0:0:0:
96,364,185490,1,0,0:0:0:0:
88,212,185865,1,0,0:0:0:0:
416,224,186990,5,0,0:0:0:0:
376,160,187177,1,0,0:0:0:0:
320,112,187365,2,2,B|232:96|192:160|152:192|160:272|216:336,1,300
296,232,188490,1,0,0:0:0:0:
368,256,188677,1,0,0:0:0:0:
440,248,188865,1,2,0:0:0:0:
304,304,189240,6,0,B|288:336|248:352,1,75
224,280,189615,2,2,B|184:304|136:304,1,75,2|0,0:0|0:0,0:0:0:0:
144,232,189990,2,0,B|96:232|64:216,1,75
112,152,190365,2,8,B|72:136|56:104,1,75
128,72,190740,2,0,B|160:48|208:48,1,75
216,120,191115,2,0,B|256:112|304:128,1,75
264,192,191490,2,0,B|312:200|352:232,1,75
280,272,191865,2,0,B|328:296|352:336,1,75
384,384,192240,5,0,0:0:0:0:
432,240,192615,1,0,0:0:0:0:
464,96,192990,1,0,0:0:0:0:
320,48,193365,1,2,0:0:0:0:
168,48,193740,2,0,B|104:48|88:80,1,75
48,120,194115,1,2,0:0:0:0:
160,224,194490,1,0,0:0:0:0:
200,80,194865,1,0,0:0:0:0:
344,120,195240,5,2,0:0:0:0:
200,80,195615,1,8,0:0:0:0:
64,152,195990,1,0,0:0:0:0:
112,296,196365,1,8,0:0:0:0:
264,288,196740,2,0,B|307:291|347:267,1,75
400,232,197115,1,2,0:0:0:0:
480,104,197490,1,0,0:0:0:0:
328,96,197865,1,8,0:0:0:0:
96,296,198615,5,0,0:0:0:0:
248,320,198990,1,0,0:0:0:0:
400,312,199365,2,0,B|456:280|440:168|408:144,1,150,2|0,0:0|0:0,0:0:0:0:
288,224,200115,1,0,0:0:0:0:
192,336,200490,2,0,B|128:288|112:192|144:128|208:96|256:96,1,300,2|0,0:0|0:0,0:0:0:0:
280,240,201615,2,0,B|376:192|344:80,1,150,8|0,0:0|0:0,0:0:0:0:
232,24,202365,5,2,0:0:0:0:
96,96,202740,1,0,0:0:0:0:
24,224,203115,2,0,B|-24:272|-8:368|24:384,1,150
296,296,204240,5,0,0:0:0:0:
440,328,204615,1,0,0:0:0:0:
408,184,204990,1,0,0:0:0:0:
336,48,205365,2,0,B|224:96|224:208,1,150,2|0,0:0|0:0,0:0:0:0:
184,288,206115,2,0,B|72:240|72:128,1,150,2|0,0:0|0:0,0:0:0:0:
72,40,206865,2,0,B|184:88|168:200,1,150,2|0,0:0|0:0,0:0:0:0:
184,296,207615,2,0,B|296:248|280:136,1,150,2|0,0:0|0:0,0:0:0:0:
304,40,208365,2,0,B|248:8|200:48,1,75
256,96,208740,2,0,B|203:160|235:176,1,75
152,152,209115,2,0,B|144:168|155:248|248:232,1,150,8|0,0:0|0:0,0:0:0:0:
376,152,209865,2,0,B|388:169|424:232|392:288|344:328|328:328,1,150
232,240,210615,2,0,B|184:344|72:328,1,150,8|0,0:0|0:0,0:0:0:0:
256,192,211365,12,0,212864,0:0:0:0:
96,240,213615,5,0,0:0:0:0:
224,320,213990,1,0,0:0:0:0:
368,304,214365,5,4,0:0:0:0:
424,168,214740,2,0,B|448:128|408:72,1,75
424,168,215115,5,8,0:0:0:0:
288,104,215490,2,0,B|288:48|232:24,1,75
288,104,215865,5,0,0:0:0:0:
136,96,216240,2,0,B|128:40|56:48,1,75
136,96,216615,5,8,0:0:0:0:
8,176,216990,2,0,B|40:208|104:216,1,75
144,224,217365,5,8,0:0:0:0:
288,200,217740,2,0,B|320:184|336:136,1,75
360,72,218115,1,8,0:0:0:0:
472,168,218490,5,0,0:0:0:0:
448,240,218677,1,0,0:0:0:0:
384,272,218865,2,0,B|304:304|256:224,1,150,8|0,0:0|0:0,0:0:0:0:
208,80,219615,1,0,0:0:0:0:
192,232,219990,5,0,0:0:0:0:
256,272,220177,1,0,0:0:0:0:
328,288,220365,2,0,P|416:256|424:160,1,150,8|0,0:0|0:0,0:0:0:0:
296,144,221115,1,0,0:0:0:0:
432,80,221490,5,2,0:0:0:0:
456,232,221865,1,0,0:0:0:0:
368,352,222240,2,0,B|320:368|272:352,1,75,2|0,0:0|0:0,0:0:0:0:
224,336,222615,1,0,0:0:0:0:
128,224,222990,1,0,0:0:0:0:
144,80,223365,5,8,0:0:0:0:
288,80,223740,2,0,B|320:128|304:176,1,75
288,80,224115,5,2,0:0:0:0:
296,232,224490,2,0,B|232:264|176:232,1,75
240,176,224865,2,0,B|184:152|168:96|184:32,1,150,2|0,0:0|0:0,0:0:0:0:
304,136,225615,5,0,0:0:0:0:
184,232,225990,1,0,0:0:0:0:
144,80,226365,5,4,0:0:0:0:
88,216,226740,2,0,B|64:256|104:312,1,75
88,216,227115,5,8,0:0:0:0:
224,280,227490,2,0,B|224:336|280:360,1,75
224,280,227865,5,0,0:0:0:0:
376,288,228240,2,0,B|384:344|456:336,1,75
376,288,228615,5,8,0:0:0:0:
504,208,228990,2,0,B|472:176|408:168,1,75
368,160,229365,5,8,0:0:0:0:
224,184,229740,2,0,B|192:200|176:248,1,75
152,312,230115,1,0,0:0:0:0:
40,216,230490,5,0,0:0:0:0:
64,144,230677,1,0,0:0:0:0:
128,112,230865,2,0,B|208:80|256:160,1,150,8|0,0:0|0:0,0:0:0:0:
304,304,231615,1,0,0:0:0:0:
320,152,231990,5,0,0:0:0:0:
256,112,232177,1,0,0:0:0:0:
184,96,232365,2,0,B|152:112|136:192|168:256,1,150,8|0,0:0|0:0,0:0:0:0:
264,336,233115,1,0,0:0:0:0:
120,288,233490,5,2,0:0:0:0:
56,152,233865,1,0,0:0:0:0:
144,32,234240,2,0,B|192:16|240:32,1,75,2|0,0:0|0:0,0:0:0:0:
288,48,234615,1,0,0:0:0:0:
392,160,234990,1,0,0:0:0:0:
368,304,235365,1,8,0:0:0:0:
224,304,235740,2,0,B|192:256|208:208,1,75
280,248,236115,1,0,0:0:0:0:
264,96,236490,1,0,0:0:0:0:
136,24,236865,2,0,B|88:88|128:176,1,150
232,264,237615,5,2,0:0:0:0:
296,296,237802,1,2,0:0:0:0:
368,288,237990,1,2,0:0:0:0:
432,248,238177,1,2,0:0:0:0:
448,176,238365,1,2,0:0:0:0:
352,56,238740,2,0,B|288:24|224:48,1,75
208,48,239115,1,0,0:0:0:0:
88,144,239490,1,0,0:0:0:0:
56,288,239865,1,4,0:0:0:0:
376,96,240802,5,2,0:0:0:0:
416,160,240990,1,2,0:0:0:0:
368,304,241365,1,8,0:0:0:0:
216,312,241740,2,0,B|176:328|96:296,1,75
176,240,242115,1,0,0:0:0:0:
136,96,242490,1,0,0:0:0:0:
48,216,242865,1,0,0:0:0:0:
96,320,243990,5,2,0:0:0:0:
184,312,244177,1,0,0:0:0:0:
264,272,244365,1,2,0:0:0:0:
392,152,244740,2,0,B|456:128|416:32,1,75
344,80,245115,1,0,0:0:0:0:
168,40,245490,5,2,0:0:0:0:
80,64,245677,1,0,0:0:0:0:
24,136,245865,1,0,0:0:0:0:
32,224,246052,1,0,0:0:0:0:
112,264,246240,1,0,0:0:0:0:
200,240,246427,1,0,0:0:0:0:
248,168,246615,5,0,0:0:0:0:
304,96,246802,1,0,0:0:0:0:
384,56,246990,1,0,0:0:0:0:
472,72,247177,1,2,0:0:0:0:
512,152,247365,1,8,0:0:0:0:
416,304,247740,2,0,B|384:352|304:336,1,75
344,248,248115,1,0,0:0:0:0:
184,168,248490,1,0,0:0:0:0:
8,216,248865,1,8,0:0:0:0:
64,80,249240,5,8,0:0:0:0:
208,48,249615,1,0,0:0:0:0:
360,56,249990,1,0,0:0:0:0:
256,192,250365,12,0,251865,0:0:0:0:
96,144,252615,5,0,0:0:0:0:
224,64,252990,1,0,0:0:0:0:
368,80,253365,5,4,0:0:0:0:
400,144,253552,1,0,0:0:0:0:
400,216,253740,1,0,0:0:0:0:
288,312,254115,5,2,0:0:0:0:
216,288,254302,1,2,0:0:0:0:
152,240,254490,1,2,0:0:0:0:
136,96,254865,5,8,0:0:0:0:
56,128,255052,1,0,0:0:0:0:
16,200,255240,1,0,0:0:0:0:
112,288,255615,5,2,0:0:0:0:
192,304,255802,1,2,0:0:0:0:
272,288,255990,1,0,0:0:0:0:
224,168,256365,5,2,0:0:0:0:
360,240,256740,2,0,B|392:256|408:304,1,75
408,376,257115,1,8,0:0:0:0:
480,208,257490,5,0,0:0:0:0:
448,144,257677,1,0,0:0:0:0:
384,112,257865,1,8,0:0:0:0:
304,240,258240,1,0,0:0:0:0:
224,112,258615,1,0,0:0:0:0:
80,160,258990,5,0,0:0:0:0:
40,224,259177,1,0,0:0:0:0:
48,296,259365,1,2,0:0:0:0:
112,344,259552,1,0,0:0:0:0:
184,344,259740,1,0,0:0:0:0:
256,320,259927,1,0,0:0:0:0:
296,256,260115,1,8,0:0:0:0:
440,232,260490,5,2,0:0:0:0:
472,88,260865,1,0,0:0:0:0:
328,128,261240,1,2,0:0:0:0:
192,192,261615,1,8,0:0:0:0:
80,296,261990,1,0,0:0:0:0:
224,336,262365,2,0,B|272:360|320:328,1,75
264,272,262740,2,0,B|304:272|344:248,1,75
280,200,263115,2,0,B|320:192|352:144,1,75,2|0,0:0|0:0,0:0:0:0:
280,120,263490,2,0,B|312:96|320:40,1,75,2|0,0:0|0:0,0:0:0:0:
240,56,263865,2,2,B|184:80|168:136|184:200,1,150,2|0,0:0|0:0,0:0:0:0:
328,152,264615,5,0,0:0:0:0:
296,296,264990,1,0,0:0:0:0:
144,304,265365,5,4,0:0:0:0:
112,240,265552,1,0,0:0:0:0:
112,168,265740,1,0,0:0:0:0:
152,104,265927,1,0,0:0:0:0:
224,72,266115,5,2,0:0:0:0:
296,96,266302,1,0,0:0:0:0:
360,144,266490,1,0,0:0:0:0:
384,216,266677,1,0,0:0:0:0:
408,296,266865,5,0,0:0:0:0:
408,296,267052,1,0,0:0:0:0:
472,248,267240,2,0,B|512:232|496:160,1,75
472,104,267615,5,2,0:0:0:0:
472,104,267802,1,2,0:0:0:0:
392,128,267990,2,0,B|336:176|352:232,1,75,2|0,0:0|0:0,0:0:0:0:
344,272,268365,5,2,0:0:0:0:
192,208,268740,2,0,B|160:192|144:144,1,75
120,72,269115,1,2,0:0:0:0:
32,176,269490,5,0,0:0:0:0:
64,240,269677,1,0,0:0:0:0:
128,272,269865,1,8,0:0:0:0:
208,144,270240,1,0,0:0:0:0:
288,272,270615,1,0,0:0:0:0:
432,224,270990,5,0,0:0:0:0:
472,160,271177,1,0,0:0:0:0:
464,88,271365,1,0,0:0:0:0:
416,32,271552,1,0,0:0:0:0:
344,16,271740,1,0,0:0:0:0:
272,16,271927,1,0,0:0:0:0:
200,32,272115,1,0,0:0:0:0:
328,112,272490,5,2,0:0:0:0:
186,158,272865,1,8,0:0:0:0:
186,308,273240,1,2,0:0:0:0:
328,354,273615,1,2,0:0:0:0:
417,233,273990,1,0,0:0:0:0:
328,112,274365,1,2,0:0:0:0:
328,112,274552,1,2,0:0:0:0:
384,176,274740,2,0,B|416:224|400:272,1,75
384,328,275115,1,2,0:0:0:0:
224,224,275490,1,2,0:0:0:0:
152,88,275865,2,2,P|232:48|304:40,1,150
448,48,276615,5,0,0:0:0:0:
376,176,276990,1,0,0:0:0:0:
232,224,277365,5,4,0:0:0:0:
232,224,277552,1,0,0:0:0:0:
152,240,277740,1,0,0:0:0:0:
72,232,277927,1,0,0:0:0:0:
24,160,278115,5,2,0:0:0:0:
24,160,278302,1,2,0:0:0:0:
40,80,278490,1,0,0:0:0:0:
112,40,278677,1,0,0:0:0:0:
192,56,278865,5,8,0:0:0:0:
328,152,279240,2,8,B|368:104|352:48,1,75
272,96,279615,5,2,0:0:0:0:
136,184,279990,2,0,B|80:232|96:288,1,75
176,256,280365,5,2,0:0:0:0:
336,232,280740,2,0,B|368:216|384:168,1,75
304,152,281115,1,8,0:0:0:0:
136,144,281490,5,0,0:0:0:0:
72,200,281677,1,0,0:0:0:0:
104,280,281865,2,2,B|184:312|232:232,1,150
296,80,282615,1,0,0:0:0:0:
320,232,282990,5,0,0:0:0:0:
256,272,283177,1,0,0:0:0:0:
184,288,283365,2,2,B|152:272|136:192|168:128,1,150
264,48,284115,1,0,0:0:0:0:
120,96,284490,5,2,0:0:0:0:
56,232,284865,1,0,0:0:0:0:
144,352,285240,2,0,B|192:368|240:352,1,75,2|0,0:0|0:0,0:0:0:0:
288,336,285615,1,0,0:0:0:0:
288,336,285802,1,0,0:0:0:0:
344,280,285990,1,0,0:0:0:0:
344,280,286177,1,0,0:0:0:0:
368,184,286365,1,0,0:0:0:0:
320,96,286552,1,0,0:0:0:0:
224,80,286740,2,0,B|192:128|208:176,1,75
280,136,287115,1,2,0:0:0:0:
312,208,287302,1,0,0:0:0:0:
376,256,287490,2,0,B|440:288|496:256,1,75
432,192,287865,2,2,B|472:152|488:104|464:48,1,150
240,128,288615,5,0,0:0:0:0:
328,232,288990,1,0,0:0:0:0:
432,104,289365,5,4,0:0:0:0:
384,248,289740,2,0,B|336:240|320:176,1,75
400,168,290115,5,2,0:0:0:0:
240,192,290490,2,0,B|240:232|272:256,1,75
328,192,290865,5,8,0:0:0:0:
248,336,291240,2,0,B|200:328|184:264,1,75
272,256,291615,5,2,0:0:0:0:
112,280,291990,2,0,B|112:336|168:368,1,75
192,280,292365,5,2,0:0:0:0:
328,184,292740,2,0,B|360:200|376:248,1,75
384,320,293115,1,2,0:0:0:0:
480,208,293490,5,0,0:0:0:0:
448,144,293677,1,0,0:0:0:0:
384,112,293865,2,0,P|296:104|248:160,1,150,2|0,0:0|0:0,0:0:0:0:
208,304,294615,1,0,0:0:0:0:
192,152,294990,5,0,0:0:0:0:
256,112,295177,1,0,0:0:0:0:
328,104,295365,2,0,P|384:152|368:232,1,150,2|0,0:0|0:0,0:0:0:0:
256,312,296115,1,0,0:0:0:0:
400,224,296490,5,2,0:0:0:0:
400,224,296677,1,0,0:0:0:0:
432,144,296865,1,2,0:0:0:0:
432,144,297052,1,0,0:0:0:0:
416,64,297240,2,0,B|368:48|320:64,1,75,2|0,0:0|0:0,0:0:0:0:
264,72,297615,1,0,0:0:0:0:
128,160,297990,1,0,0:0:0:0:
112,328,298365,1,2,0:0:0:0:
112,328,298552,1,0,0:0:0:0:
192,328,298740,2,0,B|240:312|272:256,1,75
296,216,299115,1,0,0:0:0:0:
304,48,299490,1,0,0:0:0:0:
136,56,299865,2,8,B|46:152|115:226|196:180|192:87|93:68|59:195,1,300
152,152,300990,5,0,0:0:0:0:
192,144,301177,1,0,0:0:0:0:
232,152,301365,2,0,P|304:184|344:264,1,150,2|0,0:0|0:0,0:0:0:0:
280,296,302490,5,2,0:0:0:0:
200,304,302865,1,0,0:0:0:0:
136,272,303240,1,2,0:0:0:0:
112,200,303615,1,2,0:0:0:0:
128,128,303990,1,2,0:0:0:0:
256,192,304365,12,0,308864,0:0:0:0:
