osu file format v14

[General]
AudioFilename: uta.mp3
AudioLeadIn: 0
PreviewTime: 62721
Countdown: 0
SampleSet: Soft
StackLeniency: 0.7
Mode: 0
LetterboxInBreaks: 0
WidescreenStoryboard: 0

[Editor]
DistanceSpacing: 0.9
BeatDivisor: 4
GridSize: 4
TimelineZoom: 1.8

[Metadata]
Title:Fuantei na Kamisama
TitleUnicode:不安定な神様
Artist:Suara
ArtistUnicode:Suara
Creator:kusano
Version:alacat's Normal
Source:うたわれるもの 偽りの仮面
Tags:utawarerumono itsuwari no kamen opening alacat season 2 tv size
BeatmapID:807120
BeatmapSetID:365689

[Difficulty]
HPDrainRate:4
CircleSize:3
OverallDifficulty:4
ApproachRate:5
SliderMultiplier:1.3
SliderTickRate:1

[Events]
//Background and Video events
Video,0,"uta.avi"
0,0,"uta.png",0,0
//Break Periods
2,13401,14886
2,16478,17386
//Storyboard Layer 0 (Background)
//Storyboard Layer 1 (Fail)
//Storyboard Layer 2 (Pass)
//Storyboard Layer 3 (Foreground)
//Storyboard Sound Samples

[TimingPoints]
702,384.615384615385,4,2,1,75,1,0
8394,-100,4,2,1,85,0,0
13009,-100,4,2,1,75,0,0
14548,-100,4,2,1,25,0,0
16086,-100,4,2,1,75,0,0
24548,-100,4,2,1,85,0,0
25317,-100,4,2,1,65,0,0
27625,-100,4,2,1,50,0,0
28202,-100,4,2,1,65,0,0
33778,-100,4,2,1,50,0,0
34163,-100,4,2,1,65,0,0
36855,-100,4,2,1,55,0,0
37625,-100,4,2,1,75,0,0
40509,-100,4,2,1,50,0,0
40702,-100,4,2,1,85,0,0
62240,-100,4,2,1,60,0,0
62432,-100,4,2,1,70,0,0
62817,-100,4,2,1,77,0,0
63778,-100,4,2,1,90,0,1
74452,-100,4,2,1,90,0,0
74548,-100,4,2,1,90,0,1
75990,-100,4,2,1,90,0,0
76086,-100,4,2,1,90,0,1
86855,-100,4,2,1,90,0,0
86952,-100,4,2,1,30,0,0
88394,-100,4,2,1,20,0,0

[Colours]
Combo1 : 0,128,128
Combo2 : 255,192,2
Combo3 : 15,54,147
Combo4 : 240,48,0

[HitObjects]
304,272,2240,6,0,P|404:312|388:204,1,260,4|2,0:0|0:0,0:0:0:0:
284,156,3394,2,0,L|276:92,2,65,0|0|2,0:0|0:0|0:0,0:0:0:0:
192,304,4355,2,0,L|184:368,2,65,0|2|0,0:0|0:0|0:0,0:0:0:0:
160,252,4932,2,0,L|152:188,1,65
108,148,5317,6,0,P|140:36|260:60,1,260,4|2,0:3|0:0,0:0:0:0:
284,172,6471,1,0,0:0:0:0:
376,100,6855,2,0,P|487:133|461:253,1,260,2|0,0:0|0:0,0:0:0:0:
228,264,8394,6,0,P|156:252|100:264,1,130,4|0,1:2|1:0,0:0:0:0:
60,308,8971,1,0,0:0:0:0:
60,308,9163,2,0,L|80:180,1,130,0|0,1:0|1:0,0:0:0:0:
108,128,9740,1,0,0:0:0:0:
156,96,9932,2,0,P|216:80|288:80,1,130,0|0,1:0|1:0,0:0:0:0:
328,120,10509,2,0,L|392:108,1,65,0|0,0:0|1:0,0:0:0:0:
492,44,11086,1,0,1:0:0:0:
468,160,11471,6,0,P|460:228|484:284,1,130,4|0,0:0|1:0,0:0:0:0:
372,320,12240,1,0,1:0:0:0:
330,278,12432,2,0,L|262:278,2,65,0|0|0,1:0|1:0|1:0,0:0:0:0:
371,236,13009,6,0,L|371:172,1,65,4|0,1:2|1:0,0:0:0:0:
256,348,16086,6,0,L|256:284,1,65,0|0,1:0|1:0,0:0:0:0:
468,144,18586,6,0,L|468:208,2,65,0|2|0,1:0|1:2|1:0,0:0:0:0:
436,96,19163,6,0,P|368:80|308:80,1,130,4|2,0:0|1:2,0:0:0:0:
216,152,19932,2,0,P|151:151|88:135,1,130,0|2,1:0|1:2,0:0:0:0:
44,96,20509,1,0,0:0:0:0:
44,96,20702,2,0,L|56:228,1,130,0|2,1:0|1:2,0:0:0:0:
156,284,21471,2,0,L|224:276,1,65,0|2,1:0|0:0,0:0:0:0:
264,236,21855,2,0,L|332:244,1,65,4|2,1:2|0:0,0:0:0:0:
380,272,22240,6,0,P|360:204|360:144,2,130,4|2|0,0:0|1:2|1:0,0:0:0:0:
312,368,23394,2,0,L|244:360,1,65,2|0,1:2|0:0,0:0:0:0:
208,316,23778,1,0,1:0:0:0:
96,352,24163,1,2,1:2:0:0:
24,260,24548,2,0,L|12:192,1,65,0|0,1:0|1:0,0:0:0:0:
48,152,24932,2,0,L|36:84,1,65,0|0,1:0|1:0,0:0:0:0:
60,32,25317,5,2,0:0:0:0:
208,124,25894,2,0,L|272:116,1,65,0|2,0:0|0:0,0:0:0:0:
376,168,26471,2,0,L|440:160,1,65,0|0,0:0|0:0,0:0:0:0:
488,124,26855,1,2,0:0:0:0:
472,240,27240,1,0,0:0:0:0:
456,356,27625,1,2,0:0:0:0:
300,276,28202,6,0,L|236:288,1,65,0|2,0:0|0:0,0:0:0:0:
88,192,28971,2,0,L|152:180,1,65,0|2,0:0|0:0,0:0:0:0:
236,96,29548,2,0,L|300:108,1,65,0|0,0:0|0:0,0:0:0:0:
336,152,29932,2,0,P|404:152|460:120,1,130,2|0,0:0|0:0,0:0:0:0:
372,40,30702,1,2,0:0:0:0:
256,32,31086,2,0,L|192:44,1,65,0|0,0:0|0:0,0:0:0:0:
136,56,31471,5,2,0:0:0:0:
44,204,32048,2,0,L|52:268,1,65,0|2,0:0|0:0,0:0:0:0:
152,332,32625,2,0,L|160:268,1,65,0|0,0:0|0:0,0:0:0:0:
192,220,33009,2,0,P|256:236|320:236,2,130,2|0|2,0:0|0:0|0:0,0:0:0:0:
128,120,34163,2,0,L|136:56,2,65,0|0|2,0:0|0:0|0:0,0:0:0:0:
244,92,34932,6,0,P|312:88|372:100,1,130,0|2,0:0|0:0,0:0:0:0:
440,196,35702,1,0,0:0:0:0:
352,276,36086,2,0,B|256:260|196:312|196:312|168:272|116:260,1,260,2|2,0:0|0:0,0:0:0:0:
36,108,37432,6,0,L|28:172,1,65,0|0,0:0|1:0,0:0:0:0:
136,124,38009,2,0,L|128:60,2,65,8|0|0,1:3|0:0|1:0,0:0:0:0:
224,200,38778,2,0,L|216:264,1,65,8|0,1:3|0:0,0:0:0:0:
208,324,39163,1,0,1:0:0:0:
320,292,39548,1,8,1:3:0:0:
432,256,39932,1,0,1:0:0:0:
492,156,40317,2,0,L|480:92,1,65,8|4,1:3|0:0,0:0:0:0:
440,48,40702,6,0,P|376:48|320:84,1,130,0|8,1:0|1:3,0:0:0:0:
276,120,41278,2,0,L|212:112,1,65,0|0,0:0|1:0,0:0:0:0:
96,96,41855,1,8,1:3:0:0:
80,152,42048,1,0,0:0:0:0:
64,208,42240,2,0,P|128:212|184:244,1,130,0|8,1:0|1:3,0:0:0:0:
248,344,43009,2,0,P|303:311|368:307,1,130,0|8,1:0|1:3,0:0:0:0:
424,332,43586,1,0,0:0:0:0:
460,380,43778,6,0,L|480:248,1,130,0|8,1:0|1:3,0:0:0:0:
456,196,44355,1,0,0:0:0:0:
400,172,44548,2,0,P|332:180|280:220,1,130,0|8,1:0|1:3,0:0:0:0:
268,272,45125,1,0,0:0:0:0:
216,300,45317,2,0,L|80:288,2,130,0|8|0,1:0|1:3|1:0,0:0:0:0:
180,188,46471,2,0,L|188:120,1,65,8|0,1:3|0:0,0:0:0:0:
196,64,46855,5,0,1:0:0:0:
80,40,47240,1,8,1:3:0:0:
60,156,47625,1,0,1:0:0:0:
40,272,48009,2,0,L|56:336,1,65,8|0,1:3|0:0,0:0:0:0:
108,364,48394,2,0,P|172:344|236:344,1,130,2|8,1:2|1:3,0:0:0:0:
340,292,49163,2,0,L|404:300,2,65,8|2|8,1:3|0:0|1:3,0:0:0:0:
308,244,49740,1,0,0:0:0:0:
248,248,49932,6,0,P|184:256|124:232,1,130,4|0,0:0|1:0,0:0:0:0:
60,136,50702,2,0,L|68:68,1,65,0|0,1:0|0:0,0:0:0:0:
104,28,51086,1,2,1:2:0:0:
208,84,51471,2,0,L|272:76,2,65,0|0|0,1:0|0:0|1:0,0:0:0:0:
152,188,52240,2,0,P|136:256|152:320,1,130,0|2,1:0|1:2,0:0:0:0:
260,356,53009,6,0,L|324:348,1,65,0|0,1:0|0:0,0:0:0:0:
372,312,53394,1,0,1:0:0:0:
328,204,53778,2,0,L|264:196,2,65,0|0|2,1:0|0:0|1:2,0:0:0:0:
384,212,54355,1,0,0:0:0:0:
436,180,54548,2,0,P|448:120|432:52,2,130,0|0|0,1:0|1:0|1:0,0:0:0:0:
512,272,55702,2,0,L|496:336,1,65,2|0,1:2|0:0,0:0:0:0:
440,348,56086,6,0,P|376:328|312:328,1,130,4|0,0:0|1:0,0:0:0:0:
260,356,56663,1,2,0:0:0:0:
260,356,56855,2,0,P|195:355|133:335,1,130,0|2,1:0|1:2,0:0:0:0:
92,292,57432,1,0,0:0:0:0:
84,236,57625,2,0,L|100:104,1,130,0|0,1:0|1:0,0:0:0:0:
136,60,58202,1,0,0:0:0:0:
136,60,58394,2,0,P|200:76|264:76,1,130,0|0,1:0|1:0,0:0:0:0:
320,56,58971,1,0,0:0:0:0:
368,92,59163,6,0,L|352:224,1,130,4|0,0:0|1:0,0:0:0:0:
256,288,59932,2,0,P|188:280|128:296,1,130,0|2,1:0|1:2,0:0:0:0:
88,336,60509,1,0,0:0:0:0:
40,300,60702,2,0,P|24:240|24:172,1,130,4|0,0:0|1:0,0:0:0:0:
96,80,61471,2,0,L|160:92,1,65,0|2,1:0|1:2,0:0:0:0:
208,60,61855,2,0,L|272:72,1,65,2|2,1:2|1:2,0:0:0:0:
328,84,62240,5,4,1:0:0:0:
436,40,62625,1,2,1:2:0:0:
452,96,62817,1,2,0:0:0:0:
472,152,63009,2,0,L|460:220,1,65,2|2,0:0|1:2,0:0:0:0:
484,268,63394,2,0,L|472:336,1,65,0|2,0:0|1:2,0:0:0:0:
416,352,63778,6,0,P|356:332|288:332,1,130,4|2,0:0|1:3,0:0:0:0:
240,364,64355,1,0,0:0:0:0:
184,344,64548,2,0,P|150:288|136:225,1,130,0|2,1:0|1:3,0:0:0:0:
148,168,65125,1,0,0:0:0:0:
192,132,65317,1,0,1:0:0:0:
296,184,65702,2,0,L|364:172,1,65,2|0,1:3|0:0,0:0:0:0:
400,216,66086,2,0,L|376:280,1,65,0|0,1:0|0:0,0:0:0:0:
320,292,66471,2,0,L|275:239,1,65,2|0,1:3|0:0,0:0:0:0:
228,216,66855,6,0,P|160:228|116:268,1,130,0|2,1:0|1:3,0:0:0:0:
100,324,67432,2,0,L|32:316,1,65,0|0,0:0|1:0,0:0:0:0:
0,204,68009,2,0,L|64:196,1,65,2|0,1:3|0:0,0:0:0:0:
108,156,68394,1,0,1:0:0:0:
48,56,68778,1,2,1:3:0:0:
164,72,69163,2,0,L|232:64,1,65,0|0,1:0|0:0,0:0:0:0:
276,28,69548,2,0,L|344:36,1,65,2|0,1:3|0:0,0:0:0:0:
400,44,69932,5,4,0:0:0:0:
444,152,70317,1,2,1:3:0:0:
396,188,70509,1,0,0:0:0:0:
344,164,70702,2,0,P|280:172|232:220,1,130,0|2,1:0|1:3,0:0:0:0:
156,304,71471,2,0,L|136:172,1,130,0|2,1:0|1:3,0:0:0:0:
104,128,72048,1,0,0:0:0:0:
48,116,72240,1,4,1:2:0:0:
8,228,72625,2,0,L|16:296,1,65,2|0,1:3|0:0,0:0:0:0:
52,340,73009,5,4,0:0:0:0:
168,360,73394,1,2,1:3:0:0:
252,280,73778,2,0,P|260:212|244:152,1,130,0|2,1:0|1:3,0:0:0:0:
148,88,74548,2,0,L|80:100,2,65,4|4|4,1:2|1:2|1:2,0:0:0:0:
184,40,75125,1,0,0:0:0:0:
240,24,75317,2,0,L|304:36,1,65,4|4,1:2|1:2,0:0:0:0:
360,24,75702,2,0,L|424:36,1,65,2|0,1:2|1:0,0:0:0:0:
472,72,76086,6,0,P|492:132|492:200,1,130,4|2,0:0|1:3,0:0:0:0:
464,252,76663,1,0,0:0:0:0:
412,280,76855,2,0,L|284:256,1,130,0|2,1:0|1:3,0:0:0:0:
244,216,77432,2,0,L|176:224,1,65,0|0,0:0|1:0,0:0:0:0:
72,180,78009,1,2,1:3:0:0:
32,224,78202,2,0,L|44:292,2,65,0|0|0,0:0|1:0|0:0,0:0:0:0:
72,180,78778,2,0,L|83:115,1,65,2|0,1:3|0:0,0:0:0:0:
124,72,79163,6,0,P|192:64|252:88,1,130,4|2,1:2|1:3,0:0:0:0:
288,132,79740,1,0,0:0:0:0:
296,192,79932,1,0,1:0:0:0:
256,304,80317,1,2,1:3:0:0:
352,372,80702,2,0,P|411:349|447:296,1,130,4|2,1:2|1:3,0:0:0:0:
496,188,81471,2,0,L|484:120,1,65,0|2,1:0|0:0,0:0:0:0:
428,108,81855,2,0,L|382:55,1,65,4|0,1:2|0:0,0:0:0:0:
336,28,82240,6,0,P|268:28|212:63,1,130,4|2,0:0|1:3,0:0:0:0:
196,116,82817,1,0,0:0:0:0:
212,172,83009,2,0,L|80:156,1,130,0|2,1:0|1:3,0:0:0:0:
36,192,83586,1,0,0:0:0:0:
16,248,83778,1,4,1:2:0:0:
80,344,84163,2,0,L|144:340,1,65,2|0,1:3|0:0,0:0:0:0:
192,304,84548,1,0,1:0:0:0:
300,352,84932,1,2,1:3:0:0:
372,260,85317,6,0,P|436:272|488:316,2,130,4|2|4,1:2|1:3|1:2,0:0:0:0:
320,236,86278,2,0,L|256:248,2,65
344,180,86855,1,4,0:0:0:0:
256,192,86952,12,0,88394,0:0:0:0:
