osu file format v14

[General]
AudioFilename: uta.mp3
AudioLeadIn: 0
PreviewTime: 62721
Countdown: 0
SampleSet: Soft
StackLeniency: 0.7
Mode: 0
LetterboxInBreaks: 0
WidescreenStoryboard: 0

[Editor]
DistanceSpacing: 1.9
BeatDivisor: 4
GridSize: 4
TimelineZoom: 1.8

[Metadata]
Title:Fuantei na Kamisama
TitleUnicode:不安定な神様
Artist:Suara
ArtistUnicode:Suara
Creator:kusano
Version:Insane
Source:うたわれるもの 偽りの仮面
Tags:utawarerumono itsuwari no kamen opening alacat season 2 tv size
BeatmapID:802694
BeatmapSetID:365689

[Difficulty]
HPDrainRate:7
CircleSize:4
OverallDifficulty:7
ApproachRate:8.5
SliderMultiplier:1.9
SliderTickRate:1

[Events]
//Background and Video events
Video,0,"uta.avi"
0,0,"uta.png",0,0
//Break Periods
2,13402,15411
2,16478,17719
//Storyboard Layer 0 (Background)
//Storyboard Layer 1 (Fail)
//Storyboard Layer 2 (Pass)
//Storyboard Layer 3 (Foreground)
//Storyboard Sound Samples

[TimingPoints]
702,384.615384615385,4,2,1,75,1,0
8394,-100,4,2,1,85,0,0
13009,-100,4,2,1,75,0,0
24548,-100,4,2,1,85,0,0
25317,-200,4,2,1,65,0,0
27625,-200,4,2,1,50,0,0
28202,-200,4,2,1,65,0,0
33778,-200,4,2,1,50,0,0
34163,-200,4,2,1,65,0,0
36855,-200,4,2,1,55,0,0
37625,-100,4,2,1,75,0,0
40509,-100,4,2,1,50,0,0
40702,-100,4,2,1,85,0,0
62240,-100,4,2,1,60,0,0
62432,-100,4,2,1,70,0,0
62817,-100,4,2,1,77,0,0
63778,-100,4,2,1,90,0,1
74452,-100,4,2,1,90,0,0
74548,-100,4,2,1,90,0,1
75990,-100,4,2,1,90,0,0
76086,-100,4,2,1,90,0,1
86855,-100,4,2,1,90,0,0
86952,-100,4,2,1,50,0,0

[Colours]
Combo1 : 0,128,128
Combo2 : 255,192,2
Combo3 : 15,54,147
Combo4 : 240,48,0

[HitObjects]
108,176,1278,5,0,0:0:0:0:
24,132,1471,2,0,P|12:180|24:228,1,95,0|2,0:0|0:0,0:0:0:0:
189,311,1855,2,0,P|201:266|192:220,1,95,0|2,0:0|0:0,0:0:0:0:
108,176,2240,6,0,B|124:104|77:60|77:60|101:41|141:53,1,190,4|0,0:0|0:0,0:0:0:0:
208,116,2817,1,0,0:0:0:0:
292,72,3009,2,0,P|336:148|328:252,1,190,2|2,0:0|0:0,0:0:0:0:
276,324,3586,1,2,0:0:0:0:
368,340,3778,6,0,L|436:344,2,47.5
236,236,4163,2,0,L|168:232,2,47.5
276,324,4548,1,2,0:0:0:0:
329,247,4740,1,2,0:0:0:0:
236,236,4932,1,0,0:0:0:0:
368,340,5125,1,2,0:0:0:0:
180,316,5317,6,0,B|124:328|80:280|80:280|40:304|76:348,1,190,4|0,0:3|0:0,0:0:0:0:
276,324,5894,1,2,0:0:0:0:
420,264,6086,2,0,P|412:212|388:176,1,95,2|2,0:0|0:0,0:0:0:0:
308,128,6471,1,0,0:0:0:0:
216,140,6663,1,2,0:0:0:0:
144,204,6855,6,0,L|124:264,2,47.5,0|0|2,0:0|0:0|0:0,0:0:0:0:
252,52,7240,2,0,L|272:-8,2,47.5,0|0|2,0:0|0:0|0:0,0:0:0:0:
156,56,7625,1,0,0:0:0:0:
144,52,7721,1,0,0:0:0:0:
132,48,7817,1,2,0:0:0:0:
232,232,8009,1,0,0:0:0:0:
244,236,8105,1,0,0:0:0:0:
256,240,8202,1,2,0:0:0:0:
84,128,8394,6,0,P|48:184|56:256,1,142.5,4|0,1:2|0:0,0:0:0:0:
84,296,8778,1,0,1:0:0:0:
232,232,8971,1,0,0:0:0:0:
180,312,9163,1,0,1:0:0:0:
188,152,9355,1,0,0:0:0:0:
200,148,9452,1,0,0:0:0:0:
212,144,9548,1,0,1:0:0:0:
308,160,9740,1,0,0:0:0:0:
152,64,9932,6,0,B|244:40|244:40|268:48|272:80,1,142.5,0|0,1:0|0:0,0:0:0:0:
224,140,10317,1,0,1:0:0:0:
352,80,10509,1,0,0:0:0:0:
337,248,10702,2,0,P|290:251|248:232,1,95,0|0,1:0|0:0,0:0:0:0:
428,132,11086,1,0,1:0:0:0:
428,132,11471,6,0,P|464:188|464:268,1,142.5,4|0,0:0|0:0,0:0:0:0:
448,304,11855,1,0,1:0:0:0:
336,248,12048,1,0,0:0:0:0:
428,132,12240,1,0,1:0:0:0:
332,148,12432,1,0,1:0:0:0:
292,148,12528,1,0,1:0:0:0:
252,148,12625,1,0,1:0:0:0:
212,148,12721,1,0,1:0:0:0:
172,148,12817,1,0,1:0:0:0:
132,148,12913,1,0,1:0:0:0:
92,148,13009,5,4,1:2:0:0:
28,68,13202,1,0,1:0:0:0:
420,236,16086,5,0,1:0:0:0:
484,316,16278,1,0,1:0:0:0:
204,336,18394,5,0,0:0:0:0:
308,336,18586,1,0,1:0:0:0:
148,252,18778,1,2,1:2:0:0:
168,244,18875,1,0,1:0:0:0:
188,236,18971,1,0,1:0:0:0:
288,220,19163,6,0,P|264:184|256:132,1,95,4|0,0:0|0:0,0:0:0:0:
272,40,19548,1,2,1:2:0:0:
348,100,19740,1,0,0:0:0:0:
432,56,19932,1,0,1:0:0:0:
504,120,20125,1,0,0:0:0:0:
508,216,20317,1,2,1:2:0:0:
432,276,20509,1,0,0:0:0:0:
416,272,20605,1,0,0:0:0:0:
400,268,20702,5,0,1:0:0:0:
288,220,20894,1,0,0:0:0:0:
224,324,21086,1,2,1:2:0:0:
288,220,21278,2,0,L|284:148,2,47.5,0|0|0,0:0|0:0|1:0,0:0:0:0:
136,300,21663,1,2,0:0:0:0:
112,268,21759,1,0,0:0:0:0:
104,228,21855,1,4,1:2:0:0:
108,188,21952,1,0,0:0:0:0:
124,152,22048,1,2,0:0:0:0:
244,88,22240,5,4,0:0:0:0:
152,64,22432,2,0,P|92:60|32:48,1,95,0|2,0:0|1:2,0:0:0:0:
216,180,22817,1,0,0:0:0:0:
332,128,23009,1,0,1:0:0:0:
244,88,23202,1,0,0:0:0:0:
248,72,23298,1,0,0:0:0:0:
252,56,23394,1,2,1:2:0:0:
124,152,23586,1,0,0:0:0:0:
144,244,23778,6,0,P|180:268|232:276,1,95,0|0,1:0|0:0,0:0:0:0:
230,276,24067,1,0,0:0:0:0:
230,276,24163,1,2,1:2:0:0:
416,244,24355,1,0,0:0:0:0:
340,340,24548,1,0,1:0:0:0:
304,232,24740,1,0,1:0:0:0:
308,116,24932,1,0,1:0:0:0:
372,20,25125,1,0,1:0:0:0:
372,20,25317,6,0,P|324:16|272:12,1,95,2|0,0:0|0:0,0:0:0:0:
212,84,25894,1,0,0:0:0:0:
88,116,26086,2,0,P|88:68|104:24,1,95
164,160,26663,1,0,0:0:0:0:
220,228,26855,1,2,0:0:0:0:
220,228,27240,1,0,0:0:0:0:
228,320,27625,1,2,0:0:0:0:
496,104,28202,1,0,0:0:0:0:
428,40,28394,6,0,P|380:40|320:24,1,95,2|0,0:0|0:0,0:0:0:0:
188,124,28971,1,0,0:0:0:0:
236,44,29163,2,0,P|268:76|284:124,1,95
280,208,29740,1,0,0:0:0:0:
264,338,29932,2,0,L|272:292,1,47.5,2|0,0:0|0:0,0:0:0:0:
188,240,30317,2,0,L|180:286,1,47.5
380,300,30702,2,0,L|352:261,1,47.5,2|0,0:0|0:0,0:0:0:0:
208,152,31086,1,0,0:0:0:0:
188,240,31278,1,0,0:0:0:0:
40,208,31471,6,0,P|36:160|48:116,1,95,2|0,0:0|0:0,0:0:0:0:
108,48,32048,1,0,0:0:0:0:
228,136,32240,2,0,P|181:144|135:131,1,95
272,40,32817,1,0,0:0:0:0:
368,92,33009,1,2,0:0:0:0:
296,268,33394,1,0,0:0:0:0:
228,136,33778,1,2,0:0:0:0:
460,224,34163,1,0,0:0:0:0:
368,208,34355,1,0,0:0:0:0:
296,268,34548,6,0,P|276:312|272:360,1,95,2|0,0:0|0:0,0:0:0:0:
100,212,35317,2,0,P|88:168|80:112,1,95
256,32,36086,2,0,B|224:96|292:144|256:216,1,190,2|2,0:0|0:0,0:0:0:0:
255,216,37432,1,0,0:0:0:0:
332,76,37625,6,0,L|432:68,1,95,0|0,1:0|0:0,0:0:0:0:
426,68,37913,1,0,0:0:0:0:
426,68,38009,1,8,1:3:0:0:
388,160,38202,1,0,0:0:0:0:
255,216,38394,2,0,L|155:208,1,95,0|0,1:0|0:0,0:0:0:0:
68,197,38778,1,8,1:3:0:0:
176,88,38971,1,0,0:0:0:0:
160,208,39163,6,0,P|180:280|236:312,1,142.5,0|0,1:0|0:0,0:0:0:0:
235,311,39548,2,0,P|172:284|96:312,1,142.5,8|0,1:3|0:0,0:0:0:0:
72,340,39932,1,0,1:0:0:0:
160,208,40125,1,0,0:0:0:0:
156,192,40221,1,2,0:0:0:0:
152,176,40317,1,8,1:3:0:0:
176,88,40509,1,4,0:0:0:0:
336,220,40702,6,0,P|352:128|304:44,1,190,0|8,1:0|1:3,0:0:0:0:
176,88,41278,1,0,0:0:0:0:
260,140,41471,2,0,L|360:128,1,95,0|0,1:0|0:0,0:0:0:0:
354,128,41759,1,0,0:0:0:0:
354,128,41855,1,8,1:3:0:0:
244,240,42048,1,0,0:0:0:0:
296,48,42240,6,0,P|368:32|436:72,1,142.5,0|0,1:0|0:0,0:0:0:0:
354,128,42625,2,0,B|312:156|260:140|260:140|264:160|288:180,1,142.5,8|0,1:3|0:0,0:0:0:0:
344,228,43009,1,0,1:0:0:0:
204,64,43202,1,0,0:0:0:0:
184,68,43298,1,2,0:0:0:0:
164,72,43394,1,8,1:3:0:0:
96,164,43586,1,0,0:0:0:0:
68,72,43778,5,0,1:0:0:0:
192,160,43971,1,0,0:0:0:0:
196,176,44067,1,0,0:0:0:0:
200,196,44163,1,8,1:3:0:0:
120,260,44355,1,0,0:0:0:0:
216,296,44548,2,0,P|264:308|312:304,1,95,0|0,1:0|0:0,0:0:0:0:
309,304,44836,1,0,0:0:0:0:
309,304,44932,1,8,1:3:0:0:
428,240,45125,1,0,0:0:0:0:
337,211,45317,6,0,B|312:160|328:104|328:104|300:124,1,142.5,0|0,1:0|0:0,0:0:0:0:
302,122,45702,2,0,B|336:160|380:152|380:152|388:128|420:128|416:152,1,142.5,8|0,1:3|0:0,0:0:0:0:
416,149,46086,1,0,1:0:0:0:
260,44,46278,1,0,0:0:0:0:
248,52,46375,1,2,0:0:0:0:
236,60,46471,1,8,1:3:0:0:
356,40,46663,1,0,0:0:0:0:
216,152,46855,6,0,P|128:160|60:88,1,190,0|8,1:0|1:3,0:0:0:0:
292,244,47625,2,0,P|380:252|448:180,1,190,0|8,1:0|1:3,0:0:0:0:
456,88,48202,1,0,0:0:0:0:
364,160,48394,6,0,L|380:272,1,95,2|0,1:2|0:0,0:0:0:0:
377,254,48682,1,0,0:0:0:0:
377,254,48778,1,8,1:3:0:0:
204,236,48971,1,0,0:0:0:0:
364,160,49163,1,8,1:3:0:0:
188,144,49355,1,2,0:0:0:0:
176,116,49452,1,0,0:0:0:0:
172,84,49548,1,8,1:3:0:0:
176,52,49644,1,2,0:0:0:0:
188,24,49740,1,0,0:0:0:0:
56,92,49932,6,0,B|68:148|32:196|32:196|64:184,1,142.5,4|0,0:0|0:0,0:0:0:0:
62,184,50317,2,0,P|44:232|48:280,1,95,0|0,1:0|0:0,0:0:0:0:
104,352,50702,1,0,1:0:0:0:
232,272,50894,1,0,0:0:0:0:
228,256,50990,1,0,0:0:0:0:
224,240,51086,1,2,1:2:0:0:
320,324,51278,1,0,0:0:0:0:
396,268,51471,6,0,L|516:276,1,95,0|0,1:0|0:0,0:0:0:0:
448,180,51855,1,0,1:0:0:0:
352,180,52048,1,2,0:0:0:0:
340,148,52144,1,0,0:0:0:0:
336,116,52240,1,0,1:0:0:0:
324,84,52336,1,2,0:0:0:0:
304,56,52432,1,0,0:0:0:0:
272,40,52528,1,0,0:0:0:0:
236,36,52625,2,0,P|188:48|148:76,1,95,2|0,1:2|0:0,0:0:0:0:
100,152,53009,5,0,1:0:0:0:
232,124,53202,1,0,0:0:0:0:
240,148,53298,1,0,0:0:0:0:
244,172,53394,1,0,1:0:0:0:
72,288,53586,1,0,0:0:0:0:
164,256,53778,2,0,P|212:264|252:292,1,95,0|0,1:0|0:0,0:0:0:0:
300,356,54067,1,0,0:0:0:0:
320,352,54163,2,0,P|340:312|344:260,1,95,2|0,1:2|0:0,0:0:0:0:
164,256,54548,6,0,P|76:272|12:204,1,190,0|0,1:0|1:0,0:0:0:0:
48,24,55125,1,0,0:0:0:0:
108,96,55317,2,0,P|116:140|104:192,1,95,0|0,1:0|0:0,0:0:0:0:
105,188,55605,1,0,0:0:0:0:
105,188,55702,1,2,1:2:0:0:
200,68,55894,1,0,0:0:0:0:
288,108,56086,5,4,0:0:0:0:
288,108,56182,2,0,L|400:100,1,95
432,96,56471,1,0,1:0:0:0:
380,224,56663,1,2,0:0:0:0:
344,216,56759,1,2,0:0:0:0:
308,208,56855,1,0,1:0:0:0:
272,200,56952,1,0,0:0:0:0:
236,192,57048,1,0,0:0:0:0:
352,32,57240,1,2,1:2:0:0:
476,185,57432,1,0,0:0:0:0:
380,224,57625,6,0,P|344:280|356:352,1,142.5,0|0,1:0|0:0,0:0:0:0:
355,351,58009,2,0,L|256:332,1,95,0|0,1:0|0:0,0:0:0:0:
88,288,58394,2,0,L|187:269,1,95,0|0,1:0|0:0,0:0:0:0:
212,232,58682,1,0,0:0:0:0:
196,186,58778,2,0,L|97:205,1,95,0|0,1:0|0:0,0:0:0:0:
252,316,59163,6,0,P|294:265|292:188,1,142.5,4|0,0:0|0:0,0:0:0:0:
272,148,59548,2,0,B|256:112|260:88|260:88|292:60|288:12,1,142.5,0|0,1:0|0:0,0:0:0:0:
211,24,59932,1,0,1:0:0:0:
352,116,60125,1,0,0:0:0:0:
352,116,60221,1,0,0:0:0:0:
352,116,60317,2,0,L|456:108,1,95,2|0,1:2|0:0,0:0:0:0:
260,232,60702,6,0,L|156:224,1,95,4|0,0:0|0:0,0:0:0:0:
72,216,61086,1,0,1:0:0:0:
76,232,61182,1,0,0:0:0:0:
80,248,61278,1,0,0:0:0:0:
132,136,61471,1,0,1:0:0:0:
64,64,61663,1,2,1:2:0:0:
208,76,61855,1,2,1:2:0:0:
64,64,62048,1,2,1:2:0:0:
216,160,62240,5,4,1:0:0:0:
312,84,62432,1,0,0:0:0:0:
308,60,62528,1,0,0:0:0:0:
304,36,62625,1,2,1:2:0:0:
216,160,62817,1,2,0:0:0:0:
148,224,63009,1,0,0:0:0:0:
308,172,63202,1,2,1:2:0:0:
208,76,63394,1,0,0:0:0:0:
236,248,63586,1,2,1:2:0:0:
132,136,63778,6,0,P|72:168|52:236,1,142.5,4|0,0:0|0:0,0:0:0:0:
60,284,64163,1,2,1:3:0:0:
236,248,64355,1,2,0:0:0:0:
152,344,64548,1,0,1:0:0:0:
148,328,64644,1,0,0:0:0:0:
144,312,64740,1,2,0:0:0:0:
52,188,64932,1,2,1:3:0:0:
236,248,65125,6,0,P|284:252|344:236,1,95,2|2,0:0|1:2,0:0:0:0:
276,80,65509,1,2,0:0:0:0:
212,152,65702,1,2,1:3:0:0:
329,242,65895,1,2,0:0:0:0:
188,64,66086,2,0,P|144:88|120:128,1,95,0|2,0:0|0:0,0:0:0:0:
348,144,66471,1,2,1:3:0:0:
364,52,66663,1,2,0:0:0:0:
212,152,66855,6,0,B|156:168|120:128|120:128|100:136|100:164,1,142.5,4|0,0:0|0:0,0:0:0:0:
108,240,67240,1,2,1:3:0:0:
188,64,67432,1,2,0:0:0:0:
164,56,67528,1,0,0:0:0:0:
140,52,67625,2,0,P|96:56|52:84,1,95,0|0,1:0|0:0,0:0:0:0:
12,168,68009,1,2,1:3:0:0:
212,152,68202,6,0,L|336:156,1,95,2|0,0:0|1:0,0:0:0:0:
428,176,68586,1,2,0:0:0:0:
412,148,68682,1,0,0:0:0:0:
408,116,68778,2,0,P|416:68|440:28,1,95,2|2,1:3|0:0,0:0:0:0:
360,248,69163,1,0,1:0:0:0:
324,256,69259,1,0,0:0:0:0:
288,264,69355,1,2,0:0:0:0:
252,272,69452,1,0,0:0:0:0:
216,280,69548,2,0,L|112:276,1,95,2|0,1:3|0:0,0:0:0:0:
12,168,69932,6,0,L|176:172,1,142.5,4|0,0:0|0:0,0:0:0:0:
204,172,70317,1,2,1:3:0:0:
180,52,70509,1,2,0:0:0:0:
408,80,70702,1,2,1:2:0:0:
372,84,70798,1,0,0:0:0:0:
336,88,70894,1,0,0:0:0:0:
300,92,70990,1,2,0:0:0:0:
264,96,71086,1,2,1:3:0:0:
288,216,71278,1,0,0:0:0:0:
124,124,71471,6,0,P|112:192|152:256,1,142.5,4|0,0:0|0:0,0:0:0:0:
188,276,71855,1,2,1:3:0:0:
400,212,72048,1,0,0:0:0:0:
404,200,72144,1,0,0:0:0:0:
408,188,72240,2,0,L|400:80,1,95,4|0,1:2|0:0,0:0:0:0:
116,29,72625,2,0,L|124:124,1,95,2|0,1:3|0:0,0:0:0:0:
28,236,73009,5,4,0:0:0:0:
28,236,73105,2,0,L|128:228,1,95,0|2,0:0|0:0,0:0:0:0:
172,224,73394,1,2,1:3:0:0:
116,28,73586,1,2,0:0:0:0:
28,236,73778,5,0,1:0:0:0:
166,124,73971,1,0,0:0:0:0:
130,127,74067,1,0,0:0:0:0:
98,130,74163,1,2,1:3:0:0:
32,324,74355,1,2,0:0:0:0:
252,168,74548,5,4,1:0:0:0:
248,72,74740,1,4,1:2:0:0:
348,156,74932,1,4,1:2:0:0:
344,60,75125,1,0,0:0:0:0:
344,60,75221,1,0,0:0:0:0:
344,60,75317,1,4,1:2:0:0:
172,224,75509,1,4,1:2:0:0:
248,296,75702,1,2,0:0:0:0:
284,276,75798,1,0,0:0:0:0:
324,272,75894,1,0,1:0:0:0:
364,276,75990,1,0,1:0:0:0:
404,276,76086,6,0,P|468:248|496:176,1,142.5,4|0,0:0|0:0,0:0:0:0:
496,132,76471,1,2,1:3:0:0:
348,156,76663,1,2,0:0:0:0:
344,60,76855,1,0,1:0:0:0:
164,88,77048,1,2,0:0:0:0:
168,104,77144,1,0,0:0:0:0:
172,120,77240,1,2,1:3:0:0:
52,220,77432,6,0,L|60:120,1,95,2|2,0:0|1:2,0:0:0:0:
252,80,77817,1,2,0:0:0:0:
248,176,78009,1,2,1:3:0:0:
59,125,78202,1,0,0:0:0:0:
186,271,78394,2,0,B|208:264|208:264|176:248|160:212,1,95,0|2,1:0|0:0,0:0:0:0:
252,80,78778,2,0,P|300:80|344:96,1,95,2|2,1:3|0:0,0:0:0:0:
484,256,79163,6,0,P|416:260|356:216,1,142.5,4|0,1:2|0:0,0:0:0:0:
336,176,79548,1,2,1:3:0:0:
356,324,79740,1,2,0:0:0:0:
360,336,79836,1,0,0:0:0:0:
364,348,79932,1,2,1:2:0:0:
440,160,80125,1,2,0:0:0:0:
276,260,80317,1,2,1:3:0:0:
376,84,80509,1,2,0:0:0:0:
244,172,80702,6,0,P|196:168|152:148,1,95,4|0,1:2|0:0,0:0:0:0:
124,112,80990,1,0,0:0:0:0:
124,112,81086,1,2,1:3:0:0:
132,248,81278,1,2,0:0:0:0:
144,284,81374,1,2,0:0:0:0:
148,324,81471,1,0,1:0:0:0:
188,312,81567,1,2,0:0:0:0:
228,312,81663,1,0,0:0:0:0:
268,324,81759,1,0,0:0:0:0:
308,332,81855,2,0,P|344:300|356:252,1,95,4|0,1:2|0:0,0:0:0:0:
472,264,82240,5,4,0:0:0:0:
472,264,82336,2,0,L|468:152,1,95,0|2,0:0|0:0,0:0:0:0:
468,120,82625,1,2,1:3:0:0:
356,256,82817,1,2,0:0:0:0:
208,136,83009,2,0,P|296:116|376:168,1,190,2|2,1:2|1:3,0:0:0:0:
272,236,83586,1,0,0:0:0:0:
264,244,83682,1,0,0:0:0:0:
256,252,83778,6,0,P|208:264|152:252,1,95,4|2,1:2|0:0,0:0:0:0:
104,200,84067,2,0,L|108:148,1,47.5,0|2,0:0|1:3,0:0:0:0:
217,40,84355,1,2,0:0:0:0:
208,136,84548,2,0,L|200:248,1,95,2|0,1:2|0:0,0:0:0:0:
432,192,84932,2,0,L|424:80,1,95,2|0,1:3|0:0,0:0:0:0:
312,52,85317,6,0,L|320:204,1,142.5,4|2,0:0|0:0,0:0:0:0:
323,243,85702,1,2,1:3:0:0:
208,136,85894,1,2,0:0:0:0:
432,192,86086,1,4,1:2:0:0:
416,92,86278,5,2,0:0:0:0:
312,148,86471,1,2,0:0:0:0:
240,300,86663,1,0,0:0:0:0:
84,188,86855,1,4,0:0:0:0:
256,192,86952,12,0,88394,0:0:0:0:
