osu file format v14

[General]
AudioFilename: R.P.G~Rockin' Playing Game.mp3
AudioLeadIn: 0
PreviewTime: 80233
Countdown: 0
SampleSet: Normal
StackLeniency: 0.7
Mode: 0
LetterboxInBreaks: 1
StoryFireInFront: 0
WidescreenStoryboard: 0

[Editor]
DistanceSpacing: 0.8
BeatDivisor: 4
GridSize: 4
TimelineZoom: 1.1

[Metadata]
Title:R.P.G Rockin Playing Game (full ver.)
TitleUnicode:R.P.G Rockin Playing Game (full ver.)
Artist:SuG
ArtistUnicode:SuG
Creator:Nady20
Version:Normal
Source:Fairy Tail
Tags:Fairy's Game
BeatmapID:695554
BeatmapSetID:311402

[Difficulty]
HPDrainRate:5
CircleSize:3
OverallDifficulty:5
ApproachRate:5
SliderMultiplier:2
SliderTickRate:2

[Events]
//Background and Video events
0,0,"1592121.jpg",0,0
//Break Periods
2,6792,7734
2,54792,58075
2,126792,128905
2,130890,134173
2,151378,155246
//Storyboard Layer 0 (Background)
//Storyboard Layer 1 (Fail)
//Storyboard Layer 2 (Pass)
//Storyboard Layer 3 (Foreground)
//Storyboard Sound Samples

[TimingPoints]
1910,585.365853658537,4,1,0,100,1,0
80349,-100,4,1,0,100,0,1
106251,-100,4,1,0,100,0,0
160836,-100,4,1,0,100,0,1
177666,-100,4,1,0,100,0,0

[Colours]
Combo1 : 255,255,0
Combo2 : 0,255,0
Combo3 : 0,0,255
Combo4 : 255,0,255

[HitObjects]
360,184,1910,5,0,0:0:0:0:
256,88,3080,1,0,0:0:0:0:
160,192,4251,1,0,0:0:0:0:
256,284,5422,1,0,0:0:0:0:
256,192,5568,12,0,6592,0:0:0:0:
148,116,8934,6,0,P|200:56|256:60,1,100
236,136,9519,1,0,0:0:0:0:
176,192,9812,2,0,P|228:224|276:200,1,100
236,136,10397,5,0,0:0:0:0:
320,152,10690,1,0,0:0:0:0:
268,212,10983,1,0,0:0:0:0:
184,236,11275,6,0,P|124:188|132:144,1,100
152,96,11861,1,0,0:0:0:0:
196,24,12153,1,0,0:0:0:0:
276,48,12446,6,0,P|364:60|372:92,1,100
312,116,13031,1,0,0:0:0:0:
244,164,13324,1,0,0:0:0:0:
392,144,13617,6,0,P|340:196|276:180,1,100
312,116,14202,1,0,0:0:0:0:
240,76,14495,1,0,0:0:0:0:
152,64,14788,6,0,P|116:108|120:184,1,100
200,144,15373,1,0,0:0:0:0:
252,80,15666,1,0,0:0:0:0:
336,88,15958,6,0,P|396:128|400:168,1,100
428,228,16544,1,0,0:0:0:0:
376,288,16836,1,0,0:0:0:0:
316,236,17129,1,0,0:0:0:0:
256,292,17422,1,0,0:0:0:0:
256,292,17714,2,0,P|208:240|176:248,1,100
104,240,18300,5,0,0:0:0:0:
104,160,18592,1,0,0:0:0:0:
172,116,18885,2,0,L|172:56,2,50
212,116,19324,2,0,P|276:148|344:108,1,150
416,144,20056,1,0,0:0:0:0:
416,224,20349,1,0,0:0:0:0:
360,280,20641,6,0,B|292:332|292:332|216:280|216:280|168:176|248:104|332:112|380:144|404:196,1,500
468,144,22397,1,0,0:0:0:0:
480,224,22690,1,0,0:0:0:0:
420,276,22983,2,0,B|388:232|344:244|332:240|300:296|288:308|228:288|212:272|220:208|204:180|280:188,1,300
224,116,24153,1,0,0:0:0:0:
272,52,24446,1,0,0:0:0:0:
344,84,24739,2,0,P|308:140|276:152,1,100
256,192,25324,12,0,26349,0:0:0:0:
256,192,26641,12,0,27666,0:0:0:0:
392,124,27958,5,0,0:0:0:0:
312,124,28251,1,0,0:0:0:0:
224,204,28690,2,0,P|288:188|324:200,1,100
300,232,29129,2,0,P|405:247|461:231,1,150
432,160,29861,1,0,0:0:0:0:
428,156,30007,1,0,0:0:0:0:
348,160,30300,1,0,0:0:0:0:
268,160,30592,2,0,B|180:144|168:168|156:192|116:184|96:192|76:184|64:172|44:148|64:128|80:108|104:104|128:108|148:92|120:72|100:68,1,300
204,80,31763,2,0,L|276:80,2,50
356,128,32641,6,0,P|272:164|272:192,1,100
324,268,33373,1,0,0:0:0:0:
324,268,33519,1,0,0:0:0:0:
248,288,33812,2,0,B|168:304|104:244|148:148,2,200
272,212,35275,2,0,L|332:228,2,50
220,152,35861,5,0,0:0:0:0:
220,152,36007,1,0,0:0:0:0:
244,76,36300,1,0,0:0:0:0:
244,76,36446,1,0,0:0:0:0:
320,104,36739,1,0,0:0:0:0:
320,184,37031,1,0,0:0:0:0:
256,192,37324,12,0,39373,0:0:0:0:
92,124,41714,6,0,P|124:52|148:44,1,100
216,32,42300,1,0,0:0:0:0:
292,52,42592,2,0,P|336:84|348:160,1,100
424,152,43178,5,0,0:0:0:0:
388,216,43470,1,0,0:0:0:0:
456,272,43763,2,0,P|392:300|340:288,1,100
296,336,44349,5,0,0:0:0:0:
216,340,44641,1,0,0:0:0:0:
144,304,44934,2,0,P|152:244|200:208,1,100
176,136,45519,5,0,0:0:0:0:
232,76,45812,1,0,0:0:0:0:
272,144,46105,1,0,0:0:0:0:
344,180,46397,1,0,0:0:0:0:
352,100,46690,6,0,P|424:104|456:88,2,100
276,68,47568,2,0,P|208:64|176:88,1,100
140,148,48153,2,0,L|68:148,2,50
184,216,48739,1,0,0:0:0:0:
260,188,49031,1,0,0:0:0:0:
312,248,49324,2,0,L|392:320,1,100
444,260,49910,1,0,0:0:0:0:
444,180,50202,1,0,0:0:0:0:
404,112,50495,2,0,P|324:116|280:92,1,100
160,168,51373,5,0,0:0:0:0:
160,248,51666,1,0,0:0:0:0:
268,296,52105,2,0,L|328:296,1,50
400,296,52544,2,0,L|340:296,1,50
256,220,53129,1,0,0:0:0:0:
176,220,53422,2,0,B|88:236|80:284|172:308|160:340|76:360|64:332,2,200
376,136,59275,5,0,0:0:0:0:
320,80,59568,2,0,P|196:76|188:184,1,250
164,296,60739,1,0,0:0:0:0:
236,260,61031,1,0,0:0:0:0:
308,224,61324,1,0,0:0:0:0:
348,224,61470,2,0,P|316:324|176:332,1,250
256,192,62495,12,0,63958,0:0:0:0:
400,104,64251,6,0,P|340:72|300:84,1,100
332,156,64836,2,0,P|264:156|240:184,1,100
304,228,65422,2,0,P|272:272|292:312,1,100
368,292,66007,1,0,0:0:0:0:
408,292,66153,2,0,B|440:220|368:160|280:152|244:152|236:84|236:84|228:152|188:152|64:164|4:232|76:312|76:312,1,600
92,324,68056,1,0,0:0:0:0:
172,324,68349,1,0,0:0:0:0:
180,244,68641,1,0,0:0:0:0:
248,208,68934,6,0,P|328:228|364:280,2,150
228,128,70105,2,0,L|288:72,2,50
160,172,70690,2,0,P|112:96|280:52,1,300
248,104,71861,2,0,P|296:180|128:224,1,300
88,200,73031,1,0,0:0:0:0:
88,200,73178,1,0,0:0:0:0:
336,68,74202,2,0,L|280:68,1,50
256,192,75373,12,0,77275,0:0:0:0:
392,184,77714,5,0,0:0:0:0:
328,140,78007,1,0,0:0:0:0:
248,132,78300,1,0,0:0:0:0:
184,180,78592,1,0,0:0:0:0:
148,252,78885,1,0,0:0:0:0:
160,332,79178,1,0,0:0:0:0:
276,224,79763,1,0,0:0:0:0:
272,232,80349,5,0,0:0:0:0:
348,208,80641,2,0,L|404:204,2,50
316,132,81227,2,0,P|248:108|212:140,1,100
160,80,81812,2,0,P|95:125|63:117,1,100
76,204,82397,5,0,0:0:0:0:
140,252,82690,1,0,0:0:0:0:
236,180,83129,1,0,0:0:0:0:
356,184,83568,6,0,P|236:172|308:60,1,300
372,100,84739,2,0,L|436:100,2,50
380,180,85324,1,0,0:0:0:0:
380,180,85470,1,0,0:0:0:0:
380,180,85617,1,0,0:0:0:0:
376,260,85910,1,0,0:0:0:0:
376,340,86202,2,0,P|276:368|244:352,2,100
252,240,87373,5,0,0:0:0:0:
252,160,87666,2,0,L|320:160,2,50
252,240,88251,2,0,L|192:240,1,50
196,320,88690,2,0,P|92:312|72:264,1,150
96,204,89422,6,0,L|40:200,2,50
104,124,90007,1,0,0:0:0:0:
104,124,90153,1,0,0:0:0:0:
104,124,90300,1,0,0:0:0:0:
168,80,90592,2,0,L|168:140,2,50
248,80,91178,2,0,L|356:80,1,100
428,80,91763,1,0,0:0:0:0:
428,160,92056,2,0,B|352:176|128:268|200:268|236:332|316:348|388:316|416:264|360:228|256:172|136:140,1,600
212,64,94105,6,0,L|268:64,2,50
132,68,94690,2,0,L|92:28,2,50
116,148,95275,2,0,P|76:192|84:248,2,100
156,220,96153,1,0,0:0:0:0:
228,256,96446,1,0,0:0:0:0:
304,284,96739,1,0,0:0:0:0:
380,264,97031,2,0,P|408:320|416:316,2,100
412,240,97763,2,0,B|428:184|452:160|388:148|336:188|276:168|284:104|368:56,1,250
256,64,98788,5,0,0:0:0:0:
176,64,99080,1,0,0:0:0:0:
156,224,99666,1,0,0:0:0:0:
236,224,99958,1,0,0:0:0:0:
316,224,100251,2,0,P|328:284|272:312,2,100
364,160,101129,2,0,L|428:160,2,50
312,100,101714,2,0,P|340:40|372:24,2,100
232,112,102592,5,0,0:0:0:0:
172,60,102885,1,0,0:0:0:0:
120,120,103178,1,0,0:0:0:0:
148,196,103470,1,0,0:0:0:0:
112,268,103763,2,0,L|244:264,1,100
292,268,104349,6,0,P|332:320|364:316,2,100
212,260,105227,1,0,0:0:0:0:
268,204,105519,1,0,0:0:0:0:
204,156,105812,1,0,0:0:0:0:
256,96,106105,1,0,0:0:0:0:
248,112,108446,5,0,0:0:0:0:
168,60,108739,2,0,P|208:24|272:40,1,100
336,48,109324,1,0,0:0:0:0:
408,84,109617,1,0,0:0:0:0:
352,144,109910,1,0,0:0:0:0:
416,196,110202,2,0,P|420:260|360:280,1,100
332,328,110788,1,0,0:0:0:0:
300,256,111080,6,0,P|256:284|272:316,2,50
332,328,111666,1,0,0:0:0:0:
392,264,111958,1,0,0:0:0:0:
340,200,112251,1,0,0:0:0:0:
260,176,112544,1,0,0:0:0:0:
216,180,112690,2,0,P|160:172|176:68,1,150
220,48,113422,5,0,0:0:0:0:
300,28,113714,1,0,0:0:0:0:
272,112,114007,1,0,0:0:0:0:
216,40,114300,2,0,P|148:72|128:124,1,100
140,176,114885,1,0,0:0:0:0:
256,192,115470,12,0,116641,0:0:0:0:
208,160,117227,5,0,0:0:0:0:
256,96,117519,1,0,0:0:0:0:
304,160,117812,1,0,0:0:0:0:
256,224,118105,6,0,L|256:328,2,100
176,236,118983,1,0,0:0:0:0:
176,156,119275,1,0,0:0:0:0:
180,76,119568,2,0,P|244:20|352:44,1,200
396,104,120446,1,0,0:0:0:0:
344,168,120739,1,0,0:0:0:0:
272,132,121031,5,0,0:0:0:0:
232,132,121178,2,0,P|208:204|264:240,1,150
280,204,121763,2,0,P|340:248|304:312,1,150
240,336,122495,1,0,0:0:0:0:
314,306,122788,1,0,0:0:0:0:
388,272,123080,1,0,0:0:0:0:
416,196,123373,5,0,0:0:0:0:
420,156,123519,2,0,P|344:144|288:192,1,150
324,208,124105,2,0,P|244:248|180:220,1,150
128,180,124836,1,0,0:0:0:0:
108,256,125129,1,0,0:0:0:0:
256,192,125422,12,0,126592,0:0:0:0:
176,196,130105,5,0,0:0:0:0:
256,196,130397,1,0,0:0:0:0:
336,196,130690,1,0,0:0:0:0:
164,344,135373,6,0,P|96:288|144:200,1,200
216,160,136251,1,0,0:0:0:0:
192,76,136544,2,0,L|344:76,1,150
344,168,137275,2,0,L|294:168,1,50
204,172,137714,1,0,0:0:0:0:
120,164,138007,2,0,P|80:96|100:76,1,100
164,48,138592,5,0,0:0:0:0:
248,44,138885,1,0,0:0:0:0:
304,112,139178,1,0,0:0:0:0:
328,192,139470,1,0,0:0:0:0:
308,272,139763,1,0,0:0:0:0:
248,340,140056,2,0,B|184:368|184:368|168:288|168:288|116:312,1,200
60,260,140934,5,0,0:0:0:0:
40,172,141227,2,0,P|60:112|188:104,1,200
256,40,142105,1,0,0:0:0:0:
184,88,142397,2,0,P|152:136|192:184,1,100
248,144,142983,2,0,B|308:192|308:192|288:212|288:212|296:236|296:236|232:280,1,200
312,332,143861,5,0,0:0:0:0:
384,280,144153,1,0,0:0:0:0:
360,200,144446,1,0,0:0:0:0:
364,108,144739,2,0,P|320:60|208:120,1,200
280,172,145617,5,0,0:0:0:0:
208,124,145910,2,0,P|200:48|80:20,1,200
116,96,146788,1,0,0:0:0:0:
72,176,147080,2,0,P|56:252|160:304,1,200
140,224,147958,5,0,0:0:0:0:
184,152,148251,1,0,0:0:0:0:
232,80,148544,1,0,0:0:0:0:
320,72,148836,1,0,0:0:0:0:
400,104,149129,2,0,P|444:188|444:192,1,100
424,272,149714,5,0,0:0:0:0:
364,332,150007,2,0,B|308:348|296:268|296:268|232:260|228:216,1,200
176,156,150885,1,0,0:0:0:0:
248,104,151178,1,0,0:0:0:0:
184,192,156446,6,0,P|144:156|164:120,1,100
248,128,157031,2,0,P|288:168|272:208,1,100
184,192,157617,2,0,P|152:240|192:280,1,100
248,244,158202,1,0,0:0:0:0:
296,320,158495,1,0,0:0:0:0:
340,248,158788,2,0,P|324:200|364:180,1,100
396,96,159373,2,0,P|352:56|312:72,1,100
256,128,159958,5,0,0:0:0:0:
308,188,160251,1,0,0:0:0:0:
256,248,160544,1,0,0:0:0:0:
196,192,160836,6,0,L|140:192,2,50
200,112,161422,1,0,0:0:0:0:
200,112,161568,1,0,0:0:0:0:
200,112,161714,1,0,0:0:0:0:
272,148,162007,2,0,L|272:208,2,50
276,68,162592,2,0,L|384:68,1,100
372,148,163178,1,0,0:0:0:0:
292,144,163470,2,0,B|216:160|-8:252|64:252|100:316|180:332|252:300|280:248|224:212|120:156|0:124,1,600
100,80,165519,6,0,L|156:80,2,50
36,36,166105,2,0,L|-4:-4,2,50
68,108,166690,2,0,P|28:152|36:208,2,100
148,112,167568,1,0,0:0:0:0:
148,192,167861,1,0,0:0:0:0:
204,248,168153,1,0,0:0:0:0:
276,280,168446,6,0,P|264:328|312:344,2,100
312,260,169178,2,0,B|328:204|352:180|288:168|236:208|176:188|184:124|268:76,1,250
264,28,170202,1,0,0:0:0:0:
184,24,170495,1,0,0:0:0:0:
144,180,171080,5,0,0:0:0:0:
224,180,171373,1,0,0:0:0:0:
304,180,171666,2,0,P|316:240|260:268,2,100
372,140,172544,2,0,L|436:140,2,50
312,84,173129,2,0,P|340:24|372:8,2,100
236,104,174007,5,0,0:0:0:0:
176,48,174300,1,0,0:0:0:0:
128,112,174592,1,0,0:0:0:0:
164,184,174885,1,0,0:0:0:0:
108,244,175178,6,0,L|224:244,1,100
288,244,175763,2,0,P|328:296|360:292,2,100
208,232,176641,5,0,0:0:0:0:
140,192,176934,1,0,0:0:0:0:
144,112,177227,1,0,0:0:0:0:
204,60,177519,1,0,0:0:0:0:
