osu file format v14

[General]
AudioFilename: R.P.G~Rockin' Playing Game.mp3
AudioLeadIn: 0
PreviewTime: 80233
Countdown: 0
SampleSet: Normal
StackLeniency: 0.7
Mode: 0
LetterboxInBreaks: 1
StoryFireInFront: 0
WidescreenStoryboard: 0

[Editor]
DistanceSpacing: 0.8
BeatDivisor: 4
GridSize: 4
TimelineZoom: 1.1

[Metadata]
Title:R.P.G Rockin Playing Game (full ver.)
TitleUnicode:R.P.G Rockin Playing Game (full ver.)
Artist:SuG
ArtistUnicode:SuG
Creator:Nady20
Version:Insane
Source:Fairy Tail
Tags:Fairy's Game
BeatmapID:695551
BeatmapSetID:311402

[Difficulty]
HPDrainRate:8
CircleSize:4
OverallDifficulty:7
ApproachRate:7
SliderMultiplier:0.999999999999999
SliderTickRate:2

[Events]
//Background and Video events
0,0,"1592121.jpg",0,0
//Break Periods
2,6792,14766
2,37231,45497
2,54500,57790
2,106305,114570
2,126206,129205
2,151378,159058
//Storyboard Layer 0 (Background)
//Storyboard Layer 1 (Fail)
//Storyboard Layer 2 (Pass)
//Storyboard Layer 3 (Foreground)
//Storyboard Sound Samples

[TimingPoints]
1910,585.365853658537,4,1,0,100,1,0
80349,-100,4,1,0,100,0,1
106251,-100,4,1,0,100,0,0
118105,-50,4,1,0,100,0,0
160836,-50,4,1,0,100,0,1
186885,-100,4,1,0,70,0,0

[Colours]
Combo1 : 255,255,0
Combo2 : 0,255,0
Combo3 : 0,0,255
Combo4 : 255,0,255

[HitObjects]
120,88,1910,6,0,L|188:88,1,49.9999999999999
172,148,2349,2,0,L|172:200,1,50
112,204,2788,2,0,L|62:204,1,49.9999999999999
60,264,3227,6,0,L|60:316,1,50
120,316,3666,2,0,L|170:316,1,49.9999999999999
224,316,4105,2,0,L|288:316,1,49.9999999999999
320,280,4544,5,0,0:0:0:0:
352,232,4690,1,0,0:0:0:0:
360,176,4836,1,0,0:0:0:0:
340,120,4983,1,0,0:0:0:0:
256,192,5129,12,0,6300,0:0:0:0:
256,192,6592,5,0,0:0:0:0:
256,80,15666,5,0,0:0:0:0:
316,76,15812,5,0,0:0:0:0:
376,80,15958,6,0,P|376:124|360:140,1,49.9999999999999
400,188,16544,5,0,0:0:0:0:
372,244,16690,1,0,0:0:0:0:
320,276,16836,1,0,0:0:0:0:
260,280,16983,2,0,L|200:280,1,49.9999999999999
152,264,17422,5,0,0:0:0:0:
104,228,17568,1,0,0:0:0:0:
80,172,17714,1,0,0:0:0:0:
140,172,17861,2,0,L|165:172,1,25
130,96,18300,2,0,L|180:96,1,49.9999999999999
268,52,18885,5,0,0:0:0:0:
328,48,19031,1,0,0:0:0:0:
384,72,19178,1,0,0:0:0:0:
352,124,19324,2,0,P|392:148|420:140,1,74.9999999999999
428,204,20056,6,0,L|384:204,1,25
368,256,20349,2,0,L|332:256,1,25
288,232,20641,2,0,P|264:216|240:224,1,49.9999999999999
216,312,21227,5,0,0:0:0:0:
156,336,21373,1,0,0:0:0:0:
92,344,21519,1,0,0:0:0:0:
44,304,21666,2,0,P|84:284|100:300,1,49.9999999999999
168,216,22105,5,0,0:0:0:0:
212,176,22251,1,0,0:0:0:0:
224,116,22397,1,0,0:0:0:0:
192,64,22544,2,0,L|148:64,1,25
104,108,22983,6,0,P|76:136|48:144,1,49.9999999999999
28,188,23422,1,0,0:0:0:0:
24,252,23568,1,0,0:0:0:0:
64,304,23714,1,0,0:0:0:0:
128,312,23861,1,0,0:0:0:0:
188,296,24007,2,0,P|212:297|236:289,1,49.9999999999999
216,232,24446,2,0,P|264:220|272:228,1,49.9999999999999
320,216,24885,2,0,L|356:216,1,25
256,192,25324,12,0,26495,0:0:0:0:
264,64,26788,5,0,0:0:0:0:
316,84,26934,1,0,0:0:0:0:
344,136,27080,1,0,0:0:0:0:
352,192,27227,1,0,0:0:0:0:
340,248,27373,1,0,0:0:0:0:
312,296,27519,1,0,0:0:0:0:
260,320,27666,1,0,0:0:0:0:
204,324,27812,1,0,0:0:0:0:
116,324,27958,2,0,L|60:324,1,50
72,228,28544,5,0,0:0:0:0:
128,228,28690,1,0,0:0:0:0:
184,228,28836,2,0,P|192:200|144:164,1,74.9999999999999
112,136,29422,1,0,0:0:0:0:
124,76,29568,1,0,0:0:0:0:
180,52,29714,1,0,0:0:0:0:
240,48,29861,1,0,0:0:0:0:
300,48,30007,2,0,L|350:48,1,50
352,132,30592,2,0,L|412:132,1,50
348,208,31178,5,0,0:0:0:0:
392,244,31324,1,0,0:0:0:0:
356,288,31470,2,0,L|331:288,1,25
272,288,31763,1,0,0:0:0:0:
208,288,31910,2,0,P|188:320|156:316,1,50
124,256,32641,5,0,0:0:0:0:
120,172,32934,1,0,0:0:0:0:
120,88,33227,2,0,L|120:52,1,25
120,12,33519,1,0,0:0:0:0:
216,24,33812,1,0,0:0:0:0:
216,24,33958,1,0,0:0:0:0:
300,28,34251,5,0,0:0:0:0:
300,28,34397,1,0,0:0:0:0:
300,104,34690,1,0,0:0:0:0:
300,164,34836,1,0,0:0:0:0:
300,224,34983,2,0,L|300:276,1,50
240,276,35422,2,0,L|216:277,1,25
152,280,35714,1,0,0:0:0:0:
92,264,35861,1,0,0:0:0:0:
64,208,36007,1,0,0:0:0:0:
256,192,36153,12,0,36739,0:0:0:0:
256,192,37031,5,0,0:0:0:0:
376,248,46397,5,0,0:0:0:0:
388,288,46690,2,0,L|440:288,1,50
396,288,47275,2,0,L|340:288,1,50
324,288,47714,1,0,0:0:0:0:
304,280,47861,1,0,0:0:0:0:
288,268,48007,2,0,P|316:280|348:260,1,50
356,220,48739,5,0,0:0:0:0:
344,204,48885,1,0,0:0:0:0:
324,196,49031,2,0,P|320:232|332:252,1,50
344,252,49470,2,0,P|356:208|344:192,1,50
352,188,49910,2,0,P|380:196|400:188,1,50
392,168,50349,2,0,P|356:156|332:164,1,50
336,176,50788,1,0,0:0:0:0:
328,192,50934,1,0,0:0:0:0:
308,200,51080,1,0,0:0:0:0:
272,180,51373,5,0,0:0:0:0:
300,152,51666,1,0,0:0:0:0:
340,164,51958,1,0,0:0:0:0:
348,184,52105,1,0,0:0:0:0:
344,204,52251,2,0,P|316:220|292:220,1,50
292,200,52690,2,0,P|244:208|236:220,1,50
228,200,53129,1,0,0:0:0:0:
212,208,53275,1,0,0:0:0:0:
235,208,53422,2,0,L|183:208,1,50
160,208,53861,2,0,L|240:208,1,74.9999999999999
100,88,58690,5,0,0:0:0:0:
124,120,58983,5,0,0:0:0:0:
148,152,59275,5,0,0:0:0:0:
168,148,59422,1,0,0:0:0:0:
188,152,59568,2,0,P|164:188|144:196,1,50
148,208,60007,1,0,0:0:0:0:
152,228,60153,1,0,0:0:0:0:
140,244,60300,1,0,0:0:0:0:
156,256,60446,1,0,0:0:0:0:
140,292,60739,1,0,0:0:0:0:
112,264,61031,1,0,0:0:0:0:
128,228,61324,5,0,0:0:0:0:
148,228,61470,2,0,P|176:252|212:244,1,74.9999999999999
272,300,62495,1,0,0:0:0:0:
252,304,62641,1,0,0:0:0:0:
232,308,62788,2,0,P|180:276|192:236,1,99.9999999999999
396,132,63519,2,0,L|344:132,1,50
152,320,63958,2,0,L|200:320,1,25
224,316,64251,5,0,0:0:0:0:
280,320,64397,1,0,0:0:0:0:
336,320,64544,2,0,P|380:324|396:312,1,50
120,60,65129,2,0,P|88:72|76:96,1,50,0|0,0:0|0:0,0:0:0:0:
444,292,65714,2,0,L|444:260,1,25
432,216,66007,1,0,0:0:0:0:
416,168,66153,1,0,0:0:0:0:
360,156,66300,2,0,P|304:188|280:184,1,74.9999999999999
444,292,67031,1,0,0:0:0:0:
256,48,67470,6,0,L|256:100,1,50
256,344,67910,2,0,L|256:296,1,25
132,192,68349,1,0,0:0:0:0:
256,192,68495,1,0,0:0:0:0:
380,192,68641,1,0,0:0:0:0:
96,328,68934,5,0,0:0:0:0:
144,328,69080,1,0,0:0:0:0:
196,328,69227,2,0,P|208:292|224:280,1,50
448,76,69666,2,0,P|436:104|412:116,1,50
140,192,70105,2,0,P|108:176|88:184,1,50
444,204,70544,2,0,P|416:212|388:208,1,50
348,184,70983,1,0,0:0:0:0:
304,152,71129,1,0,0:0:0:0:
260,120,71275,1,0,0:0:0:0:
216,88,71422,1,0,0:0:0:0:
304,152,71568,1,0,0:0:0:0:
256,192,71861,12,0,72739,0:0:0:0:
416,64,73031,6,0,P|448:88|448:100,1,50
108,328,73617,2,0,P|84:312|80:284,1,50
116,60,74202,2,0,L|76:100,1,50
420,344,74788,2,0,L|460:304,1,50
256,192,75227,1,0,0:0:0:0:
304,180,75373,2,0,P|340:196|364:184,1,50
256,192,75812,12,0,77129,0:0:0:0:
256,112,77714,5,0,0:0:0:0:
344,192,77861,1,0,0:0:0:0:
256,272,78007,1,0,0:0:0:0:
168,192,78153,1,0,0:0:0:0:
168,64,78300,1,0,0:0:0:0:
340,64,78446,1,0,0:0:0:0:
460,192,78592,1,0,0:0:0:0:
348,312,78739,1,0,0:0:0:0:
164,308,78885,1,0,0:0:0:0:
52,192,79031,1,0,0:0:0:0:
256,32,79178,1,0,0:0:0:0:
256,356,79763,5,0,0:0:0:0:
256,188,80349,5,0,0:0:0:0:
416,344,80641,2,0,P|460:328|460:316,1,50
88,60,81227,2,0,P|48:72|48:88,1,50
40,128,81666,1,0,0:0:0:0:
64,176,81812,1,0,0:0:0:0:
88,228,81958,2,0,P|100:256|96:268,1,25
72,296,82251,1,0,0:0:0:0:
92,348,82397,1,0,0:0:0:0:
88,228,82544,1,0,0:0:0:0:
256,60,83129,1,0,0:0:0:0:
444,232,83568,1,0,0:0:0:0:
388,236,83714,1,0,0:0:0:0:
332,240,83861,2,0,P|304:260|272:260,1,50
208,260,84446,2,0,P|176:248|164:236,1,50
128,152,84885,5,0,0:0:0:0:
140,196,85031,1,0,0:0:0:0:
428,72,85324,1,0,0:0:0:0:
372,72,85470,1,0,0:0:0:0:
316,72,85617,1,0,0:0:0:0:
104,332,85910,1,0,0:0:0:0:
160,332,86056,1,0,0:0:0:0:
212,332,86202,2,0,L|264:332,2,50,0|0|0,0:0|0:0|0:0,0:0:0:0:
262,332,86934,1,0,0:0:0:0:
320,328,87080,1,0,0:0:0:0:
356,288,87227,1,0,0:0:0:0:
212,332,87373,5,0,0:0:0:0:
356,56,87666,1,0,0:0:0:0:
412,56,87812,1,0,0:0:0:0:
468,56,87958,1,0,0:0:0:0:
56,188,88251,1,0,0:0:0:0:
108,188,88397,1,0,0:0:0:0:
56,188,88544,1,0,0:0:0:0:
464,192,88836,1,0,0:0:0:0:
256,192,89129,1,0,0:0:0:0:
256,192,89275,1,0,0:0:0:0:
256,140,89422,6,0,L|256:84,1,50
324,144,89861,1,0,0:0:0:0:
188,240,90007,1,0,0:0:0:0:
256,244,90153,2,0,L|256:288,1,25
428,76,90592,1,0,0:0:0:0:
88,80,90739,1,0,0:0:0:0:
256,80,90885,1,0,0:0:0:0:
256,356,91178,2,0,L|256:320,1,25
156,192,91763,1,0,0:0:0:0:
344,192,91910,1,0,0:0:0:0:
256,192,92056,12,0,92934,0:0:0:0:
256,192,93080,12,0,93958,0:0:0:0:
408,60,94105,5,0,0:0:0:0:
408,324,94251,1,0,0:0:0:0:
408,192,94397,1,0,0:0:0:0:
408,128,94690,1,0,0:0:0:0:
408,260,94836,1,0,0:0:0:0:
408,192,94983,1,0,0:0:0:0:
92,160,95275,1,0,0:0:0:0:
144,144,95422,1,0,0:0:0:0:
68,204,95568,2,0,P|56:236|92:288,1,99.9999999999999
160,332,96300,1,0,0:0:0:0:
200,296,96446,5,0,0:0:0:0:
240,260,96592,1,0,0:0:0:0:
200,296,96739,1,0,0:0:0:0:
440,64,97031,1,0,0:0:0:0:
388,64,97178,1,0,0:0:0:0:
336,64,97324,1,0,0:0:0:0:
56,192,97617,1,0,0:0:0:0:
108,192,97763,1,0,0:0:0:0:
336,64,97910,2,0,P|304:92|304:104,1,50
104,300,98495,2,0,P|84:328|72:336,1,50
256,192,98934,1,0,0:0:0:0:
220,224,99080,1,0,0:0:0:0:
368,80,99666,5,0,0:0:0:0:
140,80,99812,1,0,0:0:0:0:
256,192,99958,1,0,0:0:0:0:
368,136,100105,2,0,P|352:164|328:172,1,50
152,136,100690,2,0,P|172:168|184:176,1,50
256,348,101275,2,0,L|256:316,1,25
256,192,101568,1,0,0:0:0:0:
256,248,101714,1,0,0:0:0:0:
256,136,101861,1,0,0:0:0:0:
256,192,102007,1,0,0:0:0:0:
256,84,102153,1,0,0:0:0:0:
312,84,102300,6,0,L|372:84,1,50
200,84,102739,2,0,L|148:84,1,50
200,196,103178,2,0,L|200:232,1,25
312,196,103470,2,0,L|312:228,1,25
256,144,103763,1,0,0:0:0:0:
256,144,104056,1,0,0:0:0:0:
256,144,104202,1,0,0:0:0:0:
256,192,104349,12,0,105080,0:0:0:0:
256,192,105227,12,0,106105,0:0:0:0:
256,192,115470,12,0,116349,0:0:0:0:
256,192,116495,12,0,117080,0:0:0:0:
256,192,117227,12,0,117812,0:0:0:0:
24,192,118105,5,0,0:0:0:0:
488,192,118397,1,0,0:0:0:0:
256,344,118690,2,0,L|256:292,1,50
164,112,119129,1,0,0:0:0:0:
256,64,119275,1,0,0:0:0:0:
348,112,119422,1,0,0:0:0:0:
164,192,119714,5,0,0:0:0:0:
256,192,119861,1,0,0:0:0:0:
348,192,120007,1,0,0:0:0:0:
256,192,120153,2,0,L|256:292,1,99.9999999999999
164,192,120592,2,0,P|128:156|148:108,1,99.9999999999999
348,192,121031,2,0,P|384:156|364:108,1,99.9999999999999
256,120,121470,5,0,0:0:0:0:
256,284,121617,1,0,0:0:0:0:
256,196,121763,1,0,0:0:0:0:
256,196,122056,1,0,0:0:0:0:
256,196,122202,1,0,0:0:0:0:
408,72,122495,1,0,0:0:0:0:
104,72,122788,1,0,0:0:0:0:
256,196,123080,1,0,0:0:0:0:
256,344,123373,5,0,0:0:0:0:
304,344,123519,1,0,0:0:0:0:
352,340,123666,2,0,P|400:328|408:280,1,99.9999999999999
164,88,124105,2,0,P|104:88|92:168,1,150
136,136,124690,1,0,0:0:0:0:
196,132,124836,2,0,P|164:184|84:168,1,150
136,196,125422,1,0,0:0:0:0:
184,232,125568,1,0,0:0:0:0:
232,256,125714,2,0,P|296:224|344:248,1,99.9999999999999
256,56,130105,5,0,0:0:0:0:
84,320,130397,1,0,0:0:0:0:
428,320,130690,1,0,0:0:0:0:
256,192,130983,1,0,0:0:0:0:
256,192,131129,1,0,0:0:0:0:
256,192,131275,1,0,0:0:0:0:
256,192,131422,1,0,0:0:0:0:
256,192,131568,1,0,0:0:0:0:
304,104,131861,6,0,P|352:152|356:188,1,99.9999999999999
164,192,132300,2,0,P|192:260|228:272,1,99.9999999999999
200,112,132739,1,0,0:0:0:0:
436,284,133031,6,0,P|380:316|380:352,1,99.9999999999999
348,260,133470,1,0,0:0:0:0:
256,240,133617,2,0,P|312:208|312:172,1,99.9999999999999
164,56,134202,6,0,P|132:124|84:124,1,99.9999999999999
68,44,134641,2,0,L|192:136,1,150
256,192,135227,1,0,0:0:0:0:
324,252,135373,6,0,P|372:288|412:280,3,99.9999999999999,0|0|0|0,0:0|0:0|0:0|0:0,0:0:0:0:
180,192,136397,1,0,0:0:0:0:
296,76,136544,6,0,L|196:76,1,99.9999999999999
376,196,136983,1,0,0:0:0:0:
204,328,137129,2,0,L|308:328,1,99.9999999999999
256,196,137568,1,0,0:0:0:0:
120,144,137714,6,0,P|104:192|128:248,1,99.9999999999999
256,196,138153,1,0,0:0:0:0:
392,144,138300,2,0,P|408:192|384:248,1,99.9999999999999
256,192,138739,12,0,139763,0:0:0:0:
428,320,140056,5,0,0:0:0:0:
256,192,140349,1,0,0:0:0:0:
256,192,140495,1,0,0:0:0:0:
256,192,140641,1,0,0:0:0:0:
256,192,140788,1,0,0:0:0:0:
256,192,140934,1,0,0:0:0:0:
304,104,141227,6,0,P|352:152|356:188,1,99.9999999999999
164,192,141666,2,0,P|192:260|228:272,1,99.9999999999999
200,112,142105,1,0,0:0:0:0:
436,284,142397,6,0,P|380:316|380:352,1,99.9999999999999
348,260,142836,1,0,0:0:0:0:
256,240,142983,2,0,P|312:208|312:172,1,99.9999999999999
164,56,143568,6,0,P|132:124|84:124,1,99.9999999999999
68,44,144007,2,0,L|192:136,1,150
256,192,144592,1,0,0:0:0:0:
324,252,144739,6,0,P|372:288|412:280,3,99.9999999999999,0|0|0|0,0:0|0:0|0:0|0:0,0:0:0:0:
180,192,145763,1,0,0:0:0:0:
296,76,145910,6,0,L|196:76,1,99.9999999999999
376,196,146349,1,0,0:0:0:0:
204,328,146495,2,0,L|308:328,1,99.9999999999999
256,196,146934,1,0,0:0:0:0:
120,144,147080,6,0,P|104:192|128:248,1,99.9999999999999
256,196,147519,1,0,0:0:0:0:
392,144,147666,2,0,P|408:192|384:248,1,99.9999999999999
256,192,148105,12,0,149129,0:0:0:0:
256,52,149422,5,0,0:0:0:0:
152,248,149568,1,0,0:0:0:0:
352,252,149714,1,0,0:0:0:0:
152,132,149861,1,0,0:0:0:0:
352,128,150007,1,0,0:0:0:0:
256,316,150153,1,0,0:0:0:0:
60,188,150300,1,0,0:0:0:0:
448,188,150446,1,0,0:0:0:0:
256,192,150592,1,0,0:0:0:0:
256,192,151178,5,0,0:0:0:0:
64,64,159958,5,0,0:0:0:0:
464,340,160251,1,0,0:0:0:0:
464,52,160544,1,0,0:0:0:0:
44,292,160836,6,0,P|92:332|128:320,1,99.9999999999999
464,104,161422,2,0,P|432:56|380:72,1,99.9999999999999
256,324,162007,1,0,0:0:0:0:
220,284,162153,2,0,L|176:240,1,50
256,192,162446,1,0,0:0:0:0:
292,284,162592,2,0,L|336:240,1,50
184,248,163031,1,0,0:0:0:0:
328,248,163178,1,0,0:0:0:0:
256,228,163470,6,0,L|256:24,1,200
256,128,164202,1,0,0:0:0:0:
256,188,164349,1,0,0:0:0:0:
256,68,164495,1,0,0:0:0:0:
256,228,164641,2,0,L|256:24,1,200
436,92,165519,5,0,0:0:0:0:
436,188,165666,1,0,0:0:0:0:
400,140,165812,1,0,0:0:0:0:
112,136,166105,1,0,0:0:0:0:
72,100,166251,1,0,0:0:0:0:
72,176,166397,1,0,0:0:0:0:
256,308,166690,1,0,0:0:0:0:
208,280,166836,1,0,0:0:0:0:
304,328,166983,2,0,P|372:340|404:308,2,99.9999999999999,0|0|0,0:0|0:0|0:0,0:0:0:0:
393,324,167714,1,0,0:0:0:0:
352,272,167861,1,0,0:0:0:0:
393,324,168007,1,0,0:0:0:0:
204,108,168153,6,0,P|152:112|136:156,1,99.9999999999999
136,240,168592,1,0,0:0:0:0:
168,192,168739,1,0,0:0:0:0:
172,284,168885,1,0,0:0:0:0:
136,240,169031,1,0,0:0:0:0:
136,328,169178,1,0,0:0:0:0:
256,288,169324,1,0,0:0:0:0:
340,284,169470,1,0,0:0:0:0:
376,328,169617,1,0,0:0:0:0:
368,236,169763,1,0,0:0:0:0:
340,284,169910,1,0,0:0:0:0:
336,192,170056,1,0,0:0:0:0:
256,84,170495,1,0,0:0:0:0:
148,144,170788,5,0,0:0:0:0:
256,148,170934,1,0,0:0:0:0:
360,144,171080,1,0,0:0:0:0:
200,236,171373,2,0,L|200:296,1,50
312,236,171666,2,0,L|312:288,1,50
432,148,172105,2,0,L|488:148,1,50
80,148,172397,2,0,L|28:148,1,50
256,272,172836,1,0,0:0:0:0:
256,48,173129,6,0,L|256:100,1,50
448,332,173422,2,0,L|412:296,1,50
64,332,173714,2,0,L|100:296,1,50
128,252,174007,1,0,0:0:0:0:
100,296,174153,2,0,P|156:328|196:320,1,99.9999999999999
328,328,174592,1,0,0:0:0:0:
256,328,174739,1,0,0:0:0:0:
256,60,175031,1,0,0:0:0:0:
324,60,175178,1,0,0:0:0:0:
64,192,175470,2,0,L|124:192,1,50
256,192,175763,12,0,176641,0:0:0:0:
256,192,176788,12,0,177519,0:0:0:0:
400,88,177666,6,0,P|332:108|328:128,1,99.9999999999999
256,196,178105,1,0,0:0:0:0:
184,126,178251,2,0,P|159:85|112:88,1,99.9999999999999
48,192,178690,1,0,0:0:0:0:
112,296,178836,2,0,P|159:298|184:257,1,99.9999999999999
256,196,179275,1,0,0:0:0:0:
327,256,179422,2,0,P|352:297|372:284,1,50
432,328,179714,1,0,0:0:0:0:
432,192,179861,6,0,L|360:120|360:120,1,99.9999999999999
256,72,180300,1,0,0:0:0:0:
80,192,180446,2,0,L|152:120|152:120,1,99.9999999999999
256,168,180885,1,0,0:0:0:0:
336,332,181031,2,0,L|408:260|408:260,1,99.9999999999999
256,272,181470,1,0,0:0:0:0:
176,332,181617,2,0,L|104:260|104:260,1,99.9999999999999
208,156,182056,1,0,0:0:0:0:
308,156,182202,1,0,0:0:0:0:
256,40,182349,6,0,L|256:96,1,50
256,192,182641,1,0,0:0:0:0:
256,132,182788,1,0,0:0:0:0:
256,252,182934,1,0,0:0:0:0:
196,192,183080,2,0,P|156:256|164:280,1,99.9999999999999
292,320,183519,1,0,0:0:0:0:
220,320,183666,1,0,0:0:0:0:
292,320,183812,1,0,0:0:0:0:
351,273,183958,2,0,P|351:225|316:192,1,99.9999999999999
156,340,184544,6,0,P|108:308|112:264,1,99.9999999999999
256,268,184983,1,0,0:0:0:0:
356,340,185129,2,0,P|404:308|400:264,1,99.9999999999999
156,196,185568,2,0,P|108:164|112:120,1,99.9999999999999
256,124,186007,1,0,0:0:0:0:
256,192,186153,1,0,0:0:0:0:
356,196,186300,2,0,P|404:164|400:120,1,99.9999999999999
184,84,186885,6,0,P|120:192|200:280,1,250
256,120,188641,5,0,0:0:0:0:
256,256,188788,1,0,0:0:0:0:
256,188,188934,1,0,0:0:0:0:
256,324,189080,1,0,0:0:0:0:
323,276,189227,2,0,P|392:182|328:84,1,250
156,192,190983,5,0,0:0:0:0:
288,192,191129,1,0,0:0:0:0:
224,192,191275,1,0,0:0:0:0:
352,192,191422,1,0,0:0:0:0:
352,100,191568,2,0,P|257:30|159:95,1,250
256,112,193324,5,0,0:0:0:0:
256,272,193470,1,0,0:0:0:0:
152,192,193617,1,0,0:0:0:0:
364,192,193763,1,0,0:0:0:0:
352,284,193910,2,0,P|257:353|159:288,1,250
256,272,195666,5,0,0:0:0:0:
256,112,195812,1,0,0:0:0:0:
364,192,195958,1,0,0:0:0:0:
152,192,196105,1,0,0:0:0:0:
256,192,196251,1,0,0:0:0:0:
256,192,196836,12,0,199617,0:0:0:0:
