osu file format v5

[General]
AudioFilename: 15_082139_.mp3
AudioLeadIn: 0
PreviewTime: -1
Countdown: 1
SampleSet: Normal

[Metadata]
Title:YaZi
Artist:Su Huilun
Creator:Agents_J
Version:Breezin

[Difficulty]
HPDrainRate:1
CircleSize:5
OverallDifficulty:2
SliderMultiplier:1.2
SliderTickRate:2

[Events]
//Background and Video events
//Break Periods
2,32415,41162
2,73824,83266
2,145671,154418
//Storyboard Layer 0 (Background)
//Storyboard Layer 1 (Failing)
//Storyboard Layer 2 (Passing)
//Storyboard Layer 3 (Foreground)
//Storyboard Sound Samples
//Background Colour Transformations
3,100,163,162,255

[TimingPoints]
1932,618.041194338413,4,1,0,100

[HitObjects]
93,279,13056,5,0
179,281,13520,1,0
452,207,14910,2,0,B|337:112|224:207,1,240
399,222,18001,5,0
302,220,18464,1,0
69,121,19855,2,0,B|168:43|297:131,1,240
108,74,22945,5,0
187,77,23408,1,0
456,146,24799,2,0,B|356:235|226:148,1,240
237,80,27889,5,0
237,157,28353,1,0
14,306,29743,2,0,B|502:307,1,480
421,99,42722,5,0
325,155,43340,1,0
190,155,43958,1,0
93,97,44576,1,0
90,229,45194,2,0,B|256:364|435:214,1,360
417,290,47667,5,0
316,290,48130,1,0
74,198,49521,2,0,B|184:120|312:210,3,240
427,59,54465,6,0,B|44:59,1,360
68,293,56937,2,0,B|450:293,1,360
403,158,59409,5,0
94,160,60645,1,0
253,65,61881,5,0
251,151,62500,1,0
250,244,63118,1,0
436,115,64354,2,0,B|254:25|81:108,1,360
91,225,66826,2,0,B|255:323|457:217,1,360
249,100,69298,5,0
248,193,69916,1,0
75,299,71770,2,0,B|446:299,1,360
421,301,84826,5,0
345,301,85289,1,0
69,212,86680,2,0,B|195:131|297:222,1,240
117,238,89771,5,0
196,240,90234,1,0
441,141,91625,2,0,B|320:55|211:135,1,240
373,100,94715,5,0
295,101,95178,1,0
53,187,96569,2,0,B|163:263|280:178,1,240
260,63,99659,5,0
256,154,100123,1,0
48,99,101513,2,0,B|37:278|243:374|472:322|477:83,1,660
434,61,106458,6,0,B|41:60,1,360
68,267,109007,2,0,B|451:269,1,360
429,135,111479,5,0
68,144,112715,1,0
251,83,113951,1,0
250,160,114570,1,0
247,248,115188,1,0
89,112,116424,6,0,B|245:-6|438:125,1,360
421,216,118896,2,0,B|240:339|60:200,1,360
252,85,121368,5,0
249,182,121986,1,0
448,298,123840,2,0,B|60:298,1,360
87,77,126312,6,0,B|473:77,1,360
440,284,128784,2,0,B|49:285,1,360
83,178,131257,5,0
434,180,132493,1,0
254,93,133729,1,0
253,177,134347,1,0
252,268,134965,1,0
87,117,136201,6,0,B|246:2|445:138,1,360
423,218,138673,2,0,B|253:345|76:209,1,360
256,94,141145,5,0
254,178,141763,1,0
92,256,143617,6,0,B|256:362|450:248,1,360
360,87,155978,5,2
355,284,157214,1,2
136,84,158450,1,2
129,273,159687,1,2
360,87,160923,5,2
355,284,162159,1,2
136,84,163395,1,2
129,273,164632,1,2
440,88,168339,6,0,B|56:88,1,360
75,316,170811,2,0,B|456:316,1,360
438,163,173283,5,0
84,180,174520,1,0
256,104,175756,1,0
254,190,176374,1,0
252,272,176992,1,0
428,138,178228,6,0,B|255:29|83:129,1,360
85,258,180700,2,0,B|251:348|454:241,1,360
256,192,183172,12,0,186880
