osu file format v14

[General]
AudioFilename: TSU.BA.SA - Stylips.mp3
AudioLeadIn: 0
PreviewTime: 47839
Countdown: 0
SampleSet: Soft
StackLeniency: 0.7
Mode: 0
LetterboxInBreaks: 0
WidescreenStoryboard: 0

[Editor]
Bookmarks: 65696
DistanceSpacing: 1
BeatDivisor: 4
GridSize: 4
TimelineZoom: 1.7

[Metadata]
Title:TSU.BA.SA
TitleUnicode:TSU・BA・SA
Artist:StylipS
ArtistUnicode:StylipS
Creator:Peachtrees
Version:Normal
Source:咲-Saki-阿知賀編 episode of side‐A
Tags:mahjong ending Arisa Noto Maho Matsunaga Moe Toyota Miku Itō
BeatmapID:714366
BeatmapSetID:321098

[Difficulty]
HPDrainRate:4
CircleSize:3
OverallDifficulty:4
ApproachRate:5
SliderMultiplier:1.3
SliderTickRate:1

[Events]
//Background and Video events
0,0,"asdasdasdasdasdasdasdasd.jpg",0,0
Video,406,"tsubasa.avi"
//Break Periods
//Storyboard Layer 0 (Background)
//Storyboard Layer 1 (Fail)
//Storyboard Layer 2 (Pass)
//Storyboard Layer 3 (Foreground)
//Storyboard Sound Samples

[TimingPoints]
786,357.142857142857,4,2,0,50,1,0
2928,-100,4,2,1,70,0,0
3643,-100,4,2,1,80,0,0
15428,-100,4,2,1,70,0,0
35071,-100,4,2,1,60,0,0
40607,-100,4,2,1,70,0,0
46500,-100,4,2,1,75,0,0
47214,-100,4,2,1,80,0,0
49357,-100,4,2,1,80,0,1
75071,-100,4,2,1,80,0,0
89357,-100,4,2,1,5,0,0

[Colours]
Combo1 : 128,207,48
Combo2 : 255,128,192
Combo3 : 128,64,0
Combo4 : 128,0,255

[HitObjects]
125,130,786,6,0,P|134:167|124:205,2,65,2|0|0,0:0|0:0|0:0,0:0:0:0:
146,68,1321,2,0,L|288:84,1,130,2|0,0:0|0:0,0:0:0:0:
339,89,1857,1,2,0:0:0:0:
426,184,2214,6,0,P|449:161|460:119,1,65,2|0,0:0|0:0,0:0:0:0:
339,89,2750,1,0,0:0:0:0:
309,146,2928,2,0,L|303:220,1,65,2|0,0:0|0:0,0:0:0:0:
273,268,3285,2,0,L|268:337,1,65,2|0,0:0|0:0,0:0:0:0:
202,329,3643,6,0,L|64:314,1,130,4|8,0:2|0:0,0:0:0:0:
26,193,4357,2,0,P|71:147|134:134,1,130,2|8,0:0|0:0,0:0:0:0:
252,81,5071,6,0,P|237:52|203:28,2,65,4|0|0,2:0|0:0|0:0,0:0:0:0:
243,146,5607,2,0,L|370:168,1,130,2|2,3:0|3:0,0:0:0:0:
312,284,6321,6,0,L|160:257,1,130,4|0,2:0|0:0,0:0:0:0:
136,227,6857,2,0,L|68:235,1,65,8|0,0:0|0:0,0:0:0:0:
7,245,7214,1,2,0:0:0:0:
55,124,7571,1,8,0:0:0:0:
136,227,7928,6,0,P|137:269|116:310,2,65,4|0|8,0:2|0:0|0:0,0:0:0:0:
160,166,8464,2,0,L|296:177,1,130,2|2,3:0|3:0,0:0:0:0:
383,87,9178,6,0,P|415:139|404:232,1,130,4|0,0:2|0:0,0:0:0:0:
388,265,9714,1,8,0:0:0:0:
267,313,10071,2,0,P|279:343|315:372,2,65,2|0|8,0:0|0:0|0:0,0:0:0:0:
264,247,10607,6,0,L|119:256,1,130
69,260,11143,1,8,0:0:0:0:
151,159,11500,1,2,0:0:0:0:
26,121,11857,1,8,0:0:0:0:
114,25,12214,6,0,L|243:16,1,130,2|8,0:0|0:0,0:0:0:0:
364,63,12928,2,0,L|370:127,1,65,2|8,0:0|0:0,0:0:0:0:
416,173,13285,2,0,L|405:263,1,65,2|8,0:0|0:0,0:0:0:0:
368,289,13643,1,4,0:0:0:0:
256,192,13732,12,4,15071,0:0:0:0:
51,155,15785,6,0,L|74:291,1,130,0|8,3:0|0:0,0:0:0:0:
130,316,16321,1,0,0:0:0:0:
195,312,16500,6,0,P|251:275|267:210,1,130,0|8,3:0|0:0,0:0:0:0:
248,155,17035,2,0,L|379:170,1,130,0|0,3:0|0:0,0:0:0:0:
439,151,17571,1,8,0:0:0:0:
342,64,17928,5,0,3:0:0:0:
248,155,18285,2,0,P|204:156|166:138,1,65,8|0,0:0|0:0,0:0:0:0:
138,102,18643,2,0,P|94:101|56:119,1,65,0|0,3:0|0:0,0:0:0:0:
25,150,19000,1,8,0:0:0:0:
56,301,19357,6,0,B|112:307|112:307|199:277,1,130,0|8,3:0|0:0,0:0:0:0:
242,258,19893,2,0,P|284:301|369:301,1,130,0|0,3:0|0:0,0:0:0:0:
413,290,20428,1,8,0:0:0:0:
477,177,20785,6,0,L|458:44,1,130,0|8,3:0|0:0,0:0:0:0:
401,17,21321,2,0,P|337:37|303:90,1,130,0|0,3:0|0:0,0:0:0:0:
314,151,21857,1,8,0:0:0:0:
242,258,22214,6,0,P|180:270|110:228,1,130,0|8,3:0|0:0,0:0:0:0:
84,188,22750,2,0,L|124:64,1,130,0|0,3:0|0:0,0:0:0:0:
161,11,23285,1,8,0:0:0:0:
210,132,23643,5,0,3:2:0:0:
298,37,24000,2,0,P|365:46|414:95,1,130,8|0,0:0|3:0,0:0:0:0:
424,149,24535,1,0,0:0:0:0:
405,211,24714,1,8,0:0:0:0:
312,302,25071,6,0,L|170:293,1,130,2|8,0:2|0:0,0:0:0:0:
116,286,25607,2,0,P|69:152|210:132,1,325,0|4,0:0|2:0,0:0:0:0:
311,214,26857,5,8,0:0:0:0:
424,149,27214,2,0,P|431:86|385:12,1,130,0|8,3:0|0:0,0:0:0:0:
337,25,27750,1,0,0:0:0:0:
275,45,27928,6,0,B|218:53|218:53|129:32,1,130,0|8,3:0|0:0,0:0:0:0:
87,62,28464,2,0,L|88:195,1,130,0|0,3:0|0:0,0:0:0:0:
91,257,29000,1,8,0:0:0:0:
213,301,29357,5,0,3:0:0:0:
284,192,29714,2,0,P|311:190|368:211,1,65,8|0,0:0|0:0,0:0:0:0:
395,243,30071,2,0,P|422:245|479:224,1,65,0|0,3:0|0:0,0:0:0:0:
505,191,30428,1,8,0:0:0:0:
470,66,30785,6,0,B|397:77|397:77|333:54,1,130,0|8,3:0|0:0,0:0:0:0:
291,20,31321,2,0,L|154:35,1,130,0|0,3:0|0:0,0:0:0:0:
33,57,32035,6,0,P|26:109|88:188,1,130,0|0,3:0|0:0,0:0:0:0:
126,190,32571,2,0,L|200:181,2,65,8|0|0,0:0|0:0|3:0,0:0:0:0:
46,292,33285,1,8,0:0:0:0:
91,339,33464,1,0,0:0:0:0:
155,348,33643,6,0,L|283:331,1,130,0|8,3:0|0:0,0:0:0:0:
394,262,34357,2,0,P|410:288|405:344,2,65,2|2|2,0:0|0:0|0:0,0:0:0:0:
282,195,35071,6,0,L|298:118,1,65,4|0,1:2|1:0,0:0:0:0:
312,68,35428,2,0,P|361:95|440:82,2,130,0|4|0,0:0|0:2|0:0,0:0:0:0:
184,42,36500,6,0,L|167:104,1,65,0|0,1:0|1:0,0:0:0:0:
151,168,36857,2,0,P|102:195|23:182,2,130,0|4|0,0:0|0:2|0:0,0:0:0:0:
282,195,37928,6,0,L|299:257,1,65,0|0,1:0|1:0,0:0:0:0:
323,317,38285,2,0,P|386:327|443:298,2,130,0|4|0,0:0|0:2|0:0,0:0:0:0:
227,226,39357,6,0,P|251:204|282:195,2,65,0|0|0,1:0|3:0|3:0,0:0:0:0:
229,291,39893,2,0,L|100:301,1,130,0|0,0:0|3:0,0:0:0:0:
21,197,40607,6,0,P|54:152|143:133,1,130,4|0,0:0|0:0,0:0:0:0:
185,149,41143,2,0,P|252:157|317:120,1,130,8|0,0:0|3:0,0:0:0:0:
347,80,41678,1,0,0:0:0:0:
450,155,42035,6,0,B|455:215|455:215|431:291,1,130,0|0,3:0|0:0,0:0:0:0:
385,325,42571,2,0,L|323:307,1,65,8|0,0:0|0:0,0:0:0:0:
261,328,42928,2,0,L|199:310,1,65,0|0,3:0|0:0,0:0:0:0:
133,315,43285,1,8,0:0:0:0:
36,227,43643,6,0,P|47:163|87:113,1,130,4|8,0:2|0:0,0:0:0:0:
144,86,44178,1,0,0:0:0:0:
203,113,44357,2,0,P|243:163|254:226,1,130,0|8,3:0|0:0,0:0:0:0:
229,354,45071,6,0,B|286:361|286:361|361:342,1,130,0|8,3:0|0:0,0:0:0:0:
412,310,45607,1,0,0:0:0:0:
441,252,45785,2,0,P|442:186|411:114,1,130,0|8,3:0|0:0,0:0:0:0:
310,54,46500,6,0,L|223:68,1,65,2|0,0:0|0:0,0:0:0:0:
203,113,46857,2,0,L|116:127,1,65,2|0,0:0|0:0,0:0:0:0:
103,178,47214,2,0,L|16:192,2,65,2|0|2,0:0|0:0|0:0,0:0:0:0:
199,264,47928,6,0,P|265:261|310:207,1,130
309,151,48464,2,0,L|452:180,1,130
512,279,49178,1,0,0:0:0:0:
512,279,49357,6,0,P|468:300|374:288,1,130,4|8,0:2|0:0,0:0:0:0:
290,213,50071,2,0,L|313:136,2,65,2|0|8,0:0|0:0|0:0,0:0:0:0:
261,271,50607,6,0,B|218:282|218:282|134:256,1,130,2|0,0:0|0:0,0:0:0:0:
89,211,51143,2,0,P|78:175|88:133,1,65,8|0,0:0|0:0,0:0:0:0:
109,89,51500,1,2,0:0:0:0:
226,34,51857,2,0,L|311:48,1,65,8|0,0:0|0:0,0:0:0:0:
344,79,52214,6,0,L|408:68,2,65,2|0|8,0:0|0:0|0:0,0:0:0:0:
258,176,52928,2,0,P|305:206|383:202,1,130,2|8,0:0|0:0,0:0:0:0:
437,179,53464,6,0,L|418:309,1,130,2|0,0:0|0:0,0:0:0:0:
367,348,54000,1,8,0:0:0:0:
248,294,54357,2,0,P|209:287|169:298,1,65,2|0,0:0|0:0,0:0:0:0:
136,335,54714,2,0,P|103:339|72:332,1,65,4|0,0:2|0:0,0:0:0:0:
18,295,55071,6,0,L|29:164,1,130,4|8,0:2|0:0,0:0:0:0:
59,107,55607,2,0,B|108:120|108:120|202:108,1,130
250,96,56143,1,8,0:0:0:0:
363,159,56500,6,0,P|379:107|364:35,2,130,2|8|2,0:0|0:0|0:0,0:0:0:0:
267,247,57571,1,8,0:0:0:0:
156,178,57928,6,0,P|101:186|39:262,1,130,2|8,0:0|0:0,0:0:0:0:
29,298,58464,1,0,0:0:0:0:
57,356,58643,2,0,B|109:363|109:363|189:344,1,130,2|8,0:0|0:0,0:0:0:0:
267,247,59357,6,0,L|401:273,1,130,4|8,0:2|0:0,0:0:0:0:
458,283,59893,2,0,P|498:241|499:159,1,130,4|4,0:2|0:2,0:0:0:0:
446,57,60607,6,0,L|290:76,1,130,4|0,0:2|0:0,0:0:0:0:
252,83,61143,1,8,0:0:0:0:
124,76,61500,2,0,P|136:25|156:1,2,65,2|0|8,0:0|0:0|0:0,0:0:0:0:
147,136,62035,6,0,P|142:179|81:247,1,130,2|0,0:0|0:0,0:0:0:0:
22,248,62571,2,0,L|36:337,1,65,8|0,0:0|0:0,0:0:0:0:
66,367,62928,1,2,0:0:0:0:
190,330,63285,2,0,L|262:314,1,65,8|0,0:0|0:0,0:0:0:0:
309,282,63643,6,0,L|371:298,2,65,2|0|8,0:0|0:0|0:0,0:0:0:0:
206,202,64357,2,0,P|264:159|338:160,1,130,2|8,0:0|0:0,0:0:0:0:
369,197,64893,6,0,P|432:190|482:150,1,130,2|0,0:0|0:0,0:0:0:0:
483,85,65428,1,8,0:0:0:0:
369,21,65785,2,0,L|285:16,1,65,2|0,0:0|0:0,0:0:0:0:
238,18,66143,1,8,0:0:0:0:
112,57,66500,6,0,P|115:129|170:191,1,130,4|8,0:2|0:0,0:0:0:0:
206,202,67035,1,0,0:0:0:0:
270,196,67214,2,0,L|255:334,1,130,2|8,0:0|0:0,0:0:0:0:
383,351,67928,6,0,L|397:221,1,130,2|8,0:0|0:0,0:0:0:0:
412,92,68643,2,0,P|358:96|288:146,1,130,2|8,0:0|0:0,0:0:0:0:
270,196,69178,1,0,0:0:0:0:
283,259,69357,6,0,B|225:269|225:269|150:251,1,130,2|8,0:0|0:0,0:0:0:0:
52,330,70071,2,0,L|128:351,2,65,2|0|8,0:0|0:0|0:0,0:0:0:0:
14,276,70607,6,0,P|14:209|53:155,1,130,4|0,2:0|0:0,0:0:0:0:
106,128,71143,1,8,0:0:0:0:
207,210,71500,2,0,P|245:207|283:185,1,65,2|0,0:0|0:0,0:0:0:0:
319,154,71857,1,8,0:0:0:0:
386,42,72214,5,4,2:0:0:0:
386,42,72393,2,0,P|431:79|442:175,1,130,0|4,0:0|0:0,0:0:0:0:
422,273,73107,1,4,2:0:0:0:
315,347,73464,6,0,L|180:337,1,130,4|0,0:2|0:0,0:0:0:0:
121,325,74000,1,4,2:0:0:0:
109,195,74357,2,0,P|77:200|49:216,2,65,2|0|8,0:0|0:0|0:0,0:0:0:0:
173,206,74893,1,0,0:0:0:0:
223,248,75071,6,0,P|289:246|351:198,1,130,4|8,2:0|0:0,0:0:0:0:
367,84,75785,2,0,P|301:86|239:134,1,130,2|8,0:0|0:0,0:0:0:0:
223,248,76500,6,0,L|236:313,2,65,2|0|8,0:0|0:0|0:0,0:0:0:0:
173,206,77035,2,0,P|107:204|45:156,1,130,2|0,0:0|0:0,0:0:0:0:
100,46,77750,6,0,L|250:36,1,130,4|0,2:0|0:0,0:0:0:0:
285,70,78285,2,0,L|359:75,1,65,8|0,0:0|0:0,0:0:0:0:
414,82,78643,1,2,0:0:0:0:
339,188,79000,1,8,0:0:0:0:
285,70,79357,6,0,P|290:33|309:5,2,65,2|0|8,0:0|0:0|0:0,0:0:0:0:
261,130,79893,2,0,L|131:138,1,130,4|2,0:2|0:0,0:0:0:0:
60,247,80607,6,0,P|86:294|172:318,1,130,4|0,0:2|0:0,0:0:0:0:
218,308,81143,1,8,0:0:0:0:
277,192,81500,2,0,L|260:129,2,65,2|0|8,0:0|0:0|0:0,0:0:0:0:
324,235,82035,6,0,P|387:244|441:210,1,130,2|0,0:0|0:0,0:0:0:0:
465,149,82571,1,8,0:0:0:0:
403,34,82928,2,0,L|328:48,1,65,4|8,0:2|0:0,0:0:0:0:
212,78,83464,5,4,0:0:0:0:
256,192,83553,12,0,89357,0:0:0:0:
