osu file format v14

[General]
AudioFilename: TSU.BA.SA - Stylips.mp3
AudioLeadIn: 0
PreviewTime: 47839
Countdown: 0
SampleSet: Soft
StackLeniency: 0.7
Mode: 0
LetterboxInBreaks: 0
WidescreenStoryboard: 0

[Editor]
DistanceSpacing: 0.6
BeatDivisor: 4
GridSize: 32
TimelineZoom: 1.8

[Metadata]
Title:TSU.BA.SA
TitleUnicode:TSU・BA・SA
Artist:StylipS
ArtistUnicode:StylipS
Creator:Peachtrees
Version:Insane
Source:咲-Saki-阿知賀編 episode of side‐A
Tags:mahjong ending Arisa Noto Maho Matsunaga Moe Toyota Miku Itō
BeatmapID:714365
BeatmapSetID:321098

[Difficulty]
HPDrainRate:7
CircleSize:4
OverallDifficulty:7
ApproachRate:8.4
SliderMultiplier:1.7
SliderTickRate:1

[Events]
//Background and Video events
0,0,"asdasdasdasdasdasdasdasd.jpg",0,0
Video,406,"tsubasa.avi"
//Break Periods
//Storyboard Layer 0 (Background)
//Storyboard Layer 1 (Fail)
//Storyboard Layer 2 (Pass)
//Storyboard Layer 3 (Foreground)
//Storyboard Sound Samples

[TimingPoints]
786,357.142857142857,4,2,1,50,1,0
2928,-100,4,2,1,70,0,0
3643,-100,4,2,1,80,0,0
15428,-100,4,2,1,70,0,0
25607,-200,4,2,1,70,0,0
26143,-100,4,2,1,70,0,0
35071,-100,4,2,1,60,0,0
40607,-100,4,2,1,70,0,0
46500,-100,4,2,1,75,0,0
47214,-100,4,2,1,80,0,0
49357,-100,4,2,1,80,0,1
75071,-100,4,2,1,80,0,0
89357,-100,4,2,1,5,0,0

[Colours]
Combo1 : 128,207,48
Combo2 : 255,128,192
Combo3 : 128,64,0
Combo4 : 128,0,255

[HitObjects]
139,157,786,5,2,0:0:0:0:
214,95,964,1,0,0:0:0:0:
216,216,1143,1,0,0:0:0:0:
294,157,1321,1,2,0:0:0:0:
311,148,1678,2,0,L|416:158,1,85,0|2,0:0|0:0,0:0:0:0:
426,238,2035,1,0,0:0:0:0:
316,325,2214,6,0,L|231:316,1,85,2|0,2:0|0:0,0:0:0:0:
216,216,2571,1,0,2:0:0:0:
134,342,2750,1,0,2:0:0:0:
69,240,2928,1,2,0:0:0:0:
64,214,3017,1,0,0:0:0:0:
64,189,3107,1,2,0:0:0:0:
68,164,3195,1,0,0:0:0:0:
76,140,3285,1,2,0:0:0:0:
89,118,3374,1,0,0:0:0:0:
105,98,3463,1,2,0:0:0:0:
124,81,3552,1,0,0:0:0:0:
149,72,3643,6,0,P|192:105|318:91,1,170,4|8,0:2|0:0,0:0:0:0:
374,33,4178,1,0,0:0:0:0:
382,153,4357,2,0,P|350:186|295:197,1,85,2|0,0:0|0:0,0:0:0:0:
439,86,4714,2,0,P|466:124|463:182,1,85,8|0,0:0|0:0,0:0:0:0:
316,291,5071,5,4,0:0:0:0:
463,250,5250,1,0,3:0:0:0:
225,129,5607,1,2,3:0:0:0:
64,333,5964,1,2,3:0:0:0:
293,73,6321,6,0,P|315:125|241:215,1,170,4|0,0:2|0:0,0:0:0:0:
144,117,6857,2,0,P|163:73|201:52,1,85,8|0,0:0|0:0,0:0:0:0:
311,269,7214,2,0,L|286:357,1,85,2|0,0:0|0:0,0:0:0:0:
107,304,7571,2,0,L|130:222,1,85,8|0,0:0|0:0,0:0:0:0:
225,129,7928,5,4,0:2:0:0:
197,286,8107,1,0,0:0:0:0:
144,117,8285,1,8,0:0:0:0:
187,365,8464,2,0,P|233:357|267:321,1,85,2|0,3:0|0:0,0:0:0:0:
298,96,8821,2,0,P|252:104|218:140,1,85,2|0,3:0|0:0,0:0:0:0:
363,255,9178,6,0,L|410:85,1,170,4|8,2:0|0:3,0:0:0:0:
416,66,9625,1,0,0:0:0:0:
425,42,9714,1,8,0:3:0:0:
298,96,9893,1,0,0:0:0:0:
461,193,10071,2,0,L|435:289,2,85,2|0|8,0:0|0:0|0:0,0:0:0:0:
248,24,10607,6,0,P|212:87|268:179,1,170,2|0,0:0|0:0,0:0:0:0:
374,199,11143,1,8,0:0:0:0:
298,96,11321,1,0,0:0:0:0:
179,230,11500,2,0,P|215:258|282:254,1,85,2|0,0:0|0:0,0:0:0:0:
448,232,11857,2,0,P|412:204|345:208,1,85,8|0,0:0|0:0,0:0:0:0:
247,359,12214,6,0,L|426:330,1,170,2|8,0:0|0:0,0:0:0:0:
448,231,12750,1,0,0:0:0:0:
499,360,12928,1,2,0:0:0:0:
491,154,13107,1,8,0:0:0:0:
467,144,13196,1,0,0:0:0:0:
442,142,13285,1,8,0:0:0:0:
417,147,13374,1,0,0:0:0:0:
394,159,13464,1,8,0:0:0:0:
376,177,13553,1,0,0:0:0:0:
366,201,13643,1,4,0:0:0:0:
256,192,13732,12,4,15071,2:0:0:0:
263,195,15428,6,0,L|369:173,1,85,8|0,0:0|0:0,0:0:0:0:
313,322,15785,2,0,L|229:339,1,85,0|0,3:0|0:0,0:0:0:0:
185,171,16143,2,0,P|217:126|254:116,1,85,8|0,0:0|0:0,0:0:0:0:
407,172,16500,6,0,P|339:221|243:166,1,170,0|8,3:0|0:0,0:0:0:0:
317,80,17035,2,0,L|348:255,1,170,0|0,3:0|0:0,0:0:0:0:
459,354,17571,2,0,L|474:267,1,85,8|0,0:0|0:0,0:0:0:0:
324,170,17928,6,0,P|303:179|268:231,1,85,0|0,3:2|0:0,0:0:0:0:
293,365,18285,1,8,0:0:0:0:
346,247,18464,1,0,0:0:0:0:
200,272,18643,2,0,L|113:284,1,85,0|0,3:0|0:0,0:0:0:0:
241,151,19000,2,0,L|323:169,1,85,8|0,0:0|0:0,0:0:0:0:
161,191,19357,6,0,P|156:109|223:63,1,170,0|8,3:0|0:0,0:0:0:0:
378,109,19893,2,0,P|401:187|346:247,1,170,0|0,3:0|0:0,0:0:0:0:
161,191,20428,1,8,0:0:0:0:
324,169,20607,1,0,0:0:0:0:
110,117,20785,6,0,P|74:209|125:273,1,170,0|8,3:0|0:0,0:0:0:0:
255,338,21321,2,0,L|405:259,1,170,0|0,3:0|0:0,0:0:0:0:
511,117,21857,2,0,P|477:114|423:152,1,85,8|0,0:0|0:0,0:0:0:0:
477,342,22214,6,0,P|518:267|489:189,1,170,0|8,3:0|0:0,0:0:0:0:
366,87,22750,2,0,L|214:169,1,170,0|0,3:0|0:0,0:0:0:0:
175,332,23285,2,0,P|209:330|260:290,1,85,8|0,0:0|0:0,0:0:0:0:
154,127,23643,5,0,3:2:0:0:
86,239,23821,2,0,P|137:260|179:253,2,85,0|8|0,0:0|0:0|0:0,0:0:0:0:
154,127,24357,1,0,3:0:0:0:
239,227,24535,1,0,3:0:0:0:
221,41,24714,1,8,0:0:0:0:
73,154,24893,1,0,0:0:0:0:
283,94,25071,6,0,P|336:145|447:143,1,170,2|8,3:2|0:0,0:0:0:0:
221,41,25607,6,0,P|162:63|90:81,1,127.5,0|0,3:2|0:0,0:0:0:0:
8,117,26321,6,0,L|-8:170,2,42.5,0|0|4,0:0|0:0|0:2,0:0:0:0:
47,10,26678,1,0,0:0:0:0:
147,153,26857,2,0,P|135:194|83:229,1,85,8|0,0:0|0:0,0:0:0:0:
170,344,27214,2,0,L|255:332,1,85,0|0,3:0|0:0,0:0:0:0:
346,207,27571,1,8,0:0:0:0:
415,341,27750,1,0,0:0:0:0:
444,168,27928,6,0,P|395:117|272:125,1,170,0|8,3:0|0:0,0:0:0:0:
136,177,28464,2,0,L|170:345,1,170,0|0,3:0|0:0,0:0:0:0:
303,374,29000,2,0,P|333:334|337:292,1,85,8|0,0:0|0:0,0:0:0:0:
263,133,29357,5,0,3:0:0:0:
247,302,29535,1,0,0:0:0:0:
137,178,29714,2,0,L|52:192,1,85,8|0,0:0|0:0,0:0:0:0:
263,133,30071,2,0,L|346:146,1,85,0|0,3:0|0:0,0:0:0:0:
171,74,30428,1,8,0:0:0:0:
333,47,30607,1,0,0:0:0:0:
274,217,30785,6,0,P|372:239|436:193,1,170,0|8,3:0|0:0,0:0:0:0:
263,133,31321,2,0,P|196:187|211:273,1,170,0|0,3:0|0:0,0:0:0:0:
305,328,31857,1,8,0:0:0:0:
464,266,32035,6,0,L|430:94,1,170
333,47,32571,1,8,0:0:0:0:
263,133,32750,1,0,0:0:0:0:
195,47,32928,1,0,3:0:0:0:
230,227,33107,1,0,0:0:0:0:
125,113,33285,2,0,L|32:124,1,85,8|0,0:0|0:0,0:0:0:0:
205,309,33643,6,0,P|256:307|313:208,1,170,0|8,3:0|0:0,0:0:0:0:
125,113,34178,1,0,0:0:0:0:
27,198,34357,1,2,0:0:0:0:
16,220,34446,1,0,0:0:0:0:
13,246,34535,1,2,0:0:0:0:
19,270,34624,1,0,0:0:0:0:
31,293,34714,1,2,0:0:0:0:
48,311,34803,1,0,0:0:0:0:
71,322,34892,1,2,0:0:0:0:
96,327,34982,1,0,0:0:0:0:
121,324,35071,6,0,L|206:308,1,85,4|0,1:2|1:0,0:0:0:0:
313,203,35428,2,0,L|486:245,2,170,0|4|0,0:0|2:0|3:0,0:0:0:0:
121,156,36500,6,0,P|105:112|109:71,1,85,0|0,1:0|3:0,0:0:0:0:
210,172,36857,2,0,P|179:230|80:240,2,170,0|4|0,0:0|0:2|0:0,0:0:0:0:
203,14,37928,6,0,L|297:25,1,85,4|0,0:2|3:0,0:0:0:0:
379,151,38285,2,0,L|200:173,1,170,0|4,0:0|2:0,0:0:0:0:
119,121,38821,1,0,0:0:0:0:
207,268,39000,2,0,P|284:231|300:137,1,170,0|0,0:0|1:0,0:0:0:0:
243,51,39535,5,0,3:0:0:0:
209,171,39714,1,8,0:0:0:0:
136,35,39893,1,0,0:0:0:0:
61,230,40071,1,2,3:0:0:0:
119,121,40249,1,0,3:0:0:0:
119,121,40338,1,0,0:0:0:0:
119,121,40428,1,0,3:0:0:0:
207,268,40607,6,0,L|379:242,1,170,4|0,2:0|0:0,0:0:0:0:
450,180,41143,2,0,P|432:162|374:145,1,85,8|0,0:0|0:0,0:0:0:0:
351,338,41500,2,0,P|395:340|442:314,2,85,0|0|8,3:0|0:0|0:0,0:0:0:0:
207,268,42035,6,0,L|231:86,1,170,0|0,3:0|0:0,0:0:0:0:
366,157,42571,1,8,0:0:0:0:
229,99,42750,1,0,0:0:0:0:
396,240,42928,2,0,P|434:213|450:161,1,85,0|0,3:0|0:0,0:0:0:0:
407,73,43285,1,8,0:0:0:0:
312,211,43464,1,0,0:0:0:0:
312,211,43553,1,0,0:0:0:0:
312,211,43643,6,0,L|319:252,3,42.5,4|0|0|0,0:2|0:0|0:0|0:0,0:0:0:0:
236,140,44000,2,0,L|229:99,3,42.5,8|0|0|0,0:0|0:0|0:0|0:0,0:0:0:0:
178,219,44357,2,0,L|185:260,3,42.5,0|0|0|0,3:0|0:0|0:0|0:0,0:0:0:0:
105,155,44714,2,0,L|98:114,3,42.5,8|0|0|0,0:0|0:0|0:0|0:0,0:0:0:0:
36,226,45071,6,0,L|1:188,3,42.5,0|0|0|0,3:0|0:0|0:0|0:0,0:0:0:0:
58,322,45428,2,0,L|4:314,3,42.5,8|0|0|0,0:0|0:0|0:0|0:0,0:0:0:0:
152,352,45785,2,0,L|107:389,3,42.5,0|0|0|0,2:0|0:0|0:0|0:0,0:0:0:0:
247,339,46143,2,0,L|241:387,3,42.5,8|0|0|0,0:0|0:0|0:0|0:0,0:0:0:0:
246,242,46500,5,2,0:0:0:0:
268,233,46589,1,0,0:0:0:0:
293,230,46678,1,2,0:0:0:0:
318,233,46767,1,0,0:0:0:0:
344,241,46857,1,2,0:0:0:0:
366,255,46946,1,0,0:0:0:0:
385,271,47035,1,2,0:0:0:0:
400,292,47125,1,0,0:0:0:0:
430,278,47214,5,2,0:0:0:0:
456,257,47303,1,0,0:0:0:0:
475,228,47392,1,2,0:0:0:0:
485,197,47482,1,0,0:0:0:0:
484,161,47571,1,2,0:0:0:0:
475,129,47660,1,0,0:0:0:0:
456,101,47750,1,2,0:0:0:0:
430,80,47839,1,0,0:0:0:0:
397,71,47928,6,0,L|308:64,1,85,4|0,0:2|0:0,0:0:0:0:
192,100,48285,1,0,2:0:0:0:
192,100,48464,2,0,P|185:174|274:248,1,170,0|0,2:0|0:0,0:0:0:0:
361,213,49000,1,0,2:0:0:0:
313,65,49178,1,0,0:0:0:0:
313,65,49268,1,0,0:0:0:0:
313,65,49357,6,0,L|295:175,1,85,4|0,2:0|0:0,0:0:0:0:
420,290,49714,2,0,P|451:250|451:191,1,85,8|0,0:0|0:0,0:0:0:0:
313,65,50071,1,2,0:0:0:0:
361,213,50250,1,0,0:0:0:0:
232,138,50428,1,8,0:0:0:0:
276,311,50607,6,0,P|194:318|124:272,1,170
70,164,51143,1,8,0:0:0:0:
19,279,51321,1,0,0:0:0:0:
116,57,51500,1,2,0:0:0:0:
114,247,51678,2,0,P|164:237|202:211,2,85,0|8|0,0:0|0:0|0:0,0:0:0:0:
195,91,52214,6,0,P|245:101|283:127,1,85,2|0,0:0|0:0,0:0:0:0:
276,311,52571,2,0,P|326:301|364:275,1,85,8|0,0:0|0:0,0:0:0:0:
376,120,52928,1,2,0:0:0:0:
452,254,53107,1,0,0:0:0:0:
303,190,53285,1,8,0:0:0:0:
466,160,53464,6,0,P|465:78|402:24,1,170,2|0,0:0|0:0,0:0:0:0:
303,190,54000,1,8,0:0:0:0:
376,120,54178,1,0,0:0:0:0:
213,218,54357,2,0,P|230:253|269:279,1,85,2|0,0:0|0:0,0:0:0:0:
376,120,54714,2,0,P|359:85|320:59,1,85,4|0,2:0|0:0,0:0:0:0:
143,129,55071,6,0,L|118:302,1,170,4|8,2:0|0:0,0:0:0:0:
207,370,55607,2,0,P|320:322|330:265,1,170
265,142,56143,1,8,0:0:0:0:
236,279,56321,1,0,0:0:0:0:
143,129,56500,6,0,L|40:144,1,85,2|0,0:0|0:0,0:0:0:0:
236,279,56857,2,0,L|339:294,1,85,8|0,0:0|0:0,0:0:0:0:
339,98,57214,2,0,P|296:61|253:59,1,85,2|0,0:0|0:0,0:0:0:0:
169,233,57571,2,0,P|209:272|252:277,1,85,8|0,0:0|0:0,0:0:0:0:
412,192,57928,6,0,L|234:196,1,170,2|8,0:0|0:0,0:0:0:0:
400,292,58464,1,0,0:0:0:0:
400,292,58643,2,0,P|495:246|511:188,1,170,2|8,0:0|0:0,0:0:0:0:
408,107,59178,1,0,0:0:0:0:
408,107,59268,1,0,0:0:0:0:
408,107,59357,6,0,L|412:201,1,85,4|0,2:0|0:0,0:0:0:0:
324,275,59714,1,8,0:0:0:0:
343,51,59893,2,0,P|396:25|492:86,1,170,4|4,2:0|2:0,0:0:0:0:
324,275,60607,6,0,L|284:102,1,170,4|0,0:2|0:0,0:0:0:0:
427,30,61143,2,0,P|427:81|397:117,1,85,8|0,0:0|0:0,0:0:0:0:
215,133,61500,2,0,P|215:82|245:46,2,85,2|0|8,0:0|0:0|0:0,0:0:0:0:
327,313,62035,6,0,L|147:290,1,170,2|0,0:0|0:0,0:0:0:0:
43,275,62571,1,8,0:0:0:0:
192,218,62750,1,0,0:0:0:0:
75,133,62928,1,2,0:0:0:0:
158,291,63107,1,0,0:0:0:0:
289,155,63285,2,0,L|383:143,1,85,8|0,0:0|0:0,0:0:0:0:
242,280,63643,6,0,L|148:292,1,85,2|0,0:0|0:0,0:0:0:0:
289,80,64000,2,0,L|373:69,1,85,8|0,0:0|0:0,0:0:0:0:
493,177,64357,1,2,0:0:0:0:
341,229,64535,1,0,0:0:0:0:
433,124,64714,1,8,0:0:0:0:
390,331,64893,6,0,P|327:338|238:273,1,170,2|0,0:0|0:0,0:0:0:0:
289,80,65428,1,8,0:0:0:0:
341,229,65607,1,0,0:0:0:0:
205,82,65785,2,0,P|212:47|248:6,1,85,2|0,0:0|0:0,0:0:0:0:
341,229,66143,2,0,P|333:263|298:305,1,85,8|0,0:0|0:0,0:0:0:0:
111,317,66500,6,0,L|27:294,1,85,4|0,2:0|0:0,0:0:0:0:
259,206,66857,2,0,L|343:229,1,85,8|0,0:0|0:0,0:0:0:0:
111,317,67214,2,0,P|96:264|106:227,1,85,2|0,0:0|0:0,0:0:0:0:
250,124,67571,2,0,P|265:177|255:214,1,85,8|0,0:0|0:0,0:0:0:0:
195,47,67928,6,0,P|258:30|341:101,1,170,2|8,0:0|0:0,0:0:0:0:
315,275,68464,1,0,0:0:0:0:
315,275,68643,2,0,P|252:292|169:221,1,170,2|8,0:0|0:0,0:0:0:0:
407,210,69178,1,0,0:0:0:0:
407,210,69357,6,0,P|426:274|362:378,2,170,2|8|2,0:0|0:0|0:0,0:0:0:0:
335,110,70250,1,0,0:0:0:0:
315,275,70428,1,8,0:0:0:0:
233,61,70607,6,0,L|62:99,1,170,4|0,2:0|0:0,0:0:0:0:
95,256,71143,2,0,P|146:237|169:211,1,85,8|0,0:0|0:0,0:0:0:0:
51,179,71500,1,2,0:0:0:0:
74,337,71678,1,2,0:0:0:0:
74,337,71768,1,0,0:0:0:0:
74,337,71857,2,0,P|133:332|178:302,1,85,8|0,0:0|0:0,0:0:0:0:
311,193,72214,5,4,2:0:0:0:
167,251,72393,1,0,3:0:0:0:
399,320,72750,2,0,L|414:131,1,170,4|4,2:0|2:0,0:0:0:0:
265,24,73464,6,0,P|178:35|116:115,1,170,4|0,0:2|0:0,0:0:0:0:
157,222,74000,1,4,0:2:0:0:
172,236,74357,2,0,L|267:230,1,85,2|0,0:0|0:0,0:0:0:0:
344,347,74714,2,0,L|259:352,1,85,2|0,0:0|0:0,0:0:0:0:
84,246,75071,6,0,P|94:178|185:150,1,170,4|8,0:2|0:0,0:0:0:0:
256,230,75607,1,0,0:0:0:0:
112,323,75785,2,0,L|13:334,1,85,2|0,0:0|0:0,0:0:0:0:
177,146,76143,2,0,L|261:136,1,85,8|0,0:0|0:0,0:0:0:0:
381,178,76500,5,2,0:0:0:0:
311,73,76678,1,0,0:0:0:0:
256,230,76857,1,8,0:0:0:0:
166,57,77035,2,0,P|114:83|106:199,1,170,2|0,0:0|0:0,0:0:0:0:
256,230,77571,1,8,0:0:0:0:
177,146,77750,6,0,L|167:328,1,170,2|0,0:0|0:0,0:0:0:0:
275,364,78285,2,0,P|324:352|360:317,1,85,8|0,0:0|0:0,0:0:0:0:
252,112,78643,2,0,P|203:124|167:159,1,85,2|0,0:0|0:0,0:0:0:0:
394,242,79000,2,0,L|400:134,1,85,8|0,0:0|0:0,0:0:0:0:
348,43,79357,5,2,0:0:0:0:
306,220,79535,1,0,0:0:0:0:
252,112,79714,1,8,0:0:0:0:
295,330,79893,2,0,P|206:328|137:277,1,170,4|2,2:0|0:0,0:0:0:0:
30,123,80428,1,8,0:0:0:0:
30,123,80607,6,0,L|14:295,1,170,4|0,2:0|0:0,0:0:0:0:
141,282,81143,2,0,L|149:188,1,85,8|0,0:0|0:0,0:0:0:0:
159,75,81500,1,2,0:0:0:0:
252,229,81678,1,0,0:0:0:0:
256,106,81857,1,8,0:0:0:0:
353,263,82035,6,0,P|404:228|427:108,1,170,2|0,0:0|0:0,0:0:0:0:
262,21,82571,2,0,L|254:125,1,85,8|2,0:0|0:0,0:0:0:0:
255,131,82839,1,0,0:0:0:0:
254,156,82928,1,4,0:0:0:0:
243,309,83107,1,8,0:0:0:0:
102,133,83464,5,4,0:0:0:0:
256,192,83553,12,0,89357,0:0:0:0:
