osu file format v13

[General]
AudioFilename: spica.mp3
AudioLeadIn: 0
PreviewTime: 61719
Countdown: 0
SampleSet: Soft
StackLeniency: 0.7
Mode: 0
LetterboxInBreaks: 0
WidescreenStoryboard: 0

[Editor]
DistanceSpacing: 1
BeatDivisor: 8
GridSize: 4
TimelineZoom: 1.5

[Metadata]
Title:Spica. (TV-size)
TitleUnicode:Spica. (TV-size)
Artist:StylipS
ArtistUnicode:StylipS
Creator:xxdeathx
Version:Normal
Source:マンガ家さんとアシスタントさんと
Tags:The Comic Artist and His Assistants Mangaka-san to Assistant-san to anime ending ed arisa noto Moe Toyota Miku Itou Maho Matsunaga
BeatmapID:442051
BeatmapSetID:182201

[Difficulty]
HPDrainRate:4
CircleSize:3
OverallDifficulty:4
ApproachRate:5
SliderMultiplier:1.96
SliderTickRate:1

[Events]
//Background and Video events
Video,0,"1500 bitrate mpeg4.avi"
0,0,"bg.jpg",0,0
//Break Periods
//Storyboard Layer 0 (Background)
//Storyboard Layer 1 (Fail)
//Storyboard Layer 2 (Pass)
//Storyboard Layer 3 (Foreground)
//Storyboard Sound Samples
//Background Colour Transformations
3,100,163,162,255

[TimingPoints]
2064,689.655172413793,4,2,1,30,1,0
18615,-100,4,2,1,35,0,0
40684,-100,4,2,1,40,0,0
62753,-100,4,2,1,50,0,1
83443,-100,4,2,1,50,0,0
84132,-100,4,2,1,35,0,0
84822,-100,4,2,1,20,0,0
85512,-100,4,2,1,5,0,0

[Colours]
Combo1 : 254,114,243
Combo2 : 5,226,126
Combo3 : 115,201,253
Combo4 : 255,155,32
Combo5 : 255,224,47

[HitObjects]
48,336,2064,6,0,P|96:308|156:300,1,98,2|0,0:0|0:0,0:0:0:0:
256,288,2753,1,0,0:0:0:0:
372,276,3098,2,0,P|419:265|461:239,2,98,2|2|0,0:0|0:0|0:0,0:0:0:0:
256,288,4132,2,0,L|256:184,1,98,0|2,0:0|0:0,0:0:0:0:
256,72,4822,5,2,0:0:0:0:
256,72,5167,2,0,L|256:20,2,49,2|2|2,0:0|0:0|0:0,0:0:0:0:
260,188,5857,2,0,P|304:220|364:228,2,98,2|2|2,0:0|0:0|0:0,0:0:0:0:
176,108,6891,1,2,0:0:0:0:
88,188,7236,1,2,0:0:0:0:
56,300,7581,6,0,B|124:364|248:336,1,196,6|0,0:0|0:0,0:0:0:0:
340,276,8615,1,2,0:0:0:0:
340,276,8960,2,0,L|376:184,1,98,2|0,0:0|0:0,0:0:0:0:
492,180,9650,2,0,P|480:132|436:84,1,98,2|2,0:0|0:0,0:0:0:0:
340,72,10339,6,0,P|296:96|265:148,1,98,2|0,0:0|0:0,0:0:0:0:
192,220,11029,1,2,0:0:0:0:
156,108,11374,1,2,0:0:0:0:
270,135,11719,2,0,P|309:163|374:158,1,98,2|0,0:0|0:0,0:0:0:0:
472,132,12408,1,2,0:0:0:0:
472,132,12753,1,2,0:0:0:0:
368,68,13098,6,0,L|268:40,2,98,2|0|0,0:0|0:0|0:0,0:0:0:0:
472,132,14132,1,2,0:0:0:0:
368,192,14477,2,0,L|268:164,2,98,2|0|0,0:0|0:0|0:0,0:0:0:0:
472,252,15512,1,2,0:0:0:0:
368,312,15857,6,0,L|268:284,1,98,2|0,0:0|0:0,0:0:0:0:
160,256,16546,1,0,0:0:0:0:
104,152,16891,1,2,0:0:0:0:
188,68,17236,2,0,P|216:112|220:164,1,98,2|0,0:0|0:0,0:0:0:0:
160,256,17926,1,2,0:0:0:0:
276,256,18270,1,2,0:0:0:0:
276,256,18615,6,0,L|432:132,1,196,2|0,0:0|0:0,0:0:0:0:
348,48,19650,1,2,0:0:0:0:
348,48,19995,2,0,L|194:169,1,196,2|0,0:0|0:0,0:0:0:0:
108,248,21029,1,2,0:0:0:0:
208,312,21374,6,0,P|256:324|308:312,1,98,2|0,0:0|0:0,0:0:0:0:
304,196,22063,2,0,P|256:184|204:196,1,98,0|0,0:0|0:0,0:0:0:0:
108,248,22753,1,2,0:0:0:0:
208,312,23098,1,0,0:0:0:0:
324,288,23443,2,0,P|372:264|396:216,1,98,2|0,0:0|0:0,0:0:0:0:
412,108,24132,6,0,P|376:84|312:88,1,98,2|0,0:0|0:0,0:0:0:0:
252,176,24822,2,0,L|136:128,1,98,0|2,0:0|0:0,0:0:0:0:
44,132,25512,2,0,P|60:80|124:40,1,98,2|0,0:0|0:0,0:0:0:0:
208,56,26201,2,0,L|298:93,1,98,2|0,0:0|0:0,0:0:0:0:
408,140,26891,5,2,0:0:0:0:
308,204,27236,1,0,0:0:0:0:
408,264,27581,1,2,0:0:0:0:
308,324,27926,1,2,0:0:0:0:
208,264,28270,2,0,L|92:200,1,98,2|0,0:0|0:0,0:0:0:0:
124,100,28960,2,0,L|209:147,1,98,2|2,0:0|0:0,0:0:0:0:
288,236,29650,6,0,P|324:192|328:148,1,98,2|0,0:0|0:0,0:0:0:0:
328,36,30339,1,2,0:0:0:0:
212,36,30684,1,2,0:0:0:0:
172,148,31029,2,0,P|162:204|181:244,1,98,2|0,0:0|0:0,0:0:0:0:
284,184,31719,1,2,0:0:0:0:
284,184,32063,1,2,0:0:0:0:
372,264,32408,6,0,P|404:220|404:164,1,98,2|0,0:0|0:0,0:0:0:0:
364,68,33098,1,2,0:0:0:0:
256,116,33443,1,2,0:0:0:0:
160,184,33788,2,0,P|140:140|148:76,1,98,2|0,0:0|0:0,0:0:0:0:
256,116,34477,2,0,P|276:160|268:224,1,98,2|2,0:0|0:0,0:0:0:0:
204,304,35167,6,0,L|100:292,2,98,2|0|0,0:0|0:0|0:0,0:0:0:0:
308,252,36201,1,2,0:0:0:0:
264,144,36546,2,0,L|272:44,2,98,2|0|0,0:0|0:0|0:0,0:0:0:0:
160,200,37580,1,2,0:0:0:0:
204,308,37926,6,0,L|292:350,1,98,2|0,0:0|0:0,0:0:0:0:
348,248,38614,1,2,0:0:0:0:
276,152,38960,1,0,0:0:0:0:
348,60,39305,1,2,0:0:0:0:
440,276,39995,2,0,P|408:328|348:340,1,98
256,320,40684,6,0,L|156:280,1,98,2|0,0:0|0:0,0:0:0:0:
52,248,41374,1,2,0:0:0:0:
52,248,41719,1,2,0:0:0:0:
112,148,42064,2,0,L|202:184,1,98,2|0,0:0|0:0,0:0:0:0:
312,228,42754,1,2,0:0:0:0:
312,228,43099,1,2,0:0:0:0:
416,280,43443,6,0,P|428:232|416:184,1,98,2|0,0:0|0:0,0:0:0:0:
336,100,44132,2,0,P|288:112|240:100,1,98,2|0,0:0|0:0,0:0:0:0:
160,184,44822,2,0,P|149:231|160:278,1,98,2|0,0:0|0:0,0:0:0:0:
260,344,45512,1,0,0:0:0:0:
376,336,45857,1,0,0:0:0:0:
444,240,46201,6,0,L|412:132,1,98,2|0,0:0|0:0,0:0:0:0:
364,40,46891,1,2,0:0:0:0:
256,88,47236,1,2,0:0:0:0:
148,132,47581,2,0,L|120:248,1,98,2|0,0:0|0:0,0:0:0:0:
96,344,48271,1,2,0:0:0:0:
208,304,48616,1,2,0:0:0:0:
316,264,48960,6,0,P|360:236|376:184,1,98,2|0,0:0|0:0,0:0:0:0:
348,80,49650,1,2,0:0:0:0:
272,168,49995,1,0,0:0:0:0:
196,80,50339,1,2,0:0:0:0:
120,168,50684,1,0,0:0:0:0:
196,256,51029,2,0,P|240:284|300:280,1,98,2|2,0:0|0:0,0:0:0:0:
356,192,51719,6,0,L|388:88,1,98,2|0,0:0|0:0,0:0:0:0:
472,180,52408,2,0,L|443:273,1,98,2|2,0:0|0:0,0:0:0:0:
356,192,53098,1,2,0:0:0:0:
180,36,53788,1,2,0:0:0:0:
212,148,54132,1,2,0:0:0:0:
304,76,54477,6,0,P|356:64|412:88,1,98,2|0,0:0|0:0,0:0:0:0:
396,196,55167,2,0,P|344:208|288:184,1,98,2|2,0:0|0:0,0:0:0:0:
200,140,55857,1,2,0:0:0:0:
44,256,56546,2,0,P|68:304|116:340,1,98,2|2,0:0|0:0,0:0:0:0:
220,336,57236,6,0,P|256:303|277:259,1,98,2|0,0:0|0:0,0:0:0:0:
300,144,57926,1,2,0:0:0:0:
388,220,58270,1,2,0:0:0:0:
276,260,58615,2,0,P|224:244|188:204,1,98,2|0,0:0|0:0,0:0:0:0:
116,124,59305,1,2,0:0:0:0:
80,236,59650,1,2,0:0:0:0:
196,216,59995,6,0,L|260:140,1,98,2|0,0:0|0:0,0:0:0:0:
300,100,60512,1,0,0:0:0:0:
348,68,60684,2,0,P|404:80|444:124,1,98,0|0,0:0|0:0,0:0:0:0:
344,184,61374,1,0,0:0:0:0:
344,184,61719,2,0,L|280:264,2,98,2|2|2,0:0|0:0|0:0,0:0:0:0:
408,84,62753,6,0,P|360:64|304:72,1,98,6|0,0:0|0:0,0:0:0:0:
264,176,63443,2,0,P|212:180|160:152,1,98,8|2,0:0|0:0,0:0:0:0:
132,52,64132,2,0,P|236:32|320:72,1,196,2|8,0:0|0:0,0:0:0:0:
404,148,65167,1,2,0:0:0:0:
392,264,65512,6,0,P|336:272|288:288,1,98,2|2,0:0|0:0,0:0:0:0:
256,176,66201,2,0,P|208:180|148:192,1,98,10|2,0:0|0:0,0:0:0:0:
140,72,66891,2,0,P|88:72|32:84,2,98,2|0|8,0:0|0:0|0:0,0:0:0:0:
256,84,67926,1,0,0:0:0:0:
256,84,68270,6,0,P|316:196|316:276,1,196,2|8,0:0|0:0,0:0:0:0:
228,340,69305,1,2,0:0:0:0:
112,324,69650,2,0,P|68:300|48:240,2,98,2|0|8,0:0|0:0|0:0,0:0:0:0:
228,340,70684,1,2,0:0:0:0:
344,324,71029,6,0,P|388:300|408:240,1,98,2|0,0:0|0:0,0:0:0:0:
296,216,71719,2,0,P|268:172|208:156,1,98,10|0,0:0|0:0,0:0:0:0:
184,264,72408,2,0,P|248:332|352:320,1,196,2|8,0:0|0:0,0:0:0:0:
328,88,73788,6,0,P|284:116|268:168,1,98,6|0,0:0|0:0,0:0:0:0:
236,272,74477,2,0,P|212:316|160:336,1,98,8|2,0:0|0:0,0:0:0:0:
60,292,75167,2,0,P|108:200|188:136,1,196,2|8,0:0|0:0,0:0:0:0:
272,72,76201,1,2,0:0:0:0:
280,188,76546,6,0,P|292:236|276:288,1,98,2|2,0:0|0:0,0:0:0:0:
172,232,77236,2,0,P|160:184|176:132,1,98,10|2,0:0|0:0,0:0:0:0:
272,72,77926,1,2,0:0:0:0:
372,132,78271,1,0,0:0:0:0:
312,233,78616,1,8,0:0:0:0:
211,172,78961,1,0,0:0:0:0:
112,108,79305,6,0,P|84:200|96:304,1,196,2|8,0:0|0:0,0:0:0:0:
212,308,80339,1,2,0:0:0:0:
324,276,80684,2,0,P|372:248|408:208,2,98,2|0|8,0:0|0:0|0:0,0:0:0:0:
212,308,81719,1,2,0:0:0:0:
188,192,82064,6,0,P|168:148|184:88,1,98,2|0,0:0|0:0,0:0:0:0:
288,140,82753,2,0,P|308:184|288:248,1,98,10|0,0:0|0:0,0:0:0:0:
212,308,83443,1,2,0:0:0:0:
256,192,83788,12,0,85857,0:0:0:0:
