osu file format v13

[General]
AudioFilename: spica.mp3
AudioLeadIn: 0
PreviewTime: 61719
Countdown: 0
SampleSet: Soft
StackLeniency: 0.7
Mode: 0
LetterboxInBreaks: 0
WidescreenStoryboard: 0

[Editor]
DistanceSpacing: 1.4
BeatDivisor: 8
GridSize: 4
TimelineZoom: 1.5

[Metadata]
Title:Spica. (TV-size)
TitleUnicode:Spica. (TV-size)
Artist:StylipS
ArtistUnicode:StylipS
Creator:xxdeathx
Version:Hard
Source:マンガ家さんとアシスタントさんと
Tags:The Comic Artist and His Assistants Mangaka-san to Assistant-san to anime ending ed arisa noto Moe Toyota Miku Itou Maho Matsunaga
BeatmapID:438873
BeatmapSetID:182201

[Difficulty]
HPDrainRate:6
CircleSize:4
OverallDifficulty:6
ApproachRate:7.5
SliderMultiplier:2.08
SliderTickRate:1

[Events]
//Background and Video events
Video,0,"1500 bitrate mpeg4.avi"
0,0,"bg.jpg",0,0
//Break Periods
//Storyboard Layer 0 (Background)
//Storyboard Layer 1 (Fail)
//Storyboard Layer 2 (Pass)
//Storyboard Layer 3 (Foreground)
//Storyboard Sound Samples
//Background Colour Transformations
3,100,163,162,255

[TimingPoints]
2064,689.655172413793,4,2,1,30,1,0
18615,-100,4,2,1,35,0,0
40684,-100,4,2,1,40,0,0
62753,-80,4,2,1,50,0,1
83443,-80,4,2,1,50,0,0
84132,-80,4,2,1,35,0,0
84822,-80,4,2,1,20,0,0
85512,-80,4,2,1,5,0,0

[Colours]
Combo1 : 254,114,243
Combo2 : 5,226,126
Combo3 : 115,201,253
Combo4 : 255,155,32
Combo5 : 255,224,47

[HitObjects]
104,80,2064,6,0,P|156:80|208:52,1,104,2|0,0:0|0:0,0:0:0:0:
256,192,2753,1,0,0:0:0:0:
184,320,3098,1,2,0:0:0:0:
256,192,3443,2,0,P|304:196|356:176,1,104,2|0,0:0|0:0,0:0:0:0:
340,32,4132,1,0,0:0:0:0:
200,64,4477,1,2,0:0:0:0:
132,192,4822,6,0,L|76:292,1,104,2|2,0:0|0:0,0:0:0:0:
88,356,5339,1,2,0:0:0:0:
148,312,5512,2,0,L|198:221,1,104,2|2,0:0|0:0,0:0:0:0:
272,92,6201,1,2,0:0:0:0:
408,148,6546,1,2,0:0:0:0:
376,292,6891,1,2,0:0:0:0:
232,308,7236,1,2,0:0:0:0:
116,220,7581,6,0,P|115:174|149:125,1,104,6|0,0:0|0:0,0:0:0:0:
264,40,8270,1,0,0:0:0:0:
120,64,8615,1,2,0:0:0:0:
204,220,8960,2,0,P|256:232|308:220,1,104,2|0,0:0|0:0,0:0:0:0:
444,176,9650,1,2,0:0:0:0:
384,44,9995,1,2,0:0:0:0:
232,116,10339,6,0,L|124:80,1,104,2|0,0:0|0:0,0:0:0:0:
64,212,11029,1,2,0:0:0:0:
188,288,11374,2,0,P|208:236|204:180,2,104,2|2|0,0:0|0:0|0:0,0:0:0:0:
48,324,12408,1,2,0:0:0:0:
48,324,12753,1,2,0:0:0:0:
188,288,13098,6,0,L|296:264,1,104,2|0,0:0|0:0,0:0:0:0:
432,232,13788,1,0,0:0:0:0:
288,192,14132,1,2,0:0:0:0:
144,192,14477,2,0,L|40:192,2,104,2|0|0,0:0|0:0|0:0,0:0:0:0:
288,192,15512,1,2,0:0:0:0:
372,72,15857,6,0,L|476:48,2,104,2|0|0,0:0|0:0|0:0,0:0:0:0:
288,192,16891,1,2,0:0:0:0:
372,312,17236,1,0,0:0:0:0:
80,292,17926,1,2,0:0:0:0:
80,292,18270,1,2,0:0:0:0:
128,152,18615,6,0,P|184:76|296:64,1,208,2|0,0:0|0:0,0:0:0:0:
256,192,19650,1,2,0:0:0:0:
220,321,19995,2,0,P|321:311|384:232,1,208,2|0,0:0|0:0,0:0:0:0:
392,96,21029,1,2,0:0:0:0:
256,104,21374,6,0,L|172:168,1,104,2|0,0:0|0:0,0:0:0:0:
204,300,22063,2,0,L|288:236,1,104,2|0,0:0|0:0,0:0:0:0:
388,148,22753,1,2,0:0:0:0:
256,104,23098,1,0,0:0:0:0:
128,148,23443,2,0,P|113:201|136:246,1,104,2|0,0:0|0:0,0:0:0:0:
256,324,24132,6,0,P|304:296|320:248,1,104,2|0,0:0|0:0,0:0:0:0:
320,116,24822,1,0,0:0:0:0:
456,116,25167,1,2,0:0:0:0:
320,116,25512,2,0,P|272:144|256:192,1,104,2|0,0:0|0:0,0:0:0:0:
256,324,26201,1,0,0:0:0:0:
380,276,26546,1,0,0:0:0:0:
256,324,26891,5,2,0:0:0:0:
124,292,27236,1,0,0:0:0:0:
56,176,27581,1,2,0:0:0:0:
92,44,27926,1,2,0:0:0:0:
224,16,28270,2,0,L|328:44,1,104,2|0,0:0|0:0,0:0:0:0:
260,164,28960,1,2,0:0:0:0:
160,72,29305,1,2,0:0:0:0:
128,204,29650,6,0,P|156:256|196:280,1,104,2|0,0:0|0:0,0:0:0:0:
260,164,30339,1,2,0:0:0:0:
316,40,30684,1,2,0:0:0:0:
372,164,31029,2,0,P|360:224|320:260,1,104,2|0,0:0|0:0,0:0:0:0:
212,320,31719,1,2,0:0:0:0:
260,164,32063,1,2,0:0:0:0:
184,52,32408,6,0,P|136:28|76:32,1,104,2|0,0:0|0:0,0:0:0:0:
56,160,33098,1,2,0:0:0:0:
24,292,33443,1,2,0:0:0:0:
56,160,33788,2,0,P|112:184|144:232,1,104,2|0,0:0|0:0,0:0:0:0:
196,340,34477,1,2,0:0:0:0:
196,340,34822,1,2,0:0:0:0:
300,256,35167,6,0,L|384:180,1,104,2|0,0:0|0:0,0:0:0:0:
476,96,35857,1,0,0:0:0:0:
348,60,36201,1,2,0:0:0:0:
244,148,36546,2,0,L|166:217,1,104,2|0,0:0|0:0,0:0:0:0:
60,300,37236,1,0,0:0:0:0:
192,336,37581,1,2,0:0:0:0:
256,216,37926,6,0,L|256:96,1,104,2|0,0:0|0:0,0:0:0:0:
104,104,38615,1,2,0:0:0:0:
408,104,38960,1,0,0:0:0:0:
256,316,39305,1,2,0:0:0:0:
256,44,39995,2,0,P|204:60|168:108,1,104,2|2,0:0|0:0,0:0:0:0:
132,236,40684,6,0,L|224:320,1,104,2|0,0:0|0:0,0:0:0:0:
268,264,41201,1,0,0:0:0:0:
256,192,41374,1,2,0:0:0:0:
256,192,41719,1,2,0:0:0:0:
380,148,42064,2,0,L|288:64,1,104,2|0,0:0|0:0,0:0:0:0:
244,120,42581,1,0,0:0:0:0:
256,192,42753,1,2,0:0:0:0:
256,192,43098,1,2,0:0:0:0:
324,320,43443,6,0,P|372:292|396:252,1,104,2|0,0:0|0:0,0:0:0:0:
328,124,44132,2,0,P|280:152|256:192,1,104,2|0,0:0|0:0,0:0:0:0:
188,320,44822,2,0,P|140:292|116:252,1,104,2|0,0:0|0:0,0:0:0:0:
112,104,45512,1,2,0:0:0:0:
80,248,45857,1,2,0:0:0:0:
80,248,46201,6,0,L|184:212,1,104,2|0,0:0|0:0,0:0:0:0:
160,296,46719,1,0,0:0:0:0:
80,320,46891,1,2,0:0:0:0:
178,213,47236,1,2,0:0:0:0:
168,68,47581,2,0,L|69:102,1,104,2|0,0:0|0:0,0:0:0:0:
132,156,48098,1,0,0:0:0:0:
212,132,48270,1,2,0:0:0:0:
324,40,48616,1,2,0:0:0:0:
324,188,48960,5,2,0:0:0:0:
432,88,49305,1,0,0:0:0:0:
312,196,49650,1,2,0:0:0:0:
456,192,49995,1,0,0:0:0:0:
304,204,50339,1,2,0:0:0:0:
432,296,50684,1,0,0:0:0:0:
296,212,51029,1,2,0:0:0:0:
164,272,51374,1,2,0:0:0:0:
80,152,51719,6,0,P|100:100|160:76,1,104,2|0,0:0|0:0,0:0:0:0:
212,72,52236,1,0,0:0:0:0:
280,96,52408,1,2,0:0:0:0:
256,240,52753,1,2,0:0:0:0:
400,228,53098,2,0,P|440:188|440:128,1,104,2|0,0:0|0:0,0:0:0:0:
416,76,53615,1,0,0:0:0:0:
352,40,53788,1,2,0:0:0:0:
224,104,54132,1,2,0:0:0:0:
92,164,54477,6,0,P|108:216|152:248,1,104,2|0,0:0|0:0,0:0:0:0:
216,264,54995,1,0,0:0:0:0:
288,248,55167,1,2,0:0:0:0:
348,116,55512,1,2,0:0:0:0:
360,260,55857,2,0,P|336:304|272:320,1,104,2|0,0:0|0:0,0:0:0:0:
216,308,56374,1,0,0:0:0:0:
160,264,56546,1,2,0:0:0:0:
160,264,56891,1,2,0:0:0:0:
40,172,57236,6,0,P|64:124|112:104,1,104,2|0,0:0|0:0,0:0:0:0:
180,116,57753,1,0,0:0:0:0:
252,128,57926,1,2,0:0:0:0:
120,180,58270,1,2,0:0:0:0:
208,296,58615,2,0,P|257:310|305:294,1,104,2|0,0:0|0:0,0:0:0:0:
188,208,59305,1,2,0:0:0:0:
328,208,59650,1,2,0:0:0:0:
256,80,59995,5,2,0:0:0:0:
120,272,60339,1,0,0:0:0:0:
120,272,60511,1,0,0:0:0:0:
160,332,60684,1,0,0:0:0:0:
400,272,61029,1,0,0:0:0:0:
256,80,61374,1,0,0:0:0:0:
256,216,61719,2,0,L|256:336,1,104,2|2,0:0|0:0,0:0:0:0:
52,272,62408,2,0,L|16:336,1,52,2|0,0:0|0:0,0:0:0:0:
60,256,62753,6,0,P|116:232|132:156,1,130,6|0,0:0|0:0,0:0:0:0:
256,48,63443,1,8,0:0:0:0:
388,152,63788,1,2,0:0:0:0:
256,260,64132,2,0,P|200:284|184:360,1,130,2|0,0:0|0:0,0:0:0:0:
348,312,64822,2,0,P|368:252|340:188,1,130,8|2,0:0|0:0,0:0:0:0:
196,112,65512,5,2,0:0:0:0:
128,264,65857,1,2,0:0:0:0:
208,116,66201,1,10,0:0:0:0:
188,284,66546,1,2,0:0:0:0:
348,228,66891,1,2,0:0:0:0:
368,60,67236,1,0,0:0:0:0:
360,232,67581,1,8,0:0:0:0:
428,80,67926,1,0,0:0:0:0:
256,108,68270,6,0,P|204:224|256:340,1,260,2|8,0:0|0:0,0:0:0:0:
372,224,69305,1,2,0:0:0:0:
203,224,69650,2,0,P|142:244|81:225,1,130,2|0,0:0|0:0,0:0:0:0:
144,68,70339,1,8,0:0:0:0:
144,316,70684,1,2,0:0:0:0:
412,280,71029,6,0,P|347:276|286:296,1,130,2|0,0:0|0:0,0:0:0:0:
412,168,71719,2,0,P|347:164|286:184,1,130,10|0,0:0|0:0,0:0:0:0:
412,56,72408,2,0,P|347:52|286:72,1,130,2|0,0:0|0:0,0:0:0:0:
76,44,73098,2,0,L|140:64,3,65,8|0|0|0,0:0|0:0|0:0|0:0,0:0:0:0:
140,64,73788,6,0,P|204:92|220:156,1,130,6|0,0:0|0:0,0:0:0:0:
224,328,74477,1,8,0:0:0:0:
360,204,74822,1,2,0:0:0:0:
224,328,75167,2,0,P|165:305|142:246,1,130,2|0,0:0|0:0,0:0:0:0:
140,64,75857,2,0,L|280:100,1,130,8|2,0:0|0:0,0:0:0:0:
440,136,76546,5,2,0:0:0:0:
280,196,76891,1,2,0:0:0:0:
452,132,77236,1,10,0:0:0:0:
264,200,77581,1,2,0:0:0:0:
408,312,77926,1,2,0:0:0:0:
468,128,78270,1,0,0:0:0:0:
276,72,78615,1,8,0:0:0:0:
216,260,78960,1,0,0:0:0:0:
44,320,79305,6,0,P|28:260|44:196,1,130,2|0,0:0|0:0,0:0:0:0:
156,56,79995,1,8,0:0:0:0:
256,192,80339,1,2,0:0:0:0:
360,324,80684,2,0,P|428:340|488:324,1,130,2|0,0:0|0:0,0:0:0:0:
420,156,81374,1,8,0:0:0:0:
256,236,81719,1,2,0:0:0:0:
88,164,82063,6,0,P|64:112|76:24,1,130,2|0,0:0|0:0,0:0:0:0:
256,164,82753,2,0,P|270:107|336:48,1,130,10|0,0:0|0:0,0:0:0:0:
440,192,83443,1,2,0:0:0:0:
256,192,83788,12,0,85857,0:0:0:0:
