osu file format v13

[General]
AudioFilename: Stylips-Spica.mp3
AudioLeadIn: 0
PreviewTime: 61546
Countdown: 0
SampleSet: Soft
StackLeniency: 0.7
Mode: 0
LetterboxInBreaks: 0
WidescreenStoryboard: 0

[Editor]
Bookmarks: 46029
DistanceSpacing: 0.8
BeatDivisor: 2
GridSize: 4
TimelineZoom: 1

[Metadata]
Title:Spica. (TV-size)
TitleUnicode:Spica. (TV-size)
Artist:StylipS
ArtistUnicode:StylipS
Creator:No Dap
Version:Normal
Source:Mangaka-san to Assistant-san to
Tags:ending tv size
BeatmapID:446063
BeatmapSetID:186767

[Difficulty]
HPDrainRate:3
CircleSize:3
OverallDifficulty:3
ApproachRate:3
SliderMultiplier:1.2
SliderTickRate:2

[Events]
//Background and Video events
0,0,"fufufu.jpg",0,0
Video,150,"Spica.avi"
//Break Periods
//Storyboard Layer 0 (Background)
//Storyboard Layer 1 (Fail)
//Storyboard Layer 2 (Pass)
//Storyboard Layer 3 (Foreground)
//Storyboard Sound Samples
//Background Colour Transformations
3,100,163,162,255

[TimingPoints]
2064,689.655172413793,4,2,1,25,1,0
7581,-100,4,2,1,15,0,0
7753,-100,4,2,1,25,0,0
17926,-100,4,2,1,30,0,0
18615,-100,4,2,1,35,0,0
40684,-100,4,2,1,45,0,0
62753,-86.9565217391305,4,2,1,40,0,1
62926,-86.9565217391305,4,2,1,50,0,1
73098,-86.9565217391305,4,2,1,50,0,0
73788,-86.9565217391305,4,2,1,40,0,1
73960,-86.9565217391305,4,2,1,50,0,1
83788,-100,4,2,1,5,0,1
85857,-100,4,2,1,5,0,0

[Colours]
Combo1 : 255,218,106
Combo2 : 117,175,255
Combo3 : 255,160,160
Combo4 : 59,59,255

[HitObjects]
120,284,2064,6,0,L|104:152,1,120,2|0,0:0|0:0,0:0:0:0:
160,84,3443,2,0,B|200:68|200:68|240:64|271:89,1,120,2|0,0:0|0:0,0:0:0:0:
323,173,4822,2,0,P|283:217|287:275,2,120,2|2|2,0:0|0:0|0:0,0:0:0:0:
408,124,6891,1,2,0:0:0:0:
416,172,7236,1,2,0:0:0:0:
424,220,7581,6,0,B|431:254|431:254|412:300|436:336,1,120,4|0,0:0|0:0,0:0:0:0:
344,292,8960,2,0,B|351:257|351:257|332:212|356:176,1,120,2|2,0:0|0:0,0:0:0:0:
431,120,10339,2,0,P|373:127|318:105,1,120,2|2,0:0|0:0,0:0:0:0:
288,68,11374,1,2,0:0:0:0:
264,28,11719,2,0,L|248:164,1,120,2|2,0:0|0:0,0:0:0:0:
244,196,12753,1,2,0:0:0:0:
236,244,13098,6,0,P|178:249|132:286,1,120,2|0,0:0|0:0,0:0:0:0:
56,228,14477,2,0,L|32:160,2,60,2|0|0,0:0|0:0|0:0,0:0:0:0:
132,284,15857,2,0,L|140:360,2,60,2|0|2,0:0|0:0|0:0,0:0:0:0:
144,236,16891,2,0,L|140:164,1,60,2|2,0:0|0:0,0:0:0:0:
224,128,17926,5,2,0:0:0:0:
252,168,18270,1,2,0:0:0:0:
300,179,18615,2,0,P|356:165|452:248,1,180,2|2,0:0|0:0,0:0:0:0:
472,276,19995,2,0,L|476:88,1,180,2|2,0:0|0:0,0:0:0:0:
490,52,21374,2,0,B|460:76|416:80|376:64|348:24|348:24|320:56|280:56,1,240,2|2,0:0|0:0,0:0:0:0:
196,96,23443,6,0,L|192:184,1,60,2|0,0:0|0:0,0:0:0:0:
216,196,24132,2,0,P|140:184|92:284,1,180,2|2,0:0|0:0,0:0:0:0:
68,304,25512,2,0,L|45:125,1,180,2|2,0:0|0:0,0:0:0:0:
16,88,26891,2,0,B|68:104|100:56|100:56|132:96|168:112|200:112|240:92,1,240,2|2,0:0|0:0,0:0:0:0:
316,56,28960,5,2,0:0:0:0:
360,32,29305,1,2,0:0:0:0:
404,12,29650,2,0,B|425:52|425:52|413:92|423:126,1,120,2|2,0:0|0:0,0:0:0:0:
448,172,30684,1,2,0:0:0:0:
480,204,31029,1,2,0:0:0:0:
496,300,31719,2,0,L|500:376,1,60,2|2,0:0|0:0,0:0:0:0:
456,340,32408,2,0,P|385:349|331:308,1,120,2|2,0:0|0:0,0:0:0:0:
320,284,33443,1,2,0:0:0:0:
316,236,33788,1,2,0:0:0:0:
224,268,34477,6,0,L|152:264,1,60,2|2,0:0|0:0,0:0:0:0:
124,291,35167,2,0,P|144:208|81:150,1,180,2|2,0:0|0:0,0:0:0:0:
48,116,36546,2,0,P|133:123|186:55,1,180,2|2,0:0|0:0,0:0:0:0:
204,12,37926,2,0,L|220:152,1,120,2|2,0:0|0:0,0:0:0:0:
228,180,38960,1,2,0:0:0:0:
236,228,39305,1,2,0:0:0:0:
319,272,39995,6,0,L|388:260,1,60,2|2,0:0|0:0,0:0:0:0:
411,295,40684,2,0,P|400:237|407:178,1,120,2|0,0:0|0:0,0:0:0:0:
444,144,41719,1,2,0:0:0:0:
476,108,42064,2,0,P|408:120|328:48,1,180,2|2,0:0|0:0,0:0:0:0:
356,12,43443,2,0,P|296:28|237:31,2,120,2|2|2,0:0|0:0|0:0,0:0:0:0:
432,72,45512,6,0,L|440:152,1,60,2|2,0:0|0:0,0:0:0:0:
476,164,46201,2,0,P|412:156|364:204,1,120,2|0,0:0|0:0,0:0:0:0:
356,236,47236,1,2,0:0:0:0:
368,284,47581,2,0,L|232:276,1,120,2|0,0:0|0:0,0:0:0:0:
208,252,48615,1,2,0:0:0:0:
180,212,48960,2,0,B|156:184|156:184|120:208|72:192,1,120,2|2,0:0|0:0,0:0:0:0:
44,156,49995,1,0,0:0:0:0:
24,112,50339,2,0,L|20:44,1,60,2|0,0:0|0:0,0:0:0:0:
64,32,51029,6,0,L|148:40,1,60,2|2,0:0|0:0,0:0:0:0:
152,76,51719,2,0,P|207:55|265:67,1,120,2|2,0:0|0:0,0:0:0:0:
296,104,52753,1,2,0:0:0:0:
320,144,53098,1,2,0:0:0:0:
392,208,53788,2,0,L|384:288,1,60,2|2,0:0|0:0,0:0:0:0:
400,312,54477,2,0,P|347:284|289:293,1,120,2|2,0:0|0:0,0:0:0:0:
252,320,55512,1,2,0:0:0:0:
224,360,55857,1,2,0:0:0:0:
140,312,56546,6,0,L|124:232,1,60,2|2,0:0|0:0,0:0:0:0:
99,213,57236,2,0,B|80:160|112:120|112:120|164:140|198:131,1,180,2|2,0:0|0:0,0:0:0:0:
224,99,58615,2,0,P|239:184|320:211,1,180,2|2,0:0|0:0,0:0:0:0:
360,184,59995,2,0,L|364:120,1,60,2|0,0:0|0:0,0:0:0:0:
392,88,60684,2,0,L|380:20,2,60,2|2|2,0:0|0:0|0:0,0:0:0:0:
428,120,61719,5,2,0:0:0:0:
440,164,62063,1,2,0:0:0:0:
476,196,62408,1,2,0:0:0:0:
508,232,62753,6,0,P|428:224|364:280,1,138.000002632141,4|8,0:0|0:0,0:0:0:0:
348,296,63788,1,2,0:0:0:0:
316,340,64132,2,0,L|296:192,1,138.000002632141,2|8,0:0|0:0,0:0:0:0:
288,148,65167,1,2,0:0:0:0:
276,96,65512,6,0,L|296:12,2,69.0000013160706,2|2|8,0:0|0:0|0:0,0:0:0:0:
224,120,66546,1,2,0:0:0:0:
180,156,66891,2,0,B|144:175|144:175|100:143|51:160,1,138.000002632141,2|8,0:0|0:0,0:0:0:0:
76,268,68270,6,0,P|140:289|202:263,1,138.000002632141,2|8,0:0|0:0,0:0:0:0:
228,216,69305,1,2,0:0:0:0:
252,164,69650,2,0,L|264:320,1,138.000002632141,2|8,0:0|0:0,0:0:0:0:
300,340,70684,1,2,0:0:0:0:
344,304,71029,6,0,P|432:300|476:336,2,138.000002632141,2|8|2,0:0|0:0|0:0,0:0:0:0:
240,344,73098,1,8,0:0:0:0:
159,263,73788,6,0,P|154:195|137:128,1,138.000002632141,4|8,0:0|0:0,0:0:0:0:
104,84,74822,1,2,0:0:0:0:
72,40,75167,2,0,P|140:48|206:32,1,138.000002632141,2|8,0:0|0:0,0:0:0:0:
252,68,76201,1,2,0:0:0:0:
300,96,76546,6,0,L|372:80,1,69.0000013160706,2|2,0:0|0:0,0:0:0:0:
412,48,77236,1,8,0:0:0:0:
464,68,77581,1,2,0:0:0:0:
492,20,77926,2,0,L|480:180,1,138.000002632141,2|8,0:0|0:0,0:0:0:0:
499,267,79305,6,0,B|456:280|456:280|417:258|368:256,1,138.000002632141,2|8,0:0|0:0,0:0:0:0:
316,272,80339,1,2,0:0:0:0:
272,304,80684,2,0,L|252:140,1,138.000002632141,2|8,0:0|0:0,0:0:0:0:
232,116,81719,1,2,0:0:0:0:
200,72,82064,6,0,P|116:88|48:48,2,138.000002632141,2|2|2,0:0|0:0|0:0,0:0:0:0:
256,192,83788,12,0,85857,0:0:0:0:
