osu file format v13

[General]
AudioFilename: Stylips-Spica.mp3
AudioLeadIn: 0
PreviewTime: 61546
Countdown: 0
SampleSet: Soft
StackLeniency: 0.7
Mode: 0
LetterboxInBreaks: 0
WidescreenStoryboard: 0

[Editor]
DistanceSpacing: 1.3
BeatDivisor: 4
GridSize: 4
TimelineZoom: 1

[Metadata]
Title:Spica. (TV-size)
TitleUnicode:Spica. (TV-size)
Artist:StylipS
ArtistUnicode:StylipS
Creator:No Dap
Version:Hard
Source:Mangaka-san to Assistant-san to
Tags:ending tv size
BeatmapID:446006
BeatmapSetID:186767

[Difficulty]
HPDrainRate:6
CircleSize:4
OverallDifficulty:6
ApproachRate:6
SliderMultiplier:1.6
SliderTickRate:2

[Events]
//Background and Video events
0,0,"fufufu.jpg",0,0
Video,150,"Spica.avi"
//Break Periods
//Storyboard Layer 0 (Background)
//Storyboard Layer 1 (Fail)
//Storyboard Layer 2 (Pass)
//Storyboard Layer 3 (Foreground)
//Storyboard Sound Samples
//Background Colour Transformations
3,100,163,162,255

[TimingPoints]
2064,689.655172413793,4,2,1,25,1,0
7581,-100,4,2,1,15,0,0
7753,-100,4,2,1,25,0,0
17926,-100,4,2,1,30,0,0
18615,-100,4,2,1,35,0,0
40684,-100,4,2,1,45,0,0
62753,-86.9565217391305,4,2,1,40,0,1
62926,-86.9565217391305,4,2,1,50,0,1
73098,-86.9565217391305,4,2,1,50,0,0
73788,-86.9565217391305,4,2,1,40,0,1
73960,-86.9565217391305,4,2,1,50,0,1
83615,-100,4,2,1,5,0,1
85857,-100,4,2,1,5,0,0

[Colours]
Combo1 : 255,218,106
Combo2 : 117,175,255
Combo3 : 255,160,160
Combo4 : 59,59,255

[HitObjects]
44,276,2064,6,0,L|28:172,1,80,2|0,0:0|0:0,0:0:0:0:
44,100,2753,1,0,0:0:0:0:
136,128,3098,2,0,L|220:112,1,80,2|2,0:0|0:0,0:0:0:0:
292,168,3788,1,0,0:0:0:0:
345,87,4133,1,0,0:0:0:0:
437,114,4477,1,2,0:0:0:0:
440,210,4822,6,0,L|508:252,2,80,2|2|2,0:0|0:0|0:0,0:0:0:0:
350,243,5857,1,2,0:0:0:0:
260,280,6201,2,0,L|180:276,1,80,2|2,0:0|0:0,0:0:0:0:
88,183,6891,2,0,L|167:179,1,80,2|2,0:0|0:0,0:0:0:0:
311,104,7581,6,0,P|241:68|163:83,1,160,4|0,0:0|0:0,0:0:0:0:
92,144,8615,2,0,B|88:168|88:168|105:222,1,80,2|2,0:0|0:0,0:0:0:0:
160,300,9305,1,0,0:0:0:0:
248,264,9650,2,0,P|288:260|328:272,1,80,2|2,0:0|0:0,0:0:0:0:
396,336,10339,6,0,P|359:265|364:187,1,160,2|2,0:0|0:0,0:0:0:0:
400,96,11374,1,2,0:0:0:0:
308,116,11719,2,0,P|268:120|229:111,1,80,2|0,0:0|0:0,0:0:0:0:
156,52,12408,1,2,0:0:0:0:
156,52,12753,1,2,0:0:0:0:
88,120,13098,6,0,B|52:196|116:196|83:274,1,160,2|0,0:0|0:0,0:0:0:0:
8,232,14132,1,2,0:0:0:0:
164,167,14477,2,0,B|216:152|216:152|256:184|316:172,1,160,2|0,0:0|0:0,0:0:0:0:
280,88,15512,1,2,0:0:0:0:
240,264,15857,6,0,L|236:352,2,80,2|0|2,0:0|0:0|0:0,0:0:0:0:
244,168,16891,1,2,0:0:0:0:
156,208,17236,1,2,0:0:0:0:
348,228,17926,6,0,L|356:112,1,80,2|2,0:0|0:0,0:0:0:0:
444,40,18615,6,0,L|456:236,1,160,2|0,0:0|0:0,0:0:0:0:
452,296,19650,1,2,0:0:0:0:
364,260,19995,2,0,P|304:240|208:292,1,160,2|0,0:0|0:0,0:0:0:0:
144,340,21029,1,2,0:0:0:0:
72,276,21374,6,0,L|56:172,1,80,2|0,0:0|0:0,0:0:0:0:
124,124,22063,2,0,L|136:44,1,80,2|2,0:0|0:0,0:0:0:0:
44,72,22753,1,2,0:0:0:0:
124,124,23098,1,0,0:0:0:0:
208,75,23443,2,0,P|245:64|285:67,1,80,2|0,0:0|0:0,0:0:0:0:
408,167,24132,6,0,P|331:187|257:159,1,160,2|0,0:0|0:0,0:0:0:0:
208,76,25167,1,2,0:0:0:0:
116,104,25512,2,0,P|56:155|44:232,1,160,2|0,0:0|0:0,0:0:0:0:
96,312,26546,1,2,0:0:0:0:
168,251,26891,6,0,P|204:236|244:234,1,80,2|0,0:0|0:0,0:0:0:0:
384,325,27581,2,0,P|344:323|308:308,1,80,2|2,0:0|0:0,0:0:0:0:
244,234,28270,1,2,0:0:0:0:
388,108,28960,6,0,L|404:208,1,80,2|2,0:0|0:0,0:0:0:0:
304,83,29650,6,0,P|354:25|431:33,1,160,2|2,0:0|0:0,0:0:0:0:
484,116,30684,1,2,0:0:0:0:
400,186,31029,2,0,L|388:108,1,80,2|0,0:0|0:0,0:0:0:0:
308,160,31719,1,2,0:0:0:0:
484,116,32063,1,2,0:0:0:0:
427,288,32408,6,0,P|344:332|272:296,1,160,2|2,0:0|0:0,0:0:0:0:
232,232,33443,1,2,0:0:0:0:
148,188,33788,2,0,B|132:176|132:176|100:184|72:175,1,80,2|0,0:0|0:0,0:0:0:0:
4,284,34477,2,0,B|20:272|20:272|52:280|80:272,1,80,2|2,0:0|0:0,0:0:0:0:
207,318,35167,6,0,P|150:265|147:188,1,160,2|0,0:0|0:0,0:0:0:0:
192,104,36201,1,2,0:0:0:0:
272,156,36546,2,0,P|349:162|410:112,1,160,2|0,0:0|0:0,0:0:0:0:
440,20,37581,1,2,0:0:0:0:
319,63,37926,6,0,P|282:52|242:57,1,80,2|0,0:0|0:0,0:0:0:0:
110,142,38615,2,0,P|150:147|188:136,1,80,2|2,0:0|0:0,0:0:0:0:
242,57,39305,1,2,0:0:0:0:
242,57,39995,6,0,L|248:148,1,80,2|2,0:0|0:0,0:0:0:0:
172,244,40684,6,0,P|226:188|303:193,1,160,2|0,0:0|0:0,0:0:0:0:
384,248,41719,1,2,0:0:0:0:
436,167,42064,2,0,P|439:91|375:50,1,160,2|0,0:0|0:0,0:0:0:0:
296,104,43098,1,2,0:0:0:0:
212,56,43443,6,0,L|104:48,1,80,2|0,0:0|0:0,0:0:0:0:
32,124,44132,2,0,P|91:174|93:252,2,160,2|2|2,0:0|0:0|0:0,0:0:0:0:
4,216,45857,1,2,0:0:0:0:
176,128,46201,6,0,B|232:112|232:112|280:144|328:130,1,160,2|0,0:0|0:0,0:0:0:0:
296,40,47236,1,2,0:0:0:0:
143,40,47581,2,0,P|89:94|95:172,1,160,2|0,0:0|0:0,0:0:0:0:
168,236,48615,1,2,0:0:0:0:
176,128,48960,5,2,0:0:0:0:
176,128,49650,2,0,L|288:116,1,80,2|0,0:0|0:0,0:0:0:0:
359,36,50339,2,0,L|280:28,1,80,2|0,0:0|0:0,0:0:0:0:
344,184,51029,1,2,0:0:0:0:
412,116,51374,1,2,0:0:0:0:
279,27,51719,6,0,P|207:55|175:126,1,160,2|2,0:0|0:0,0:0:0:0:
228,208,52753,1,2,0:0:0:0:
156,272,53098,1,2,0:0:0:0:
156,272,53788,6,0,B|136:264|136:264|108:276|78:274,1,80,2|2,0:0|0:0,0:0:0:0:
228,208,54477,6,0,P|252:281|214:350,1,160,2|2,0:0|0:0,0:0:0:0:
156,272,55512,1,2,0:0:0:0:
228,208,55857,1,2,0:0:0:0:
228,208,56546,6,0,B|248:200|248:200|276:212|305:210,1,80,2|2,0:0|0:0,0:0:0:0:
284,116,57236,6,0,L|268:296,1,160,2|0,0:0|0:0,0:0:0:0:
256,372,58270,1,2,0:0:0:0:
180,312,58615,2,0,B|148:292|148:292|136:324|116:348|88:364|59:367,1,160,2|0,0:0|0:0,0:0:0:0:
48,264,59650,1,2,0:0:0:0:
180,312,59995,6,0,P|212:320|257:309,2,80,2|0|0,0:0|0:0|0:0,0:0:0:0:
120,240,61029,2,0,L|113:160,1,80,2|2,0:0|0:0,0:0:0:0:
152,56,61719,5,2,0:0:0:0:
224,140,62063,1,2,0:0:0:0:
113,160,62408,1,2,0:0:0:0:
268,39,62753,6,0,P|354:35|393:113,1,184.000003509522,4|8,0:0|0:0,0:0:0:0:
324,208,63788,1,2,0:0:0:0:
224,140,64132,2,0,P|185:116|139:113,2,92.0000017547608,2|0|8,0:0|0:0|0:0,0:0:0:0:
148,232,65167,1,2,0:0:0:0:
204,336,65512,6,0,L|304:324,1,92.0000017547608,2|2,0:0|0:0,0:0:0:0:
380,240,66201,2,0,L|288:229,1,92.0000017547608,8|2,0:0|0:0,0:0:0:0:
255,112,66891,2,0,P|203:182|116:173,1,184.000003509522,2|8,0:0|0:0,0:0:0:0:
56,72,67926,1,0,0:0:0:0:
39,232,68270,6,0,P|69:314|156:328,1,184.000003509522,2|8,0:0|0:0,0:0:0:0:
236,240,69305,1,2,0:0:0:0:
344,296,69650,2,0,P|389:300|432:287,2,92.0000017547608,2|0|8,0:0|0:0|0:0,0:0:0:0:
236,240,70684,1,2,0:0:0:0:
308,143,71029,6,0,P|391:111|472:150,1,184.000003509522,2|8,0:0|0:0,0:0:0:0:
224,72,72408,2,0,L|200:4,2,46.0000008773804,2|8|0,0:0|0:0|0:0,0:0:0:0:
308,144,73098,1,8,0:0:0:0:
75,144,73788,6,0,P|44:232|71:314,1,184.000003509522,4|8,0:0|0:0,0:0:0:0:
164,232,74822,1,2,0:0:0:0:
264,300,75167,2,0,P|328:320|432:256,1,184.000003509522,2|8,0:0|0:0,0:0:0:0:
428,148,76201,1,2,0:0:0:0:
319,196,76546,6,0,P|274:197|229:187,1,92.0000017547608,2|2,0:0|0:0,0:0:0:0:
196,72,77236,1,8,0:0:0:0:
112,156,77581,1,2,0:0:0:0:
328,92,77926,2,0,P|404:137|417:226,1,184.000003509522,2|8,0:0|0:0,0:0:0:0:
344,320,78960,1,0,0:0:0:0:
203,191,79305,6,0,P|114:187|50:249,1,184.000003509522,2|8,0:0|0:0,0:0:0:0:
156,304,80339,1,2,0:0:0:0:
204,192,80684,2,0,L|200:80,2,92.0000017547608,2|0|8,0:0|0:0|0:0,0:0:0:0:
296,268,81719,1,2,0:0:0:0:
404,220,82064,6,0,B|440:132|368:132|401:42,2,184.000003509522,2|2|2,0:0|0:0|0:0,0:0:0:0:
256,192,83615,12,0,85857,0:0:0:0:
