osu file format v14

[General]
AudioFilename: Stylips-Spica.mp3
AudioLeadIn: 0
PreviewTime: 61546
Countdown: 0
SampleSet: Soft
StackLeniency: 0.7
Mode: 0
LetterboxInBreaks: 0
WidescreenStoryboard: 1

[Editor]
Bookmarks: 46029
DistanceSpacing: 1.1
BeatDivisor: 4
GridSize: 4
TimelineZoom: 1

[Metadata]
Title:Spica. (TV-size)
TitleUnicode:Spica.(TV-size)
Artist:StylipS
ArtistUnicode:StylipS
Creator:Lanturn
Version:Normal-ka
Source:マンガ家さんとアシスタントさんと
Tags:ending Mangaka-san to Assistant-san to samplefish
BeatmapID:635711
BeatmapSetID:229760

[Difficulty]
HPDrainRate:3
CircleSize:3.5
OverallDifficulty:3
ApproachRate:4.5
SliderMultiplier:1.36999990463257
SliderTickRate:2

[Events]
//Background and Video events
Video,150,"Spica.avi"
0,0,"yellow girl.jpg",0,0
//Break Periods
//Storyboard Layer 0 (Background)
//Storyboard Layer 1 (Fail)
//Storyboard Layer 2 (Pass)
//Storyboard Layer 3 (Foreground)
//Storyboard Sound Samples

[TimingPoints]
2064,689.655172413793,4,2,1,25,1,0
6891,-100,4,2,1,20,0,0
7753,-100,4,2,1,30,0,0
18615,-100,4,2,1,40,0,0
40684,-100,4,2,1,45,0,0
62753,-100,4,2,1,40,0,1
62926,-100,4,2,1,50,0,1
73098,-100,4,2,1,50,0,0
73788,-100,4,2,1,40,0,1
73960,-100,4,2,1,50,0,1
83788,-100,4,2,1,5,0,1
85857,-100,4,2,1,5,0,0

[Colours]
Combo1 : 255,218,106
Combo2 : 117,175,255
Combo3 : 255,160,160
Combo4 : 59,59,255

[HitObjects]
344,68,2064,6,0,B|300:160|408:160|344:264,1,205.499985694886,4|0,0:3|0:0,0:0:0:0:
284,304,3443,1,2,0:0:0:0:
61,341,4477,6,0,L|61:253,1,68.4999952316285,0|2,0:0|0:0,0:0:0:0:
95,205,5167,2,0,L|95:161,2,34.2499976158143,2|0|2,0:0|0:0|0:0,0:0:0:0:
191,321,6201,1,2,0:0:0:0:
309,227,6891,2,0,P|351:235|394:254,1,68.4999952316285,2|2,0:3|0:3,0:0:0:0:
452,244,7581,6,0,P|504:152|448:80,1,205.499985694886,4|0,0:0|0:0,0:0:0:0:
376,88,8960,1,2,0:0:0:0:
376,88,9650,2,0,P|364:124|324:144,1,68.4999952316285,0|0,0:0|0:0,0:0:0:0:
300,76,10339,6,0,L|324:232,1,136.999990463257,2|0,0:0|0:0,0:0:0:0:
276,272,11374,1,0,0:0:0:0:
276,272,11719,1,0,0:0:0:0:
136,216,12408,2,0,L|56:216,1,68.4999952316285,0|0,0:0|0:0,0:0:0:0:
32,148,13098,5,2,0:0:0:0:
32,148,14132,1,0,0:0:0:0:
84,96,14477,1,2,0:0:0:0:
84,96,15512,1,0,0:0:0:0:
140,148,15857,6,0,P|157:214|128:288,2,136.999990463257,2|0|0,0:0|0:0|0:0,0:0:0:0:
252,48,17926,2,0,L|328:48,1,68.4999952316285,0|0,0:0|0:0,0:0:0:0:
368,108,18615,6,0,B|412:204|412:204|352:232|356:296,1,205.499985694886,4|0,0:3|0:0,0:0:0:0:
296,328,19995,2,0,B|240:256|240:256|208:316|128:304,1,205.499985694886,2|0,0:0|0:0,0:0:0:0:
84,264,21374,5,2,0:0:0:0:
16,128,22063,1,0,0:0:0:0:
84,264,22753,1,0,0:0:0:0:
168,140,23443,1,0,0:0:0:0:
168,140,24132,6,0,B|256:104|256:104|372:104,1,205.499985694886,2|0,0:0|0:0,0:0:0:0:
366,179,25512,2,0,B|278:215|278:215|162:215,1,205.499985694886,2|0,0:0|0:0,0:0:0:0:
164,292,26891,6,0,B|216:332|294:298|294:298|343:345|343:345|420:300,1,273.999980926514,2|0,0:0|0:0,0:0:0:0:
496,192,28960,1,0,0:0:0:0:
428,60,29650,5,2,0:0:0:0:
288,116,30339,2,0,L|228:196,1,68.4999952316285,0|0,0:0|0:0,0:0:0:0:
172,180,31029,1,2,0:0:0:0:
44,260,31719,1,0,0:0:0:0:
80,328,32063,1,0,0:0:0:0:
148,360,32408,6,0,B|180:364|212:344|212:344|256:352|280:332,1,136.999990463257,2|0,0:0|0:0,0:0:0:0:
332,280,33443,1,0,0:0:0:0:
332,280,33788,1,2,0:0:0:0:
396,144,34477,2,0,L|396:72,1,68.4999952316285
328,40,35167,6,0,B|272:80|272:80|279:122|266:156|231:176|184:176,1,205.499985694886,2|0,0:0|0:0,0:0:0:0:
200,100,36546,2,0,P|240:180|196:284,1,205.499985694886,2|0,0:0|0:0,0:0:0:0:
124,288,37926,5,2,0:0:0:0:
124,288,38615,1,0,0:0:0:0:
124,288,39305,1,0,0:0:0:0:
256,360,39995,2,0,L|332:360,1,68.4999952316285
392,324,40684,6,0,P|432:240|384:144,1,205.499985694886,2|0,0:0|0:0,0:0:0:0:
324,104,42064,2,0,P|240:144|144:96,1,205.499985694886,2|0,0:0|0:0,0:0:0:0:
92,44,43443,5,2,0:0:0:0:
24,180,44132,1,0,0:0:0:0:
96,312,44822,1,0,0:0:0:0:
248,316,45512,1,0,0:0:0:0:
248,316,45857,1,0,0:0:0:0:
248,316,46201,6,0,B|256:248|256:248|220:192|220:192|228:116,1,205.499985694886,2|0,0:0|0:0,0:0:0:0:
288,76,47581,2,0,P|380:32|460:88,1,205.499985694886,2|0,0:0|0:0,0:0:0:0:
436,156,48960,5,2,0:0:0:0:
356,284,49650,1,2,0:0:0:0:
212,324,50339,1,2,0:0:0:0:
64,292,51029,1,0,0:0:0:0:
60,140,51719,6,0,B|96:56|96:56|116:80|131:83,1,136.999990463257,2|0,0:0|0:0,0:0:0:0:
200,116,52753,1,0,0:0:0:0:
268,84,53098,2,0,B|283:80|303:56|303:56|339:140,1,136.999990463257,2|0,0:0|0:0,0:0:0:0:
272,276,54477,6,0,B|212:276|212:276|196:288|196:288|120:288,1,136.999990463257,2|0,0:0|0:0,0:0:0:0:
68,260,55512,1,0,0:0:0:0:
68,260,55857,1,2,0:0:0:0:
56,96,56546,2,0,L|140:64,1,68.4999952316285
173,125,57236,6,0,B|221:85|265:125|265:125|309:85|357:125,1,205.499985694886,2|0,0:0|0:0,0:0:0:0:
357,200,58615,2,0,B|309:240|265:200|265:200|221:240|173:200,1,205.499985694886,2|0,0:0|0:0,0:0:0:0:
116,148,59995,5,2,0:0:0:0:
412,148,61374,1,0,0:0:0:0:
412,148,62753,6,0,B|392:200|416:260|416:260|344:340,1,205.499985694886,4|0,0:0|0:0,0:0:0:0:
284,300,64132,2,0,P|172:236|100:280,1,205.499985694886,2|0,0:0|0:0,0:0:0:0:
44,236,65512,6,0,L|44:160,1,68.4999952316285,2|0,0:0|0:0,0:0:0:0:
97,114,66201,2,0,L|165:114,1,68.4999952316285,2|0,0:3|0:0,0:0:0:0:
218,60,66891,1,0,0:0:0:0:
218,60,68270,6,0,B|200:136|200:136|248:184|224:240|266:267,1,205.499985694886,2|0,0:0|0:0,0:0:0:0:
324,240,69649,2,0,P|256:188|168:256,1,205.499985694886,2|0,0:0|0:0,0:0:0:0:
112,300,71029,5,2,0:0:0:0:
256,344,71719,1,2,0:0:0:0:
400,300,72408,1,2,0:0:0:0:
400,300,73788,6,0,P|452:220|400:136,1,205.499985694886,4|0,0:0|0:0,0:0:0:0:
324,140,75167,2,0,P|272:220|324:304,1,205.499985694886,2|0,0:0|0:0,0:0:0:0:
284,368,76546,6,0,P|248:376|216:368,1,68.4999952316285,2|0,0:0|0:0,0:0:0:0:
160,320,77236,2,0,P|112:312|84:320,1,68.4999952316285,2|0,0:3|0:0,0:0:0:0:
28,352,77926,1,0,0:0:0:0:
28,352,79305,6,0,B|68:284|24:224|24:224|24:140,1,205.499985694886,2|0,0:0|0:0,0:0:0:0:
77,101,80684,2,0,P|173:61|265:101,1,205.499985694886,2|0,0:0|0:0,0:0:0:0:
304,160,82064,5,2,0:0:0:0:
270,306,82753,1,2,0:0:0:0:
160,202,83443,1,2,0:0:0:0:
256,192,83788,12,4,85857,0:3:0:0:
