osu file format v14

[General]
AudioFilename: Stylips-Spica.mp3
AudioLeadIn: 0
PreviewTime: 61546
Countdown: 0
SampleSet: Soft
StackLeniency: 0.7
Mode: 0
LetterboxInBreaks: 0
WidescreenStoryboard: 0

[Editor]
Bookmarks: 46029
DistanceSpacing: 1
BeatDivisor: 4
GridSize: 4
TimelineZoom: 1

[Metadata]
Title:Spica. (TV-size)
TitleUnicode:Spica.(TV-size)
Artist:StylipS
ArtistUnicode:StylipS
Creator:Lanturn
Version:Easy-ka
Source:マンガ家さんとアシスタントさんと
Tags:ending Mangaka-san to Assistant-san to samplefish
BeatmapID:534478
BeatmapSetID:229760

[Difficulty]
HPDrainRate:2
CircleSize:3
OverallDifficulty:2
ApproachRate:3
SliderMultiplier:1
SliderTickRate:2

[Events]
//Background and Video events
Video,150,"Spica.avi"
0,0,"yellow girl.jpg",0,0
//Break Periods
//Storyboard Layer 0 (Background)
//Storyboard Layer 1 (Fail)
//Storyboard Layer 2 (Pass)
//Storyboard Layer 3 (Foreground)
//Storyboard Sound Samples

[TimingPoints]
2064,689.655172413793,4,2,1,25,1,0
7581,-100,4,2,1,20,0,0
7753,-100,4,2,1,30,0,0
18615,-100,4,2,1,40,0,0
40684,-100,4,2,1,45,0,0
62753,-100,4,2,1,40,0,1
62926,-100,4,2,1,50,0,1
73098,-100,4,2,1,50,0,0
73788,-100,4,2,1,40,0,1
73960,-100,4,2,1,50,0,1
83443,-100,4,2,1,5,0,1
85857,-100,4,2,1,5,0,0

[Colours]
Combo1 : 255,218,106
Combo2 : 117,175,255
Combo3 : 255,160,160
Combo4 : 59,59,255

[HitObjects]
368,44,2064,6,0,B|333:116|333:116|378:162|360:228,1,200,4|2,0:3|0:0,0:0:0:0:
264,192,4132,1,0,0:0:0:0:
172,232,4822,2,0,P|116:232|68:192,2,100,2|0|2,0:0|0:0|0:0,0:0:0:0:
344,124,7581,6,0,B|344:228|344:228|412:300,1,200,4|2,0:0|0:0,0:0:0:0:
316,336,9650,1,0,0:0:0:0:
244,268,10339,2,0,P|192:256|148:268,1,100,2|0,0:0|0:0,0:0:0:0:
68,328,11719,1,0,0:0:0:0:
128,136,13098,6,0,B|172:120|204:72|204:72|236:120|280:136,2,200,2|2|2,0:0|0:0|0:0,0:0:0:0:
128,136,17236,1,0,0:0:0:0:
128,136,18615,6,0,L|128:244,1,100,4|0,0:3|0:0,0:0:0:0:
196,312,19995,2,0,P|224:272|224:212,1,100,2|0,0:0|0:0,0:0:0:0:
320,184,21374,2,0,P|328:288|284:372,1,200,2|0,0:0|0:0,0:0:0:0:
424,228,24132,6,0,P|432:176|420:128,1,100,2|0,0:0|0:0,0:0:0:0:
336,180,25512,2,0,P|304:137|262:112,1,100,2|0,0:0|0:0,0:0:0:0:
240,212,26891,2,0,B|176:288|140:216|56:308,1,200,2|0,0:0|0:0,0:0:0:0:
160,124,29650,5,2,0:0:0:0:
256,152,30339,1,0,0:0:0:0:
352,124,31029,1,2,0:0:0:0:
352,324,32408,5,2,0:0:0:0:
256,296,33097,1,0,0:0:0:0:
160,324,33787,1,2,0:0:0:0:
160,324,35167,6,0,B|124:236|204:224|164:124,2,200,2|2|2,0:0|0:0|0:0,0:0:0:0:
248,280,38615,1,0,0:0:0:0:
316,208,39305,1,0,0:0:0:0:
188,60,40684,6,0,P|152:96|144:160,1,100,2|0,0:0|0:0,0:0:0:0:
172,240,42063,1,2,0:0:0:0:
255,295,42753,1,0,0:0:0:0:
264,196,43443,2,0,B|332:140|332:140|336:64|400:40,1,200,2|0,0:0|0:0,0:0:0:0:
444,240,46201,6,0,B|368:316,1,100,2|0,0:0|0:0,0:0:0:0:
276,340,47581,1,2,0:0:0:0:
241,246,48270,1,0,0:0:0:0:
164,310,48960,2,0,B|103:343|103:343|22:310|41:232,1,200,2|0,0:0|0:0,0:0:0:0:
172,92,51719,6,0,P|128:56|72:60,2,100,2|0|2,0:0|0:0|0:0,0:0:0:0:
256,148,53788,1,0,0:0:0:0:
340,92,54477,2,0,P|384:56|440:60,2,100,2|0|2,0:0|0:0|0:0,0:0:0:0:
192,224,57236,6,0,B|192:280|192:280|212:340,1,100,2|0,0:0|0:0,0:0:0:0:
307,321,58615,2,0,B|320:279|320:279|320:223,1,100,2|0,0:0|0:0,0:0:0:0:
256,148,59995,2,0,B|200:80|200:80|256:100|312:80,1,200,2|0,0:0|0:0,0:0:0:0:
156,212,62753,6,0,L|92:136,2,100,4|2|2,0:0|0:3|0:0,0:0:0:0:
226,282,64822,1,2,0:3:0:0:
312,228,65512,2,0,P|407:258|380:344,1,200,2|0,0:0|0:0,0:0:0:0:
188,332,68270,6,0,B|160:228,1,100,2|2,0:0|0:3,0:0:0:0:
64,216,69650,2,0,B|92:320,1,100,2|2,0:0|0:3,0:0:0:0:
188,332,71029,1,2,0:0:0:0:
284,300,71719,1,2,0:3:0:0:
348,220,72408,1,0,0:0:0:0:
348,220,73788,6,0,P|364:176|352:124,1,100,4|2,0:0|0:3,0:0:0:0:
268,76,75167,2,0,P|252:120|264:172,1,100,2|2,0:0|0:3,0:0:0:0:
348,220,76546,1,2,0:0:0:0:
396,132,77236,1,2,0:3:0:0:
368,36,77926,1,0,0:0:0:0:
192,128,79305,6,0,B|176:188|176:188|192:256|192:256|172:324,2,200,2|2|2,0:0|0:0|0:0,0:0:0:0:
256,48,82753,1,2,0:0:0:0:
256,192,83443,12,4,85857,0:3:0:0:
