osu file format v14

[General]
AudioFilename: Stylips-Spica.mp3
AudioLeadIn: 0
PreviewTime: 61546
Countdown: 0
SampleSet: Soft
StackLeniency: 0.7
Mode: 0
LetterboxInBreaks: 0
WidescreenStoryboard: 0

[Editor]
Bookmarks: 46029
DistanceSpacing: 1
BeatDivisor: 4
GridSize: 4
TimelineZoom: 1

[Metadata]
Title:Spica. (TV-size)
TitleUnicode:Spica.(TV-size)
Artist:StylipS
ArtistUnicode:StylipS
Creator:Lanturn
Version:Ba-ka
Source:マンガ家さんとアシスタントさんと
Tags:ending Mangaka-san to Assistant-san to samplefish
BeatmapID:534477
BeatmapSetID:229760

[Difficulty]
HPDrainRate:5.5
CircleSize:5
OverallDifficulty:5.5
ApproachRate:7
SliderMultiplier:1.79999990463257
SliderTickRate:2

[Events]
//Background and Video events
Video,150,"Spica.avi"
0,0,"yellow girl.jpg",0,0
//Break Periods
//Storyboard Layer 0 (Background)
//Storyboard Layer 1 (Fail)
//Storyboard Layer 2 (Pass)
//Storyboard Layer 3 (Foreground)
//Storyboard Sound Samples

[TimingPoints]
2064,689.655172413793,4,2,1,25,1,0
6891,-100,4,2,1,20,0,0
7236,-100,4,2,1,30,0,0
7581,-100,4,2,1,20,0,0
7753,-100,4,2,1,30,0,0
18615,-100,4,2,1,40,0,0
40684,-100,4,2,1,45,0,0
62753,-100,4,2,1,40,0,1
62926,-100,4,2,1,50,0,1
73098,-100,4,2,1,50,0,0
73443,-100,4,2,1,30,0,0
73788,-100,4,2,1,40,0,1
73960,-100,4,2,1,50,0,1
83788,-100,4,2,1,5,0,1
85857,-100,4,2,1,5,0,0

[Colours]
Combo1 : 255,218,106
Combo2 : 117,175,255
Combo3 : 255,160,160
Combo4 : 59,59,255

[HitObjects]
208,60,2064,6,0,B|156:120|156:120|191:169|160:228,1,179.999990463257,4|0,0:3|0:0,0:0:0:0:
84,176,3098,1,0,0:0:0:0:
236,128,3443,2,0,P|280:116|323:128,2,89.9999952316285,2|0|0,0:0|0:0|0:0,0:0:0:0:
280,212,4477,1,0,0:0:0:0:
364,248,4822,5,2,0:0:0:0:
352,160,5167,2,0,L|372:116,2,44.9999976158143,2|0|2,0:0|0:0|0:0,0:0:0:0:
280,212,5857,1,0,0:0:0:0:
196,176,6201,2,0,P|148:167|109:180,1,89.9999952316285,2|0,0:0|0:0,0:0:0:0:
156,260,6891,2,0,P|140:304|147:345,1,89.9999952316285,2|0,0:3|0:0,0:0:0:0:
228,312,7581,6,0,P|308:276|388:312,1,179.999990463257,4|0,0:0|0:0,0:0:0:0:
472,276,8615,1,0,0:0:0:0:
408,104,8960,2,0,B|360:68|360:68|232:68,1,179.999990463257,2|0,0:0|0:0,0:0:0:0:
180,136,9995,1,0,0:0:0:0:
216,220,10339,5,2,0:0:0:0:
235,30,11029,1,0,0:0:0:0:
157,119,11374,1,0,0:0:0:0:
204,228,11719,1,0,0:0:0:0:
356,128,12408,1,0,0:0:0:0:
420,192,12753,1,0,0:0:0:0:
444,104,13098,6,0,P|384:41|298:54,1,179.999990463257,2|0,0:0|0:0,0:0:0:0:
299,54,14132,1,0,0:0:0:0:
159,171,14477,2,0,P|218:235|304:221,1,179.999990463257,2|0,0:0|0:0,0:0:0:0:
249,147,15512,1,0,0:0:0:0:
88,208,15857,6,0,P|128:280|220:316,1,179.999990463257,2|0,0:0|0:0,0:0:0:0:
300,280,16891,1,0,0:0:0:0:
300,280,17236,1,0,0:0:0:0:
68,128,17926,1,0,0:0:0:0:
68,128,18270,1,0,0:0:0:0:
68,128,18615,6,0,B|80:172|55:238|55:238|129:299,1,179.999990463257,4|0,0:3|0:0,0:0:0:0:
189,244,19650,1,0,0:0:0:0:
265,291,19995,2,0,P|350:236|432:276,1,179.999990463257,2|0,0:0|0:0,0:0:0:0:
352,329,21029,1,0,0:0:0:0:
188,243,21374,6,0,P|103:298|21:258,2,179.999990463257,2|0|0,0:0|0:0|0:0,0:0:0:0:
188,243,23443,2,0,P|223:272|267:278,1,89.9999952316285
267,278,24132,6,0,P|350:248|436:267,1,179.999990463257,2|0,0:0|0:0,0:0:0:0:
437,268,25167,1,0,0:0:0:0:
437,268,25512,2,0,P|474:207|443:97,1,179.999990463257,2|0,0:0|0:0,0:0:0:0:
369,66,26546,1,0,0:0:0:0:
261,115,26891,5,2,0:0:0:0:
296,256,27236,1,0,0:0:0:0:
185,163,27581,1,0,0:0:0:0:
330,173,27926,1,0,0:0:0:0:
206,250,28270,1,0,0:0:0:0:
47,335,28960,1,0,0:0:0:0:
110,271,29305,1,0,0:0:0:0:
173,334,29650,6,0,P|259:332|307:241,1,179.999990463257,2|0,0:0|0:0,0:0:0:0:
215,250,30684,1,0,0:0:0:0:
186,356,31029,2,0,P|272:354|320:263,1,179.999990463257,2|0,0:0|0:0,0:0:0:0:
228,272,32063,1,0,0:0:0:0:
164,208,32408,5,2,0:0:0:0:
164,208,33098,1,0,0:0:0:0:
227,144,33443,1,0,0:0:0:0:
163,80,33788,1,2,0:0:0:0:
163,80,34477,1,0,0:0:0:0:
226,16,34822,1,0,0:0:0:0:
289,79,35167,6,0,B|328:160|328:160|328:256,1,179.999990463257,2|0,0:0|0:0,0:0:0:0:
256,200,36201,1,0,0:0:0:0:
312,68,36546,2,0,B|351:149|351:149|351:245,1,179.999990463257,2|0,0:0|0:0,0:0:0:0:
279,189,37581,1,0,0:0:0:0:
336,52,37926,6,0,B|375:133|375:133|375:229,1,179.999990463257,2|0,0:0|0:0,0:0:0:0:
311,286,38960,1,0,0:0:0:0:
247,222,39305,1,0,0:0:0:0:
247,222,39995,1,0,0:0:0:0:
183,285,40339,1,0,0:0:0:0:
119,221,40684,6,0,P|88:144|138:60,1,179.999990463257,2|0,0:0|0:0,0:0:0:0:
188,148,41719,1,0,0:0:0:0:
257,74,42064,2,0,P|288:151|238:235,1,179.999990463257,2|0,0:0|0:0,0:0:0:0:
319,281,43098,1,0,0:0:0:0:
385,220,43443,5,2,0:0:0:0:
385,220,44132,2,0,L|384:128,1,89.9999952316285
308,180,44822,2,0,L|240:112,1,89.9999952316285
228,204,45512,1,0,0:0:0:0:
292,268,45857,1,0,0:0:0:0:
308,180,46201,6,0,P|344:112|448:88,1,179.999990463257,2|0,0:0|0:0,0:0:0:0:
502,149,47236,1,0,0:0:0:0:
491,253,47581,2,0,P|455:321|351:345,1,179.999990463257,2|0,0:0|0:0,0:0:0:0:
296,283,48615,1,0,0:0:0:0:
218,109,48960,5,2,0:0:0:0:
218,109,49650,1,2,0:0:0:0:
278,197,49995,1,0,0:0:0:0:
158,197,50339,1,2,0:0:0:0:
113,99,50684,1,0,0:0:0:0:
278,197,51029,2,0,P|270:245|242:285,1,89.9999952316285
152,288,51719,6,0,P|79:214|83:142,1,179.999990463257,2|0,0:0|0:0,0:0:0:0:
121,52,52753,1,0,0:0:0:0:
216,80,53098,2,0,P|282:136|285:224,1,179.999990463257,2|0,0:0|0:0,0:0:0:0:
196,208,54132,1,0,0:0:0:0:
196,208,54477,6,0,P|252:141|340:138,1,179.999990463257,2|0,0:0|0:0,0:0:0:0:
431,174,55512,1,0,0:0:0:0:
467,265,55857,1,2,0:0:0:0:
467,265,56546,1,0,0:0:0:0:
403,328,56891,1,0,0:0:0:0:
316,312,57236,6,0,B|232:332|232:264|144:288,1,179.999990463257,2|0,0:0|0:0,0:0:0:0:
180,360,58270,1,0,0:0:0:0:
336,292,58615,6,0,B|252:312|252:244|164:268,1,179.999990463257,2|0,0:0|0:0,0:0:0:0:
200,340,59650,1,0,0:0:0:0:
360,272,59995,5,2,0:0:0:0:
256,192,60339,1,0,0:0:0:0:
152,272,60684,1,0,0:0:0:0:
340,256,61029,1,0,0:0:0:0:
172,256,61374,1,0,0:0:0:0:
256,168,61719,2,0,L|256:76,2,89.9999952316285,0|0|0,0:0|0:0|0:0,0:0:0:0:
320,232,62753,6,0,P|256:284|192:231,1,179.999990463257,4|2,0:0|0:3,0:0:0:0:
256,168,63788,1,0,0:0:0:0:
320,104,64132,2,0,P|256:51|192:104,1,179.999990463257,2|2,0:0|0:3,0:0:0:0:
256,168,65167,1,0,0:0:0:0:
320,232,65512,6,0,P|360:256|368:304,1,89.9999952316285,2|0,0:0|0:0,0:0:0:0:
192,232,66201,2,0,P|152:256|144:304,1,89.9999952316285,2|0,0:3|0:0,0:0:0:0:
320,104,66891,2,0,B|280:92|256:44|256:44|232:92|192:104,1,179.999990463257,0|2,0:0|0:3,0:0:0:0:
176,332,68270,6,0,P|112:276|144:192,1,179.999990463257,2|2,0:0|0:3,0:0:0:0:
256,128,69305,1,0,0:0:0:0:
372,195,69650,2,0,P|399:276|336:332,1,179.999990463257,2|2,0:0|0:3,0:0:0:0:
256,284,70684,1,0,0:0:0:0:
256,220,71029,5,2,0:0:0:0:
408,80,71719,1,2,0:0:0:0:
104,80,72408,1,2,0:0:0:0:
256,220,73098,1,2,0:3:0:0:
256,291,73443,1,2,0:3:0:0:
256,304,73615,1,2,0:3:0:0:
256,317,73788,6,0,P|328:304|352:208,1,179.999990463257,4|2,0:0|0:3,0:0:0:0:
256,112,74822,1,0,0:0:0:0:
158,210,75167,2,0,P|173:294|256:317,1,179.999990463257,2|2,0:0|0:3,0:0:0:0:
256,192,76201,1,0,0:0:0:0:
184,48,76546,6,0,P|172:92|132:128,1,89.9999952316285,2|0,0:0|0:0,0:0:0:0:
328,48,77236,2,0,P|340:92|380:128,1,89.9999952316285,2|0,0:3|0:0,0:0:0:0:
188,256,77926,2,0,B|208:220|256:200|256:200|304:220|324:256,1,179.999990463257,0|2,0:0|0:3,0:0:0:0:
184,328,79305,6,0,B|96:328|96:328|76:284|28:271,1,179.999990463257,2|2,0:0|0:3,0:0:0:0:
116,192,80339,1,0,0:0:0:0:
28,113,80684,2,0,B|76:100|96:56|96:56|184:56,1,179.999990463257,2|2,0:0|0:3,0:0:0:0:
256,192,81719,1,0,0:0:0:0:
388,192,82063,5,2,0:0:0:0:
156,324,82753,1,2,0:0:0:0:
156,60,83443,1,2,0:0:0:0:
256,192,83788,12,4,85857,0:3:0:0:
