osu file format v9

[General]
AudioFilename: STUDYxSTUDY.mp3
AudioLeadIn: 1500
PreviewTime: 55315
Countdown: 0
SampleSet: Normal
StackLeniency: 0.7
Mode: 0
LetterboxInBreaks: 0

[Editor]
DistanceSpacing: 1.5
BeatDivisor: 4
GridSize: 4

[Metadata]
Title:STUDYxSTUDY (TV Size)
Artist:StylipS
Creator:xsrsbsns
Version:cRyo
Source:High School DxD
Tags:study cRyo[iceeicee] merchat7 wmfchris Noto Arisa Ogura Yui Ishihara Kaori Matsunaga Maho ending ed

[Difficulty]
HPDrainRate:6
CircleSize:4
OverallDifficulty:6
ApproachRate:7
SliderMultiplier:1.5
SliderTickRate:2

[Events]
//Background and Video events
0,0,"bg.jpg"
Video,-350,"vid.avi"
//Break Periods
//Storyboard Layer 0 (Background)
//Storyboard Layer 1 (Fail)
//Storyboard Layer 2 (Pass)
//Storyboard Layer 3 (Foreground)
//Storyboard Sound Samples
//Background Colour Transformations
3,100,163,162,255

[TimingPoints]
256,352.941176470588,4,1,0,45,1,0
4946,-100,4,2,0,60,0,0
5123,-100,4,1,0,60,0,0
5299,-100,4,2,0,60,0,0
5829,-100,4,1,0,35,0,0
6344,-100,4,1,0,40,0,0
7050,-100,4,1,0,45,0,0
18344,-133.333333333333,4,1,0,30,0,0
18609,-133.333333333333,4,2,0,40,0,0
18873,-133.333333333333,4,1,0,40,0,0
19050,-133.333333333333,4,2,0,40,0,0
19226,-133.333333333333,4,1,0,40,0,0
19403,-133.333333333333,4,2,0,40,0,0
19579,-133.333333333333,4,1,0,40,0,0
19756,-133.333333333333,4,2,0,40,0,0
19946,-133.333333333333,4,1,0,40,0,0
20109,-133.333333333333,4,2,0,40,0,0
20285,-133.333333333333,4,1,0,40,0,0
20462,-133.333333333333,4,2,0,45,0,0
20652,-133.333333333333,4,1,0,40,0,0
20815,-133.333333333333,4,2,0,50,0,0
20991,-133.333333333333,4,1,0,40,0,0
21167,-133.333333333333,4,2,0,55,0,0
21358,-133.333333333333,4,1,2,45,0,0
21520,-100,4,1,0,45,0,0
21697,-100,4,1,0,50,0,0
22064,-100,4,1,0,60,0,0
23903,-133.333333333333,4,1,0,60,0,0
24256,-133.333333333333,4,2,0,50,0,0
24520,-133.333333333333,4,1,0,40,0,0
24697,-133.333333333333,4,2,0,40,0,0
24873,-133.333333333333,4,1,0,40,0,0
25050,-133.333333333333,4,2,0,40,0,0
25226,-133.333333333333,4,1,0,40,0,0
25403,-133.333333333333,4,2,0,40,0,0
26299,-133.333333333333,4,2,0,35,0,0
26638,-133.333333333333,4,1,0,55,0,0
26815,-133.333333333333,4,1,0,30,0,0
27005,-133.333333333333,4,1,0,35,0,0
27358,-100,4,1,0,40,0,0
27520,-100,4,1,0,45,0,0
27711,-100,4,1,0,50,0,0
27873,-100,4,1,0,55,0,0
28050,-100,4,1,0,65,0,0
28226,-100,4,1,0,55,0,0
29211,-100,4,1,0,50,0,0
41123,-133.333333333333,4,1,0,50,0,0
41373,-133.333333333333,4,2,0,60,0,0
41638,-133.333333333333,4,1,0,60,0,0
42079,-133.333333333333,4,2,0,60,0,0
42344,-133.333333333333,4,1,0,40,0,0
43226,-133.333333333333,4,1,0,50,0,0
43579,-133.333333333333,4,2,0,60,0,0
43932,-133.333333333333,4,1,0,50,0,0
44197,-133.333333333333,4,2,0,65,0,0
44462,-133.333333333333,4,1,0,50,0,0
44903,-133.333333333333,4,2,0,70,0,0
45167,-133.333333333333,4,1,0,50,0,0
45799,-100,4,1,0,50,0,0
55315,-100,4,1,0,50,0,1
60697,-100,4,1,2,50,0,1
61050,-100,4,1,0,50,0,1
62109,-100,4,1,2,50,0,1
62462,-100,4,1,0,50,0,1
63520,-100,4,1,2,50,0,1
63873,-100,4,1,0,50,0,1
65123,-80,4,1,0,50,0,1
65476,-66.6666666666667,4,1,0,50,0,1
65829,-57.1428571428571,4,1,0,50,0,1
66181,-50,4,1,0,50,0,1
66534,-100,4,1,0,50,0,0
66608,-100,4,1,0,50,0,1
77903,-100,4,1,0,50,0,0
78079,-100,4,1,2,50,0,0
79315,-100,4,1,0,50,0,0
81256,-100,4,1,2,50,0,0
81609,-100,4,1,0,50,0,0
84167,-100,4,1,2,50,0,0
84344,-100,4,1,0,50,0,0

[Colours]
Combo1 : 255,128,255
Combo2 : 128,255,255
Combo3 : 255,255,128
Combo4 : 128,255,128

[HitObjects]
140,108,256,2,0,B|184:68,3,37.5
198,62,609,2,0,B|236:60,3,37.5,0|0|0|0
276,60,962,2,0,B|313:62,3,37.5
344,82,1315,2,0,B|372:108,4,37.5,0|0|0|0|4
256,192,3079,5,4
256,192,4314,5,4
256,192,4667,2,0,B|224:220|216:264,2,75,0|0|2
372,160,5197,2,0,B|433:101|410:23,2,150,0|2|0
440,220,6079,6,0,B|437:260|422:292,1,75,2|0
372,160,6432,1,0
372,160,6609,2,0,B|332:156|288:136,2,75,2|0|0
304,252,7138,5,0
304,252,7226,1,0
304,252,7315,2,0,B|276:280|220:292,1,75,6|0
156,252,7667,2,0,B|118:259|90:287,1,75,10|0
40,212,8020,5,2
60,124,8197,1,0
132,72,8373,1,10
220,80,8550,2,0,B|298:103|356:42,1,150,2|0
444,56,9079,2,0,B|484:136,1,75,10|0
400,172,9432,2,0,B|440:252,2,75,2|0|8
296,280,9962,6,0,B|238:340|159:317,1,150,2|2
76,284,10491,1,8
92,196,10667,2,0,B|64:168|0:140,2,75,2|2|0
172,156,11197,1,8
172,156,11373,2,0,B|229:95|308:118,1,150,2|2
368,184,11903,2,0,B|400:204|468:208,2,75,10|0|2
224,240,12432,5,0
184,312,12609,1,10
104,288,12785,2,0,B|43:230|66:151,1,150,2|0
128,56,13315,5,10
128,56,13491,2,0,B|188:113|165:192,1,150,2|0
256,260,14020,5,10
256,260,14197,2,0,B|313:199|392:222,1,150,2|0
476,192,14726,5,10
448,104,14903,1,0
372,52,15079,2,0,B|332:52|280:32,2,75,2|0|8
380,192,15609,6,0,B|322:252|243:229,1,150,6|0
132,192,16138,2,0,B|189:131|268:154,1,150,10|0
344,108,16667,1,2
380,192,16844,1,8
332,268,17020,2,0,B|304:296|240:304,1,75,6|0
180,268,17373,5,2
132,192,17550,1,8
168,108,17726,1,2
168,108,18079,1,2
416,228,18432,6,0,B|372:272|296:264,1,112.499996647239,4|2
232,296,18962,2,0,B|182:323,1,56.2499983236194,0|0
160,244,19315,2,0,B|96:264,1,56.2499983236194
112,176,19667,2,0,B|40:176,1,56.2499983236194,0|0
40,92,20020,1,0
40,92,20197,1,2
112,48,20373,1,0
112,48,20550,1,2
180,96,20726,5,0
256,136,20903,1,2
332,96,21079,1,0
416,116,21256,2,0,B|432:144|448:180,1,56.2499983236194,0|2
376,284,21609,6,0,B|302:296,1,75,0|0
168,232,21962,2,0,B|242:219,1,75
376,128,22315,2,0,B|302:141,1,75
136,100,22667,6,0,B|193:39|272:62,1,150,6|0
376,284,23373,2,0,B|318:344|239:321,1,150,6|0
136,100,24079,6,0,B|132:160|192:220,1,112.499996647239,4|2
256,232,24609,2,0,B|232:292,1,56.2499983236194,0|2
152,284,24962,2,0,B|128:344,2,56.2499983236194,0|2|0
256,232,25491,2,0,B|296:216|324:248|372:232,2,112.499996647239,2|0|2
104,120,26550,5,2
24,100,26726,1,0
44,184,26903,2,0,B|32:244|72:312,1,112.499996647239
172,278,27432,6,0,B|200:302|252:306,1,75
373,265,27785,2,0,B|345:241|304:238,1,75,0|0
188,136,28138,2,0,B|215:159|256:162,1,75,0|2
392,56,28667,5,2
392,56,28844,1,0
392,56,29020,2,0,B|313:32|255:93,1,150,6|0
168,68,29550,1,0
64,176,29726,6,0,B|121:236|200:213,1,150,4|0
284,176,30256,2,0,B|320:188|352:240,1,75,8|0
420,268,30609,1,0
480,200,30785,1,0
444,116,30962,6,0,B|419:81|365:55,1,75,8|0
354,152,31315,2,0,B|318:176|284:176,1,75
195,151,31667,2,0,B|161:151|125:175,2,75,8|0|0
220,64,32197,1,0
132,72,32373,1,8
56,120,32550,1,0
192,216,32903,6,0,B|152:224|92:260,1,75,0|8
256,256,33256,2,0,B|256:352,1,75,0|0
320,216,33609,2,0,B|360:224|420:260,1,75,0|8
412,140,33962,6,0,B|355:80|276:103,1,150,6|0
100,140,34491,1,8
100,140,34668,2,0,B|157:200|236:177,1,150,6|0
320,216,35197,1,8
404,248,35373,6,0,B|432:268|456:316,2,75,4|0|0
464,180,35903,1,8
412,108,36079,1,0
324,124,36256,2,0,B|288:140|236:144,1,75
124,136,36609,5,8
104,224,36785,1,0
188,260,36962,2,0,B|224:244|276:240,1,75
391,288,37315,2,0,B|356:303|319:305,1,75,8|0
424,192,37668,5,0
428,96,37844,2,0,B|456:68,2,37.5,0|0|8
328,100,38197,2,0,B|257:56|187:99,2,150,2|0|2
328,284,39256,5,0
328,284,39609,2,0,B|271:344|192:321,1,150,2|0
104,296,40138,1,0
88,208,40315,5,0
88,208,40403,1,0
88,208,40491,2,0,B|64:176|56:136,1,75,4|0
148,140,40844,2,0,B|168:108|176:64,1,75
320,80,41197,6,0,B|376:80|432:120,1,112.499996647239,4|2
464,192,41726,1,0
425,268,41903,2,0,B|376:304|320:304,1,112.499996647239,0|2
312,192,42432,2,0,B|264:204|248:180|200:192,2,112.499996647239,0|0|0
312,192,43315,1,0
112,76,43844,5,2
112,76,44020,2,0,B|168:92|240:60,1,112.499996647239,0|2
400,112,44550,1,0
400,112,44726,2,0,B|345:136|289:120,1,112.499996647239,0|2
110,196,45256,2,0,B|165:212|220:188,2,112.499996647239
36,144,46138,5,0
88,72,46315,1,0
176,52,46491,1,0
256,96,46668,2,0,B|335:119|392:59,1,150,4|0
472,136,47197,6,0,B|448:232,1,75,8|0
364,204,47550,2,0,B|340:300,1,75
280,336,47903,1,8
280,336,48079,2,0,B|222:275|143:299,1,150
92,180,48609,2,0,B|149:240|228:216,1,150,8|0
408,88,49315,2,0,B|350:27|271:51,1,150,8|4
436,108,51079,5,0
416,252,51785,1,0
76,108,52491,5,0
76,108,52844,1,0
225,142,53197,5,0
306,161,53373,1,0
287,242,53550,1,0
206,223,53726,1,2
256,192,53903,12,0,54962
300,124,55315,6,0,B|357:184|436:160,2,150,6|8|2
220,80,56197,2,0,B|184:80|144:96,1,75,0|8
116,180,56550,2,0,B|195:155|252:215,1,150,2|0
372,292,57079,6,0,B|404:272|436:224,1,75,10|0
340,208,57432,2,0,B|359:176|364:137,1,75,2|2
276,144,57785,2,0,B|280:104|268:68,1,75,8|0
116,64,58138,6,0,B|79:139|129:204,2,150,6|8|2
184,128,59020,1,0
276,144,59197,1,8
348,88,59373,2,0,B|405:148|484:124,1,150,2|0
484,216,59903,5,10
412,268,60079,1,0
328,236,60256,2,0,B|288:240|252:268,2,75,2|2|8
368,156,60785,2,0,B|352:104,2,37.5,0|0|6
256,52,61138,5,2
256,52,61315,1,8
168,68,61491,1,2
168,68,61668,2,0,B|136:48|84:44,2,75,0|2|8
120,144,62197,2,0,B|72:144,2,37.5,0|0|6
256,208,62550,5,2
256,208,62726,1,8
180,256,62903,1,2
180,256,63079,2,0,B|144:264|76:240,2,75,0|2|8
256,308,63609,2,0,B|256:344,2,37.5,0|0|6
400,260,63962,6,0,B|440:261|471:241,2,75,2|8|0
420,172,64491,2,0,B|456:152|487:104,2,75,2|0|10
336,144,65020,1,0
256,192,65197,6,0,B|264:231|289:238|304:301,1,93.7499986030162,2|0
256,192,65550,6,0,B|259:233|220:262|232:301,1,112.499996647239,2|0
256,192,65903,6,0,B|207:220|208:258|159:282,1,131.249994132668,2|0
256,192,66256,6,0,B|193:190|170:233|111:228,1,150,2|0
112,87,66609,6,0,B|68:157|112:227,1,150,6|8
148,312,67138,1,0
148,312,67315,2,0,B|205:252|284:276,1,150,2|8
312,192,67844,6,0,B|391:216|448:156,1,150,2|0
440,68,68373,1,10
348,64,68550,1,0
268,104,68726,2,0,B|232:84|180:84,2,75,2|0|8
320,256,69432,6,0,B|377:316|456:292,2,150,2|8|2
256,192,70315,1,0
176,152,70491,1,8
256,108,70668,6,0,B|313:48|392:72,1,150,6|2
256,192,71197,1,8
256,192,71373,2,0,B|199:252|120:228,1,150,6|2
176,152,71903,2,0,B|172:120|156:104|152:72,2,75,8|2|4
320,112,72432,5,2
256,48,72609,1,8
320,112,72785,1,2
360,32,72962,1,0
320,112,73138,2,0,B|380:169|356:248,1,150,2|2
256,304,73668,1,0
152,348,73844,5,2
152,348,74020,1,0
164,236,74197,1,2
164,236,74373,2,0,B|144:200|148:156,2,75,2|2|0
188,88,74903,6,0,B|258:44|328:88,1,150,6|2
329,295,75609,2,0,B|258:339|188:296,1,150,6|2
256,140,76315,6,0,B|199:79|119:102,1,150,6|2
256,244,77020,2,0,B|312:304|392:281,1,150,6|2
464,228,77550,1,2
416,152,77726,1,0
460,72,77903,1,6
216,124,78256,6,0,B|136:147|79:86,2,150,8|2|8
288,72,79138,2,0,B|367:48|424:109,1,150,0|2
460,192,79668,6,0,B|464:228|452:268,1,75,8|0
372,228,80020,2,0,B|364:264|340:300,1,75,2|0
256,324,80373,1,8
180,276,80550,2,0,B|100:252|43:313,1,150,2|0
52,164,81079,6,0,B|131:187|192:128,2,150,8|2|8
108,92,81962,2,0,B|165:31|244:54,1,150,0|2
300,124,82491,6,0,B|336:144|396:148,1,75,8|0
444,200,82844,1,2
424,288,83020,1,0
336,304,83197,1,8
256,264,83373,2,0,B|176:287|119:226,1,150,2|0
68,88,83903,6,0,B|108:88|148:108,1,75,8|0
224,72,84256,2,0,B|256:88|296:88,2,75,2|0|8
140,104,84785,2,0,B|79:161|102:240,1,150,0|2
192,252,85315,6,0,B|216:280|224:324,1,75,8|0
296,268,85668,2,0,B|353:328|432:305,2,150,2|8|0
256,60,86726,5,2
256,324,87079,1,2
256,192,87432,5,2
256,192,87609,1,6
256,192,87785,12,4,88668
