osu file format v9

[General]
AudioFilename: STUDYxSTUDY.mp3
AudioLeadIn: 1500
PreviewTime: 55315
Countdown: 0
SampleSet: Normal
StackLeniency: 0.7
Mode: 0
LetterboxInBreaks: 0

[Editor]
DistanceSpacing: 1.1
BeatDivisor: 4
GridSize: 4

[Metadata]
Title:STUDYxSTUDY (TV Size)
Artist:StylipS
Creator:xsrsbsns
Version:Insane
Source:High School DxD
Tags:study cRyo[iceeicee] merchat7 wmfchris Noto Arisa Ogura Yui Ishihara Kaori Matsunaga Maho ending ed

[Difficulty]
HPDrainRate:6
CircleSize:4
OverallDifficulty:8
ApproachRate:9
SliderMultiplier:1.92
SliderTickRate:2

[Events]
//Background and Video events
0,0,"bg.jpg"
Video,-350,"vid.avi"
//Break Periods
//Storyboard Layer 0 (Background)
//Storyboard Layer 1 (Fail)
//Storyboard Layer 2 (Pass)
//Storyboard Layer 3 (Foreground)
//Storyboard Sound Samples
//Background Colour Transformations
3,100,163,162,255

[TimingPoints]
256,352.941176470588,4,1,0,45,1,0
1668,-100,4,1,0,60,0,0
4932,-100,4,2,0,60,0,0
5108,-100,4,1,0,60,0,0
5285,-100,4,2,0,60,0,0
5814,-100,4,1,0,35,0,0
6608,-100,4,1,0,50,0,0
18344,-133.333333333333,4,1,0,50,0,0
18608,-133.333333333333,4,1,0,30,0,0
19932,-133.333333333333,4,1,0,35,0,0
20285,-133.333333333333,4,1,0,40,0,0
20638,-133.333333333333,4,1,0,45,0,0
20991,-133.333333333333,4,1,0,50,0,0
21344,-100,4,1,0,55,0,0
21697,-80,4,1,0,60,0,0
22050,-66.6666666666667,4,1,0,65,0,0
22579,-100,4,1,0,70,0,0
23903,-133.333333333333,4,1,0,55,0,0
24167,-133.333333333333,4,1,0,30,0,0
26285,-133.333333333333,4,1,0,40,0,0
26638,-133.333333333333,4,1,0,45,0,0
26991,-133.333333333333,4,1,0,50,0,0
27344,-133.333333333333,4,1,0,55,0,0
27697,-80,4,1,0,60,0,0
27873,-80,4,1,0,65,0,0
28050,-80,4,1,0,70,0,0
28226,-133.333333333333,4,1,0,70,0,0
29197,-100,4,1,0,60,0,0
29814,-100,4,1,0,50,0,0
41108,-133.333333333333,4,1,0,50,0,0
45785,-100,4,1,0,60,0,0
54697,-100,4,1,0,40,0,0
55138,-100,4,1,0,50,0,0
55314,-100,4,1,0,60,0,1
65108,-80,4,1,0,60,0,1
65461,-66.6666666666667,4,1,0,60,0,1
65814,-57.1428571428571,4,1,0,60,0,1
66167,-50,4,1,0,60,0,1
66520,-100,4,1,0,60,0,0
66608,-100,4,1,0,60,0,1
77903,-100,4,1,0,60,0,0

[Colours]
Combo1 : 255,128,255
Combo2 : 128,255,255
Combo3 : 255,255,128
Combo4 : 128,255,128

[HitObjects]
256,192,256,12,4,1667
256,192,3079,5,4
256,288,4315,6,0,B|308:348|404:320|416:240,1,192,4|0
344,180,4844,1,0
240,188,5020,1,2
240,188,5197,2,0,B|188:192|144:196,1,96,4|2
308,80,5550,2,0,B|360:76|404:72,1,96,2|0
440,268,5903,5,0
420,276,5991,1,0
400,280,6079,1,0
380,280,6167,1,0
360,280,6255,1,0
340,276,6344,1,0
320,272,6432,1,0
304,264,6520,1,0
284,256,6609,5,0
268,248,6697,1,0
248,244,6785,1,0
228,240,6873,1,0
208,240,6962,1,0
188,240,7050,1,0
168,244,7138,1,0
152,252,7226,1,0
136,260,7315,6,0,B|80:268|20:260,1,96,6|0
104,108,7667,2,0,B|160:100|220:108,1,96,10|0
292,188,8020,1,2
388,112,8197,1,0
396,248,8373,1,10
396,248,8550,6,0,B|384:324|288:352|232:280,1,192,2|0
172,224,9079,1,10
208,124,9256,1,0
172,224,9432,1,2
96,148,9609,2,0,B|36:152|-8:148,1,96,2|8
132,32,9962,6,0,B|192:28|236:32,1,96,2|0
316,220,10315,2,0,B|256:224|212:220,1,96,2|8
116,200,10667,1,2
188,124,10844,1,2
220,220,11020,1,0
256,80,11197,1,10
112,124,11373,2,0,B|112:188|112:228,1,96,2|0
152,316,11726,5,2
48,268,11903,1,10
188,204,12079,1,0
20,172,12256,1,2
76,308,12432,1,0
188,204,12609,1,10
188,204,12785,2,0,B|180:140|172:104,1,96,6|0
88,168,13138,5,0
276,140,13315,1,10
276,140,13491,2,0,B|284:204|292:240,1,96,6|0
188,204,13844,5,0
380,176,14020,1,10
380,176,14197,2,0,B|372:112|364:76,1,96,6|0
276,140,14550,5,0
464,112,14726,2,0,B|472:176|480:212,1,96,10|0
276,140,15079,2,0,B|268:76|260:40,1,96,2|0
112,108,15432,1,8
112,108,15609,2,0,B|40:132|64:260|144:248,1,192,6|0
224,304,16138,2,0,B|272:300|332:300,1,96,8|0
416,248,16491,1,0
340,168,16667,1,2
319,300,16844,1,10
212,224,17020,5,6
208,196,17109,1,0
204,168,17197,1,0
200,140,17285,1,0
196,112,17373,1,2
192,84,17462,1,0
188,56,17550,1,8
60,148,17726,5,6
64,176,17815,1,0
68,204,17903,1,0
72,232,17991,1,0
76,260,18079,1,2
80,288,18168,1,0
84,316,18256,1,8
232,348,18432,6,0,B|280:392|360:352|344:284,1,143.999995708466,4|0
312,232,18962,1,0
340,152,19138,1,0
396,216,19315,1,0
252,164,19491,1,0
424,128,19667,1,0
288,84,19844,1,0
312,232,20020,6,0,B|396:220,1,71.9999978542328
200,232,20373,2,0,B|116:220,1,71.9999978542328
128,221,20726,2,0,B|108:128,1,71.9999978542328
383,221,21079,2,0,B|400:300,1,71.9999978542328
256,336,21432,5,0
208,264,21609,1,0
256,192,21785,1,0
208,120,21962,1,0
256,48,22139,5,0
256,192,22315,1,0
132,116,22491,1,0
380,116,22667,2,0,B|452:128|452:244|380:260,1,192
132,116,23373,2,0,B|60:128|60:244|132:260,1,192
344,312,24079,6,0,B|396:340|460:312|460:236,1,143.999995708466,4|0
448,164,24609,2,0,B|440:120|424:76,1,71.9999978542328
320,152,24962,2,0,B|310:177|302:221,1,71.9999978542328
232,304,25315,1,0
232,304,25491,2,0,B|180:332|116:304|116:228,2,143.999995708466
336,320,26373,6,0,B|372:312|420:308,1,71.9999978542328
448,184,26726,2,0,B|412:192|364:196,1,71.9999978542328
176,240,27079,2,0,B|140:237|104:229,1,71.9999978542328
224,64,27432,2,0,B|259:66|295:74,1,71.9999978542328
348,192,27785,5,0
256,296,27962,1,0
164,192,28138,1,0
424,192,28315,5,2
256,372,28667,1,2
88,192,29020,1,2
352,80,29373,5,0
448,192,29550,1,0
352,304,29726,2,0,B|304:360|196:316|232:232,1,192,6|0
248,136,30256,1,8
320,200,30432,1,0
156,168,30609,1,0
192,60,30785,1,0
156,168,30962,1,8
76,88,31138,1,0
64,228,31315,6,0,B|60:284|68:332,1,96
272,252,31667,2,0,B|276:196|268:148,1,96,8|0
204,76,32020,1,0
156,168,32197,1,0
269,156,32373,1,8
96,80,32550,2,0,B|0:90,1,96,0|4
156,320,32903,6,0,B|264:308,1,96,2|8
96,240,33256,2,0,B|204:228,1,96,2|0
36,160,33609,2,0,B|144:148,1,96,2|8
308,148,33962,6,0,B|384:164|392:272|316:304,1,192,2|0
192,236,34491,1,8
332,144,34667,6,2,B|408:160|416:268|340:300,1,192,2|0
216,232,35197,1,8
232,104,35373,6,0,B|200:48|88:68|92:156,1,192,6|0
96,280,35903,2,0,B|40:272|0:268,1,96,8|0
180,196,36256,2,0,B|236:204|276:208,1,96
380,196,36609,5,8
372,92,36785,1,0
380,196,36962,1,0
388,300,37138,1,0
380,196,37315,1,8
484,188,37491,1,0
276,208,37667,5,0
388,300,37844,2,0,B|492:288,1,96,0|8
372,92,38197,2,0,B|268:104,1,96,0|0
108,204,38550,2,0,B|32:188|24:80|100:48,2,192,0|0|0
172,288,39432,2,0,B|224:284|280:284,1,96,8|0
372,264,39785,5,4
376,236,39873,1,0
380,208,39962,1,0
384,180,40050,1,0
388,152,40138,1,0
404,48,40315,5,2
480,192,40491,2,0,B|476:248|464:308,1,96,2|0
276,196,40844,2,0,B|280:144|296:76,1,96,2|0
372,264,41197,6,0,B|356:316|276:340|228:288,1,143.999995708466,4|0
176,260,41726,1,0
176,260,41903,2,0,B|32:272,1,143.999995708466,8|0
96,184,42432,2,0,B|240:172,2,143.999995708466
176,260,43315,2,0,B|320:248,1,143.999995708466,8|0
388,288,43844,5,0
452,240,44020,2,0,B|500:160|428:96,1,143.999995708466
364,80,44550,1,0
300,128,44726,2,0,B|252:208|324:272,1,143.999995708466,8|0
388,288,45256,5,0
124,288,45609,1,0
256,64,45962,1,0
332,140,46138,1,12
332,140,46226,1,0
332,140,46315,1,0
360,40,46491,1,8
228,164,46667,6,0,B|172:160|116:152,1,96,6|0
28,144,47020,1,0
88,56,47197,1,10
72,240,47373,6,0,B|111:245|167:249,1,96,2|0
272,260,47726,1,0
228,164,47903,1,10
208,344,48079,6,0,B|152:340|96:332,1,96,2|0
8,324,48432,1,0
72,240,48609,1,10
208,344,48785,6,0,B|272:384|368:348|352:256,1,192,2|0
256,204,49315,2,0,B|184:188|144:184,1,96,10|0
400,60,49667,5,4
128,120,51079,1,4
364,184,51785,1,4
168,244,52491,1,4
324,304,52844,1,4
208,364,53197,5,4
324,304,53373,1,0
168,244,53550,1,0
364,184,53726,1,0
92,112,54079,5,0
136,268,54256,1,0
256,152,54432,1,0
256,152,54962,6,0,B|216:200|180:232,1,96
256,340,55315,2,0,B|316:372|400:344|404:264,2,192,6|8|2
256,340,56373,1,8
168,276,56550,2,0,B|176:204|184:164,1,96,2|0
224,56,56903,1,2
292,128,57079,1,10
180,180,57256,1,0
308,244,57432,1,2
400,168,57609,1,0
400,168,57697,1,0
400,168,57785,2,0,B|396:104|392:64,1,96,8|0
180,180,58138,6,0,B|120:212|36:184|32:104,2,192,2|8|2
180,180,59197,1,8
268,116,59374,2,0,B|260:44|252:4,1,96,2|0
380,124,59726,1,2
312,204,59902,1,10
424,256,60079,1,0
296,316,60255,1,2
196,228,60432,1,0
196,228,60520,1,0
196,228,60609,2,0,B|192:172|200:112,1,96,8|0
392,180,60962,6,0,B|396:236|388:296,1,96,4|2
268,352,61315,1,10
180,264,61491,1,0
268,352,61667,1,2
292,212,61844,1,0
292,212,61932,1,0
292,212,62021,2,0,B|296:156|288:96,1,96,8|0
96,168,62374,6,0,B|92:224|100:284,1,96,0|2
220,336,62727,1,10
308,248,62903,1,0
220,336,63079,1,2
196,196,63256,1,0
196,196,63344,1,0
196,196,63432,2,0,B|192:140|200:80,1,96,8|0
368,128,63785,5,4
392,228,63961,2,0,B|396:284|388:344,2,96,2|2|0
368,128,64491,1,2
464,160,64667,1,0
300,196,64844,1,2
444,68,65020,1,0
360,296,65197,6,0,B|208:296,1,119.999998211861,4|0
328,216,65550,6,0,B|172:216,1,143.999995708466,4|0
300,136,65903,6,0,B|116:136,1,167.999992489815,4|0
268,56,66256,6,0,B|44:56,1,192,4|0
36,184,66609,6,0,B|28:244|44:296,1,96,6|0
128,352,66962,1,8
180,216,67138,1,0
180,216,67226,1,0
180,216,67315,2,0,B|188:156|172:104,1,96,2|0
88,44,67667,1,8
36,184,67844,6,0,B|46:263|152:292|200:184,1,192,2|2
232,108,68373,1,10
296,200,68550,1,0
140,132,68726,1,2
324,116,68903,1,0
324,116,68991,1,0
324,116,69079,2,0,B|372:116|428:108,1,96,8|0
140,132,69432,6,0,B|144:204|152:240,1,96,6|0
308,324,69785,2,0,B|304:252|296:216,1,96,8|0
200,176,70138,1,2
388,160,70315,1,8
388,160,70491,1,8
308,324,70667,6,0,B|280:376|168:372|148:292,1,192,6|0
300,224,71197,1,8
396,264,71373,2,0,B|451:282|531:203|491:131,1,192,6|0
300,224,71903,1,8
308,324,72079,1,0
308,324,72167,1,0
308,324,72256,1,4
184,288,72432,6,0,B|176:236|176:168,1,96,2|8
220,96,72785,1,2
284,180,72962,1,2
104,108,73138,2,0,B|23:115|24:241|95:252,1,192,2|0
204,232,73667,2,0,B|248:212|288:176,1,96,0|0
400,308,74020,5,4
408,308,74197,1,4
416,308,74373,1,4
424,308,74550,1,4
432,308,74726,1,4
440,308,74903,6,0,B|504:284|520:188|456:128,1,192,6|2
364,216,75432,1,8
264,276,75609,2,0,B|215:232|231:136|295:112,1,192,6|2
364,216,76138,1,8
264,276,76315,5,6
236,272,76403,1,0
208,268,76491,1,0
180,264,76579,1,0
152,260,76667,1,2
100,152,76844,1,8
232,168,77020,5,6
260,172,77108,1,0
288,176,77196,1,0
316,180,77284,1,0
344,184,77372,1,2
308,80,77549,5,10
144,140,77726,1,0
276,252,77903,1,4
276,252,78256,6,0,B|324:256|384:252,1,96,10|0
144,140,78609,2,0,B|96:136|36:140,1,96,2|0
160,260,78962,1,10
308,80,79138,1,6
308,80,79491,6,0,B|364:76|416:80,1,96,8|0
360,180,79844,1,0
160,200,80020,2,0,B|104:204|52:200,1,96,8|0
104,100,80373,1,8
160,296,80550,1,0
160,296,80638,1,0
160,296,80726,1,4
160,296,81079,6,0,B|156:224|160:188,1,96,10|0
356,256,81432,2,0,B|360:328|356:364,1,96,2|0
256,244,81785,1,10
256,72,81962,1,6
256,72,82315,6,0,B|312:95|368:104,1,96,8|0
464,120,82667,1,0
424,28,82844,1,8
380,184,83020,1,0
256,72,83197,1,8
464,120,83373,1,0
464,120,83462,1,0
464,120,83550,1,4
464,120,83903,6,0,B|412:116|348:120,1,96,10|0
200,240,84256,2,0,B|252:244|316:240,1,96,2|0
256,136,84609,1,10
76,192,84785,1,6
76,192,85138,6,0,B|68:144|76:84,1,96,8|0
256,136,85491,1,0
256,240,85667,2,0,B|264:288|256:348,1,96,8|0
164,284,86020,1,8
352,288,86197,1,0
352,288,86285,1,0
352,288,86373,2,0,B|408:288|452:280,1,96,4|0
256,136,86726,5,2
160,144,87079,1,2
64,152,87432,1,2
256,136,87609,2,0,B|304:136|356:128,1,96,6|0
224,48,87962,5,0
236,240,88138,1,0
64,152,88315,1,2
64,152,88667,5,4
