osu file format v9

[General]
AudioFilename: STUDYxSTUDY.mp3
AudioLeadIn: 1500
PreviewTime: 55315
Countdown: 0
SampleSet: Normal
StackLeniency: 0.7
Mode: 0
LetterboxInBreaks: 0

[Editor]
DistanceSpacing: 1
BeatDivisor: 4
GridSize: 4

[Metadata]
Title:STUDYxSTUDY (TV Size)
Artist:StylipS
Creator:xsrsbsns
Version:Easy
Source:High School DxD
Tags:study cRyo[iceeicee] merchat7 wmfchris Noto Arisa Ogura Yui Ishihara Kaori Matsunaga Maho ending ed

[Difficulty]
HPDrainRate:1
CircleSize:3
OverallDifficulty:2
ApproachRate:2
SliderMultiplier:0.64
SliderTickRate:2

[Events]
//Background and Video events
0,0,"bg.jpg"
Video,-350,"vid.avi"
//Break Periods
//Storyboard Layer 0 (Background)
//Storyboard Layer 1 (Fail)
//Storyboard Layer 2 (Pass)
//Storyboard Layer 3 (Foreground)
//Storyboard Sound Samples
//Background Colour Transformations
3,100,163,162,255

[TimingPoints]
256,352.941176470588,4,1,0,50,1,0
18608,-100,4,1,0,30,0,0
19844,-100,4,1,0,40,0,0
21255,-100,4,1,0,50,0,0
22138,-100,4,1,0,60,0,0
24255,-100,4,1,0,30,0,0
25491,-100,4,1,0,40,0,0
26903,-100,4,1,0,50,0,0
28050,-100,4,1,0,60,0,0
29373,-100,4,1,0,50,0,0
55314,-100,4,1,0,60,0,1
60608,-100,4,1,0,50,0,1
65373,-80,4,1,0,50,0,1
65726,-66.6666666666667,4,1,0,50,0,1
66079,-57.1428571428571,4,1,0,50,0,1
66520,-100,4,1,0,60,0,0
66608,-100,4,1,0,60,0,1
77903,-100,4,1,0,60,0,0

[Colours]
Combo1 : 255,128,255
Combo2 : 128,255,255
Combo3 : 255,255,128
Combo4 : 128,255,128

[HitObjects]
256,192,256,12,4,1668
256,132,3079,5,0
256,356,4314,1,0
256,292,4667,2,0,B|256:196,1,96
160,112,5903,2,0,B|176:20|344:20|356:124,1,256
388,236,8020,5,2
280,308,8726,2,0,B|212:300,1,64,0|2
152,292,9432,1,2
44,224,10138,6,0,B|16:156|64:96,1,128,0|2
120,80,11197,1,0
172,120,11550,2,0,B|200:188|152:248,1,128,0|2
256,324,12962,6,0,B|328:356|380:296,1,128,0|2
480,232,14373,2,0,B|460:172,1,64,0|2
400,148,15079,2,0,B|428:44,2,96,2|2|0
344,228,16667,6,0,B|268:236,1,64,0|2
240,284,17373,2,0,B|164:292,1,64,2|2
132,336,18079,1,2
80,300,18432,6,0,B|32:228|84:144,1,160
116,96,19667,1,8
180,92,20020,2,0,B|312:120,1,128
360,88,21079,1,8
416,120,21432,6,0,B|464:184|420:248,1,128,0|0
368,316,22667,2,0,B|232:304,1,128,2|2
316,200,24079,6,0,B|364:240|444:184|424:124,1,160
404,76,25315,1,8
340,80,25667,2,0,B|212:92,1,128
156,60,26726,1,8
108,104,27079,2,0,B|68:168|124:228,1,128,0|0
200,276,28315,5,2
256,248,28667,1,2
312,276,29020,1,2
436,248,29726,6,0,B|464:200|448:144,1,95.9999999999999,4|0
440,92,30609,2,0,B|372:72,1,63.9999999999999
328,112,31315,2,0,B|260:92,1,63.9999999999999
204,96,32020,2,0,B|176:148|120:140,1,95.9999999999999
64,132,32903,6,0,B|52:64,2,63.9999999999999,2|2|2
28,184,33962,2,0,B|96:296,1,128,6|6
216,340,35373,6,0,B|240:300|300:300,1,95.9999999999999,4|0
360,276,36256,2,0,B|376:208,1,63.9999999999999
436,196,36962,2,0,B|420:124,1,63.9999999999999
388,80,37667,2,0,B|320:56|264:100,1,128
224,220,39079,2,0,B|292:244|348:200,1,128
266,97,40491,6,0,B|192:88,1,63.9999999999999
140,96,41197,2,0,B|84:152|120:220,1,128,4|8
176,288,42432,2,0,B|280:300,1,95.9999999999999,0|0
336,308,43315,1,8
456,268,44020,6,0,B|499:201|449:142,1,128,0|8
380,208,45256,2,0,B|316:280,1,95.9999999999999
272,324,46138,1,8
176,308,46667,6,0,B|140:272|154:218,1,95.9999999999999,2|0
169,155,47550,2,0,B|144:112|88:107,2,95.9999999999999,2|2|0
226,181,48962,2,0,B|285:155,1,63.9999999999999,2|0
344,128,49667,1,4
164,312,51079,5,4
64,232,51785,1,4
188,192,52491,2,0,B|260:208,1,63.9999999999999,6|6
292,256,53197,2,0,B|348:264|388:220,1,95.9999999999999,6|2
428,184,54079,2,0,B|468:196,2,32
294,114,55315,6,0,B|248:160,1,63.9999999999999,6|0
200,200,56020,2,0,B|124:230|82:156,1,128,2|0
96,102,57079,1,2
154,77,57432,1,2
200,200,58138,6,0,B|228:264,1,63.9999999999999,2|0
272,304,58844,2,0,B|340:348|396:284,1,128,2|0
392,228,59903,1,2
340,192,60256,1,2
272,304,60962,6,0,B|144:312,1,128,4|0
64,212,62373,2,0,B|192:204,1,128,4|0
284,116,63785,6,0,B|336:152,1,63.9999999999999,4|0
392,124,64491,2,0,B|413:183,1,63.9999999999999,4|0
404,248,65197,5,6
356,288,65550,1,4
300,256,65903,1,6
252,296,66256,1,4
196,264,66609,6,0,B|128:248,1,63.9999999999999,6|0
72,268,67315,2,0,B|24:252|16:196|40:156,1,128,2|0
92,128,68373,1,2
152,152,68726,1,2
176,276,69432,6,0,B|248:260,1,63.9999999999999,6|0
292,300,70138,2,0,B|324:268|388:272,1,95.9999999999999,2|0
468,228,71197,2,0,B|440:104,1,128,2|0
380,80,72256,6,0,B|332:136|252:108,1,128,4|0
204,88,73315,1,0
172,144,73667,2,0,B|132:208|56:196,1,128,4|0
36,288,74903,6,0,B|96:308,1,63.9999999999999,2|6
156,332,75609,2,0,B|204:280,1,63.9999999999999,6|0
252,244,76315,2,0,B|320:264,1,63.9999999999999,6|2
360,304,77020,2,0,B|416:288|424:232,1,95.9999999999999,2|0
424,176,77903,5,4
340,80,78609,1,0
256,176,79315,2,0,B|272:240,2,63.9999999999999
212,128,80373,1,0
172,80,80726,5,4
88,176,81432,1,0
172,272,82138,2,0,B|152:332,2,63.9999999999999
212,220,83197,1,0
256,176,83550,5,4
340,272,84256,1,0
424,176,84962,2,0,B|492:192,2,63.9999999999999
380,132,86020,1,0
340,80,86373,1,4
256,192,86726,12,0,88667
