osu file format v12

[General]
AudioFilename: Stylips - Prism Sympathy .mp3
AudioLeadIn: 1500
PreviewTime: 58058
Countdown: 0
SampleSet: Soft
StackLeniency: 0.7
Mode: 0
LetterboxInBreaks: 0
WidescreenStoryboard: 0

[Editor]
DistanceSpacing: 1.2
BeatDivisor: 4
GridSize: 4

[Metadata]
Title:Prism Sympathy (TV Size)
TitleUnicode:Prism Sympathy (TV Size)
Artist:StylipS
ArtistUnicode:スタイリップス
Creator:P A N
Version:Insane
Source:Fate/kaleid liner Prisma☆Illya
Tags:p_a_n ending プリズマ☆イリヤ single cute moe loli umi -umi- oyatsu Commercial silver link. koreapenguin
BeatmapID:293189
BeatmapSetID:112938

[Difficulty]
HPDrainRate:7
CircleSize:4
OverallDifficulty:7
ApproachRate:9
SliderMultiplier:1.8
SliderTickRate:2

[Events]
//Background and Video events
0,0,"gb.jpg",0,0
Video,0,"Ending.avi"
//Break Periods
//Storyboard Layer 0 (Background)
//Storyboard Layer 1 (Fail)
//Storyboard Layer 2 (Pass)
//Storyboard Layer 3 (Foreground)
//Storyboard Sound Samples
//Background Colour Transformations
3,100,163,162,255

[TimingPoints]
369,352.941176470588,4,1,0,70,1,0
1957,-100,4,2,2,70,0,0
9368,-100,4,1,2,70,0,0
9898,-100,4,1,2,70,0,0
10074,-100,4,2,2,70,0,0
11486,-100,4,1,2,70,0,0
11839,-100,4,1,2,70,0,0
12016,-100,4,2,2,70,0,0
13427,-100,4,2,2,50,0,0
19604,-100,4,2,2,50,0,0
19957,-100,4,2,2,50,0,0
21016,-100,4,2,2,50,0,0
21545,-100,4,2,2,50,0,0
24368,-100,4,2,2,60,0,0
35663,-133.333333333333,4,2,2,40,0,0
46957,-100,4,2,2,50,0,0
52427,-100,4,2,2,70,0,0
53486,-100,4,2,2,70,0,0
53839,-100,4,2,2,70,0,0
58251,-100,4,2,2,80,0,1
60280,-100,4,2,2,5,0,1
60368,-100,4,2,2,75,0,1
60633,-100,4,2,2,5,0,1
60721,-100,4,2,2,75,0,1
60986,-100,4,2,2,5,0,1
61074,-100,4,2,2,75,0,1
62486,-100,4,2,1,75,0,1
62839,-100,4,2,2,75,0,1
63016,-100,4,2,2,75,0,1
69457,-100,4,2,2,80,0,0
69545,-100,4,2,2,80,0,1
73780,-100,4,2,1,80,0,1
74133,-100,4,2,2,80,0,1
78016,-100,4,2,2,80,0,0
79427,-100,4,2,2,60,0,0
86486,-100,4,2,2,60,0,0
88957,-100,4,2,2,5,0,0

[Colours]
Combo1 : 255,146,36
Combo2 : 156,96,50
Combo3 : 95,98,216
Combo4 : 230,200,145

[HitObjects]
256,192,369,12,4,1780,0:0:0:0:
340,128,1957,6,0,P|384:116|436:136,1,90,0|8,1:0|0:0,0:0:0:0:
500,208,2310,1,4,0:0:0:0:
172,256,2663,2,0,P|128:268|76:252,1,90,0|0,1:0|2:0,0:0:0:0:
12,180,3016,1,4,1:0:0:0:
88,104,3192,6,0,L|80:8,2,90,0|0|8,1:0|1:0|2:0,0:0:0:0:
192,132,3721,2,0,B|272:156|280:132|288:108|368:132,1,180,6|2,0:0|0:0,0:0:0:0:
460,184,4251,1,8,2:0:0:0:
424,284,4427,1,2,0:0:0:0:
424,284,4516,1,8,0:0:0:0:
424,284,4604,6,0,L|324:292,1,90,2|8,2:0|2:0,0:0:0:0:
92,284,4957,2,0,L|181:291,1,90,8|2,2:0|0:0,0:0:0:0:
181,291,5221,1,0,0:0:0:0:
181,291,5310,1,2,2:2:0:0:
256,216,5486,2,0,B|268:168|255:120|255:120|240:80|256:32,1,180,2|4,0:0|2:0,0:0:0:0:
16,192,6192,5,4,2:0:0:0:
256,364,6545,1,4,2:0:0:0:
496,192,6898,1,4,2:0:0:0:
440,120,7074,2,0,P|432:72|440:28,1,90,8|0,2:0|0:0,0:0:0:0:
438,32,7339,1,8,0:0:0:0:
438,32,7427,5,4,0:0:0:0:
496,192,7604,2,0,P|504:240|492:288,1,90,2|8,0:0|0:0,0:0:0:0:
416,236,7957,2,0,P|384:308|288:320,1,180,2|2,0:0|0:0,0:0:0:0:
228,232,8486,1,8,0:0:0:0:
228,232,8663,6,0,P|260:160|356:148,1,180,2|2,0:0|0:0,0:0:0:0:
320,236,9192,1,10,0:0:0:0:
152,228,9368,2,2,P|188:128|336:68,1,270,4|8,2:0|2:0,0:0:0:0:
428,112,10074,1,0,0:0:0:0:
476,208,10251,6,0,L|484:320,1,90,2|0,0:0|2:0,0:0:0:0:
352,348,10604,2,0,L|344:256,1,90,8|0,0:0|2:0,0:0:0:0:
216,176,10957,1,2,0:0:0:0:
216,176,11133,2,0,L|224:272,1,90,0|8,0:0|0:0,0:0:0:0:
128,120,11486,6,2,P|208:72|284:100,1,180,4|0,0:0|0:0,0:0:0:0:
360,180,12016,1,8,0:0:0:0:
432,100,12192,1,4,0:0:0:0:
256,192,12280,12,4,13074,0:0:0:0:
256,112,13427,5,2,0:0:0:0:
300,256,13604,1,0,2:0:0:0:
184,172,13780,1,2,0:0:0:0:
328,172,13957,1,0,0:0:0:0:
212,256,14133,6,0,P|144:260|88:164,2,180,2|2|2,0:0|0:0|0:0,0:0:0:0:
336,232,15016,1,8,2:0:0:0:
428,320,15192,1,2,0:0:0:0:
460,196,15368,1,8,2:0:0:0:
460,68,15545,2,0,P|416:80|364:72,1,90,2|8,0:0|0:0,0:0:0:0:
182,54,15898,2,0,P|226:46|271:55,1,90,2|0,0:0|2:0,0:0:0:0:
87,205,16251,6,0,P|83:160|88:116,1,90,2|0,0:0|2:0,0:0:0:0:
193,258,16604,2,0,P|196:303|192:348,1,90,2|0,0:0|2:0,0:0:0:0:
268,188,16957,2,0,P|368:172|408:100,1,180,2|2,0:0|0:0,0:0:0:0:
480,192,17486,6,0,L|484:292,1,90,0|2,2:0|0:0,0:0:0:0:
504,88,17839,1,0,2:0:0:0:
384,220,18016,2,0,L|376:320,1,90,2|0,0:0|0:0,0:0:0:0:
400,120,18368,1,2,0:0:0:0:
292,208,18545,2,0,L|268:296,1,90,0|2,0:0|0:0,0:0:0:0:
172,340,18898,5,0,2:0:0:0:
71,311,19074,2,0,P|40:278|28:236,1,90,2|0,0:0|2:0,0:0:0:0:
40,136,19427,1,2,0:0:0:0:
140,96,19604,1,8,1:0:0:0:
200,184,19780,1,8,1:0:0:0:
264,272,19957,6,0,P|288:312|324:340,1,90,0|2,2:0|0:0,0:0:0:0:
464,232,20310,1,0,2:0:0:0:
464,232,20486,2,8,P|440:192|404:164,1,90,2|0,0:0|0:0,0:0:0:0:
324,104,20839,5,2,0:0:0:0:
460,20,21016,1,8,1:0:0:0:
360,16,21192,1,8,1:0:0:0:
488,108,21368,1,0,0:0:0:0:
312,196,21545,6,0,P|320:284|252:344,1,180,4|8,0:0|2:0,0:0:0:0:
68,216,22074,2,0,P|144:196|224:248,1,180,4|0,2:0|0:0,0:0:0:0:
131,304,22604,1,8,2:0:0:0:
131,304,22780,5,4,2:0:0:0:
256,40,23133,1,4,2:0:0:0:
381,304,23486,1,4,2:0:0:0:
140,40,23839,5,8,2:0:0:0:
200,120,24016,1,8,2:0:0:0:
316,124,24192,1,8,2:0:0:0:
372,40,24368,1,4,0:0:0:0:
456,328,24721,6,0,P|404:252|304:240,1,180,8|2,2:0|0:0,0:0:0:0:
256,352,25251,1,0,0:0:0:0:
56,328,25427,2,0,P|108:252|208:240,1,180,8|2,2:0|0:0,0:0:0:0:
296,252,25957,5,2,0:0:0:0:
296,252,26133,1,8,2:0:0:0:
368,336,26310,1,2,0:0:0:0:
368,336,26486,1,0,0:0:0:0:
256,352,26663,5,2,0:0:0:0:
296,252,26839,1,8,2:0:0:0:
410,232,27016,1,2,0:0:0:0:
484,320,27192,1,2,0:0:0:0:
60,140,27545,6,0,P|108:64|204:52,1,180,8|2,2:0|0:0,0:0:0:0:
256,132,28074,1,2,0:0:0:0:
452,140,28251,2,0,P|404:64|308:52,1,180,8|2,2:0|0:0,0:0:0:0:
256,132,28780,2,0,L|256:222,1,90,2|8,0:0|2:0,0:0:0:0:
324,284,29133,2,0,P|368:292|412:285,1,90,2|0,0:0|0:0,0:0:0:0:
187,284,29486,2,0,P|143:292|99:285,1,90,2|8,0:0|2:0,0:0:0:0:
40,196,29839,2,0,L|56:96,1,90,2|0,0:0|0:0,0:0:0:0:
144,44,30192,5,2,0:0:0:0:
244,80,30368,2,0,P|336:96|404:48,1,180,8|2,2:0|0:0,0:0:0:0:
328,296,31074,1,8,2:0:0:0:
328,296,31251,2,0,P|380:224|472:228,1,180,2|0,0:0|0:0,0:0:0:0:
256,360,31780,5,8,2:0:0:0:
184,296,31957,2,0,P|132:224|40:228,1,180,2|0,0:0|0:0,0:0:0:0:
84,324,32486,1,8,0:0:0:0:
56,108,32663,1,2,0:0:0:0:
256,180,32839,6,0,P|324:228|432:188,1,180,4|8,0:0|0:0,0:0:0:0:
256,180,33368,1,2,0:0:0:0:
200,24,33545,1,2,2:0:0:0:
344,120,33721,1,0,0:0:0:0:
168,120,33898,1,8,2:0:0:0:
312,24,34074,5,4,2:0:0:0:
92,192,34427,1,4,2:0:0:0:
420,192,34780,5,4,2:0:0:0:
376,292,34957,2,0,P|332:284|276:296,1,90,0|8,0:0|0:0,0:0:0:0:
112,332,35310,2,0,P|156:338|201:330,1,90,8|8,0:0|0:0,0:0:0:0:
44,260,35663,6,0,P|8:200|40:128,1,135.000005149842,6|0,0:0|0:0,0:0:0:0:
96,100,36192,1,2,0:0:0:0:
172,124,36368,2,0,P|240:132|312:120,1,135.000005149842,8|0,0:0|0:0,0:0:0:0:
388,112,36898,5,2,0:0:0:0:
448,264,37251,1,2,0:0:0:0:
376,228,37427,1,0,0:0:0:0:
296,244,37604,1,2,0:0:0:0:
244,308,37780,2,0,P|200:360|128:360,2,135.000005149842,10|8|2,0:0|0:0|0:0,0:0:0:0:
112,216,38839,5,0,0:0:0:0:
60,124,39016,1,2,0:0:0:0:
152,72,39192,1,8,0:0:0:0:
204,164,39368,1,0,0:0:0:0:
204,164,39545,2,0,L|288:160,1,67.5000025749208,0|2,0:0|0:0,0:0:0:0:
376,80,40074,6,0,L|236:88,1,135.000005149842,2|2,0:0|0:0,0:0:0:0:
204,164,40604,2,0,P|200:208|208:248,1,67.5000025749208,8|2,0:0|0:0,0:0:0:0:
404,308,40957,2,0,P|408:268|400:232,1,67.5000025749208
376,80,41310,6,0,P|368:116|368:152,1,67.5000025749208,6|0,0:0|2:0,0:0:0:0:
247,48,41663,2,0,P|280:38|309:22,1,67.5000025749208,0|2,0:0|0:0,0:0:0:0:
284,176,42016,2,0,P|256:151|225:133,1,67.5000025749208,8|0,0:0|0:0,0:0:0:0:
172,80,42368,1,2,0:0:0:0:
96,104,42545,6,0,P|76:168|100:248,1,135.000005149842,2|2,0:0|0:0,0:0:0:0:
140,296,43074,2,8,P|208:292|280:296,2,135.000005149842,2|8|2,0:0|0:0|0:0,0:0:0:0:
260,184,44133,2,0,P|232:124|276:52,1,135.000005149842,2|0,0:0|0:0,0:0:0:0:
312,124,44663,1,2,0:0:0:0:
364,64,44839,2,0,P|392:124|348:196,1,135.000005149842,8|8,0:0|0:0,0:0:0:0:
292,260,45368,5,8,0:0:0:0:
184,252,45545,1,0,0:0:0:0:
244,164,45721,1,2,0:0:0:0:
236,304,45898,5,8,0:0:0:0:
176,184,46074,1,2,0:0:0:0:
304,196,46251,1,0,0:0:0:0:
148,272,46427,5,2,0:0:0:0:
252,124,46604,1,8,0:0:0:0:
328,292,46780,1,2,2:0:0:0:
328,292,46868,1,2,0:0:0:0:
328,292,46957,6,0,P|380:300|420:288,1,90,0|2,0:0|0:0,0:0:0:0:
264,222,47310,2,0,P|241:256|238:314,1,90,8|0,0:0|0:0,0:0:0:0:
364,204,47663,1,2,0:0:0:0:
392,24,47839,1,2,0:0:0:0:
436,144,48016,1,8,0:0:0:0:
304,28,48192,1,0,0:0:0:0:
144,92,48368,2,0,P|100:84|52:92,1,90,2|2,0:0|0:0,0:0:0:0:
8,252,48721,2,0,P|52:260|104:248,1,90,8|0,0:0|0:0,0:0:0:0:
256,208,49074,2,0,B|248:168|255:134|255:134|264:104|256:64,2,135,2|0|2,0:0|2:0|0:0,0:0:0:0:
324,292,49780,5,2,0:0:0:0:
476,280,49957,1,0,0:0:0:0:
352,204,50133,1,8,0:0:0:0:
404,340,50310,1,0,0:0:0:0:
444,192,50486,1,2,0:0:0:0:
444,192,50663,2,0,P|456:152|456:104,1,90,0|8,0:0|0:0,0:0:0:0:
424,8,51016,1,4,0:0:0:0:
260,224,51368,5,4,2:0:0:0:
288,140,51545,1,4,0:0:0:0:
196,160,51721,1,4,2:0:0:0:
352,204,51898,5,4,0:0:0:0:
228,80,52074,1,4,2:0:0:0:
168,248,52251,1,4,2:0:0:0:
336,368,52427,6,0,P|384:364|436:372,1,90,2|4,0:0|0:0,0:0:0:0:
448,224,52780,2,0,P|458:268|480:308,1,90,2|8,0:0|0:0,0:0:0:0:
309,287,53133,2,0,P|342:256|360:216,1,90,0|2,0:0|0:0,0:0:0:0:
388,112,53486,5,8,0:0:0:0:
180,220,53663,2,0,P|228:220|276:188,1,90,8|0,0:0|0:0,0:0:0:0:
336,116,54016,5,2,0:0:0:0:
132,76,54192,2,0,P|156:112|204:132,1,90,0|8,0:0|0:0,0:0:0:0:
304,148,54545,5,0,0:0:0:0:
404,112,54721,1,2,0:0:0:0:
468,200,54898,1,0,0:0:0:0:
404,284,55074,1,0,0:0:0:0:
300,252,55251,1,4,2:0:0:0:
44,44,55604,5,4,2:0:0:0:
60,152,55780,1,4,2:0:0:0:
164,116,55957,1,4,2:0:0:0:
468,44,56310,5,4,2:0:0:0:
452,152,56486,1,4,2:0:0:0:
348,116,56663,1,4,2:0:0:0:
256,352,57016,5,4,2:0:0:0:
256,32,57368,1,4,2:0:0:0:
348,116,57545,1,2,0:0:0:0:
348,144,57633,1,2,0:0:0:0:
348,172,57721,1,2,0:0:0:0:
348,204,57810,1,2,0:0:0:0:
348,232,57898,2,2,L|348:280,1,45
256,352,58074,2,0,L|256:296,1,45,2|2,0:0|0:0,0:0:0:0:
160,308,58251,6,0,P|144:256|160:208,1,90,4|0,0:0|2:0,0:0:0:0:
84,32,58604,2,0,P|92:80|76:128,1,90,8|0,0:0|2:0,0:0:0:0:
40,248,58957,2,0,L|48:352,1,90,2|0,0:0|2:0,0:0:0:0:
180,152,59310,2,0,L|172:52,1,90,8|0,0:0|2:0,0:0:0:0:
296,12,59663,2,0,L|304:116,1,90,2|0,0:0|2:0,0:0:0:0:
336,216,60016,6,0,P|324:288|260:320,1,135,8|0,0:0|2:0,0:0:0:0:
204,316,60368,2,0,P|148:268|140:204,1,135,2|0,0:0|2:0,0:0:0:0:
180,152,60721,2,0,P|244:128|312:164,1,135,8|0,0:0|2:0,0:0:0:0:
336,216,61074,5,2,0:0:0:0:
388,312,61251,1,0,0:0:0:0:
456,120,61427,1,8,0:0:0:0:
444,224,61604,1,0,0:0:0:0:
388,312,61780,2,0,P|348:340|292:340,1,90,2|0,0:0|0:0,0:0:0:0:
124,312,62133,2,0,P|164:340|220:340,1,90,10|0,0:0|0:0,0:0:0:0:
256,248,62486,5,2,2:2:0:0:
328,168,62663,1,2,2:0:0:0:
288,68,62839,1,8,1:2:0:0:
180,64,63016,1,2,2:0:0:0:
86,109,63192,2,0,P|151:166|236:148,1,180,2|8,0:0|0:0,0:0:0:0:
180,64,63721,1,0,0:0:0:0:
60,234,63898,6,0,L|64:324,1,90,4|0,0:0|0:0,0:0:0:0:
171,305,64251,2,0,L|168:216,1,90,8|0,0:0|0:0,0:0:0:0:
268,356,64604,1,2,0:0:0:0:
376,344,64780,1,0,0:0:0:0:
440,256,64957,1,8,0:0:0:0:
456,148,65133,1,0,0:0:0:0:
408,52,65310,5,0,1:2:0:0:
104,332,65663,1,8,0:0:0:0:
456,148,66016,1,2,0:0:0:0:
56,236,66368,1,8,0:0:0:0:
448,256,66721,6,0,P|428:300|384:320,1,90,4|0,0:0|0:0,0:0:0:0:
257,217,67074,2,0,P|301:228|344:216,1,90,8|0,0:0|0:0,0:0:0:0:
304,116,67427,2,0,P|256:104|224:72,1,90,2|0,0:0|0:0,0:0:0:0:
136,20,67780,1,8,0:0:0:0:
32,52,67957,5,4,2:0:0:0:
256,312,68310,1,4,2:0:0:0:
480,52,68663,1,4,2:0:0:0:
256,312,69016,5,2,0:0:0:0:
180,236,69192,1,2,0:0:0:0:
256,160,69368,1,8,0:0:0:0:
328,240,69545,6,0,P|400:280|488:244,1,180,4|8,0:0|0:0,0:0:0:0:
487,142,70074,2,0,L|479:38,1,90,0|2,2:0|2:0,0:0:0:0:
368,120,70427,2,0,P|324:128|268:120,1,90,0|8,2:0|2:0,0:0:0:0:
168,88,70780,2,0,P|120:84|72:96,1,90,0|2,2:0|0:0,0:0:0:0:
28,192,71133,1,0,2:0:0:0:
56,308,71310,6,0,P|140:336|212:280,1,180,8|2,0:0|0:0,0:0:0:0:
256,188,71839,1,2,0:0:0:0:
456,308,72016,2,0,P|372:336|300:280,1,180,8|2,0:0|0:0,0:0:0:0:
256,188,72545,1,0,0:0:0:0:
164,128,72721,1,8,0:0:0:0:
200,24,72898,1,0,0:0:0:0:
308,24,73074,1,2,0:0:0:0:
344,128,73251,1,0,0:0:0:0:
452,136,73427,2,0,L|456:236,1,90,8|0,0:0|0:0,0:0:0:0:
392,316,73780,6,2,P|348:308|296:320,1,90,2|0,0:0|0:0,0:0:0:0:
304,316,74045,1,2,0:0:0:0:
304,316,74133,1,8,0:0:0:0:
204,276,74310,1,0,0:0:0:0:
108,324,74486,2,0,P|36:264|44:176,1,180,2|8,0:0|0:0,0:0:0:0:
404,60,75192,6,0,P|476:120|468:208,1,180,2|8,0:0|0:0,0:0:0:0:
72,280,75898,2,0,P|40:200|80:112,1,180,2|8,0:0|0:0,0:0:0:0:
256,236,76604,5,2,0:0:0:0:
200,144,76780,1,0,0:0:0:0:
308,144,76957,1,8,0:0:0:0:
364,236,77133,5,2,0:0:0:0:
148,236,77310,1,8,0:0:0:0:
256,56,77486,1,2,0:0:0:0:
400,80,77663,5,8,0:0:0:0:
256,336,77839,1,2,0:0:0:0:
112,80,78016,1,4,0:0:0:0:
256,192,78104,12,0,79427,0:0:0:0:
212,56,79780,6,0,P|256:48|308:60,2,90,8|0|2,0:0|0:0|0:0,0:0:0:0:
200,272,80486,2,0,L|172:360,1,90,8|0,0:0|0:0,0:0:0:0:
312,272,80839,2,0,L|340:360,1,90,2|0,0:0|0:0,0:0:0:0:
256,192,81192,1,8,0:0:0:0:
420,192,81368,2,0,P|256:60|96:192,1,450
428,336,82604,5,2,0:0:0:0:
344,60,82957,2,0,P|256:36|160:69,1,180,2|2,0:0|0:0,0:0:0:0:
84,336,83663,6,0,L|176:344,1,90,6|0,0:0|0:0,0:0:0:0:
256,276,84016,1,8,0:0:0:0:
428,336,84192,2,0,L|336:344,1,90,0|2,0:0|0:0,0:0:0:0:
256,276,84545,1,0,0:0:0:0:
184,196,84721,2,0,P|144:168|136:120,1,90,8|0,0:0|0:0,0:0:0:0:
328,196,85074,2,0,P|368:168|376:120,1,90,2|0,0:0|0:0,0:0:0:0:
312,44,85427,5,8,0:0:0:0:
204,44,85604,1,0,0:0:0:0:
172,148,85780,1,2,0:0:0:0:
256,216,85957,1,0,0:0:0:0:
340,148,86133,5,8,0:0:0:0:
172,148,86310,1,0,0:0:0:0:
84,280,86486,5,4,2:0:0:0:
428,280,87016,1,4,2:0:0:0:
256,52,87545,1,4,2:0:0:0:
256,52,87721,1,4,0:0:0:0:
256,192,87810,12,0,88957,2:0:0:0:
