osu file format v9

[General]
AudioFilename: 01 - MIRACLE RUSH ~TV size~.mp3
AudioLeadIn: 1500
PreviewTime: 60353
Countdown: 0
SampleSet: Normal
StackLeniency: 0.7
Mode: 0
LetterboxInBreaks: 0

[Editor]
Bookmarks: 14639
DistanceSpacing: 1.2
BeatDivisor: 4
GridSize: 4

[Metadata]
Title:MIRACLE RUSH (TV Size)
Artist:StylipS
Creator:xsrsbsns
Version:cRyo
Source:Saki: Achiga-hen episode of side-A
Tags:cRyo[iceeicee] spboxer3 noto arisa ogura yui ishihara kaori matsunaga maho opening

[Difficulty]
HPDrainRate:6
CircleSize:4
OverallDifficulty:6
ApproachRate:7
SliderMultiplier:1.5
SliderTickRate:1

[Events]
//Background and Video events
0,0,"bg.jpg"
Video,700,"vid.avi"
//Break Periods
//Storyboard Layer 0 (Background)
//Storyboard Layer 1 (Fail)
//Storyboard Layer 2 (Pass)
//Storyboard Layer 3 (Foreground)
//Storyboard Sound Samples
//Background Colour Transformations
3,100,163,162,255

[TimingPoints]
1068,357.142857142857,4,2,1,50,1,0
1068,-133.333333333333,4,2,1,50,0,0
6068,-100,4,2,1,50,0,0
6693,-100,4,1,0,50,0,0
6871,-100,4,2,1,50,0,0
12139,-100,4,1,1,50,0,0
12496,-90.9090909090909,4,1,1,50,0,0
17853,-133.333333333333,4,1,1,50,0,0
18121,-90.9090909090909,4,1,1,50,0,0
24193,-90.9090909090909,4,2,1,50,0,0
34996,-90.9090909090909,4,1,1,40,0,0
35353,-90.9090909090909,4,2,1,50,0,0
45621,-90.9090909090909,4,1,1,40,0,0
46068,-90.9090909090909,4,2,1,50,0,0
46693,-90.9090909090909,4,1,1,50,0,0
46871,-90.9090909090909,4,2,1,50,0,0
55353,-100,4,1,1,50,0,0
59461,-133.333333333333,4,1,1,50,0,0
60710,-133.333333333333,4,1,1,35,0,0
60800,-90.9090909090909,4,1,1,50,0,0
61067,-90.9090909090909,4,1,1,50,0,1
65889,-90.9090909090909,4,2,1,55,0,1
66425,-90.9090909090909,4,1,1,50,0,1
71157,-90.9090909090909,4,2,1,55,0,1
71514,-90.9090909090909,4,1,1,50,0,1
71782,-90.9090909090909,4,1,1,50,0,0
72496,-90.9090909090909,4,1,1,50,0,1
83568,-133.333333333333,4,1,1,50,0,1
83925,-90.9090909090909,4,1,1,50,0,0
88121,-90.9090909090909,4,2,1,50,0,0
89193,-90.9090909090909,4,2,1,5,0,0

[Colours]
Combo1 : 255,187,85
Combo2 : 174,174,255
Combo3 : 255,128,255
Combo4 : 74,255,165

[HitObjects]
100,192,711,2,0,B|120:128,3,37.5
120,116,1068,2,0,B|60:104,2,56.2499983236194,2|0|0
192,184,1603,2,0,B|248:188|304:164,1,112.499996647239,2|0
320,248,2139,2,0,B|372:227|413:182,1,112.499996647239,2|0
363,40,2675,5,2
403,108,2853,1,0
339,152,3032,1,0
295,84,3211,2,0,B|231:72,2,56.2499983236194,2|0|0
411,184,3746,1,2
256,192,3925,12,2,5353
180,96,6068,6,0,B|188:136|185:184,1,75,2|0
112,204,6425,2,0,B|109:238|117:278,1,75,2|0
276,312,6782,2,0,B|280:240|266:162,1,150,4|0
266,163,7496,5,2
310,91,7675,1,0
390,71,7853,1,2
466,99,8032,1,0
462,183,8211,2,0,B|398:227|314:223,1,150,4|0
75,103,8925,5,2
146,57,9103,1,0
192,128,9282,1,2
121,173,9461,1,0
168,240,9639,2,0,B|204:240|264:248,1,75,4|0
356,160,9996,2,0,B|320:160|260:168,1,75,4|0
256,56,10353,5,2
256,56,10532,1,0
368,40,10711,1,2
368,40,10889,1,0
456,112,11068,2,0,B|472:192|468:288,1,150,4|0
308,304,11782,5,2
296,308,11871,1,2
284,312,11961,1,2
272,316,12050,1,2
260,320,12139,2,0,B|208:324,3,37.5
196,328,12496,6,0,B|148:332|108:344,1,82.4999975413085,6|0
42,275,12853,2,0,B|26:235|26:187,1,82.4999975413085,8|0
108,64,13211,2,0,B|172:92|172:180|108:204,1,164.999995082617,2|8
212,224,13746,5,2
212,224,13836,1,0
212,224,13925,2,0,B|256:204|320:208,1,82.4999975413085
364,148,14282,2,0,B|384:192|380:256,1,82.4999975413085,8|0
436,304,14639,2,0,B|392:324|328:320,1,82.4999975413085,2|0
220,316,14996,5,10
212,224,15175,1,0
140,168,15353,2,0,B|96:164|50:174,1,82.4999975413085,6|0
56,284,15711,2,0,B|100:288|145:277,1,82.4999975413085,2|0
288,264,16068,5,2
312,260,16157,1,0
332,256,16246,1,0
356,252,16336,1,0
376,248,16425,1,0
464,232,16603,2,0,B|526:203|520:115|454:92,1,164.999995082617,2|0
356,80,17139,5,2
256,68,17496,1,0
160,56,17853,2,2,B|160:124,1,56.2499983236194,0|2
160,188,18211,6,0,B|204:172|256:176,1,82.4999975413085,6|0
136,264,18568,2,0,B|92:280|40:276,1,82.4999975413085,2|0
84,192,18925,5,2
216,252,19103,1,0
108,348,19282,1,2
244,320,19461,2,2,B|308:296|308:208|244:180,1,164.999995082617,0|0
168,144,19996,1,0
84,192,20175,5,0
84,192,20264,1,0
84,192,20353,2,0,B|80:240|84:296,1,82.4999975413085,2|0
184,360,20711,2,0,B|188:312|185:271,1,82.4999975413085,2|0
256,192,21068,2,0,B|368:184,1,82.4999975413085,2|0
489,289,21425,2,0,B|400:296,1,82.4999975413085,2|0
312,272,21782,5,6
432,204,21961,1,2
256,192,22318,12,4,23211
104,56,23568,5,0
104,56,23925,2,0,B|128:140|116:240,1,164.999995082617,4|8
68,284,24461,1,0
128,340,24639,2,0,B|172:344|244:324,1,82.4999975413085,2|0
284,292,24996,2,0,B|329:278|373:282,1,82.4999975413085,8|0
444,304,25353,5,2
496,240,25532,1,0
436,184,25711,2,0,B|424:140|432:96,1,82.4999975413085,8|0
468,28,26068,2,0,B|420:24|368:36,1,82.4999975413085,0|0
256,52,26425,6,0,B|208:101|247:180|317:177,1,164.999995082617,2|2
384,236,26961,5,0
384,236,27050,1,0
384,236,27139,2,0,B|376:344,1,82.4999975413085,8|0
284,256,27496,2,0,B|276:364,1,82.4999975413085,2|0
184,276,27853,2,0,B|176:384,1,82.4999975413085,8|0
80,280,28211,5,2
12,232,28389,1,0
60,164,28568,1,8
128,212,28746,1,0
196,164,28925,2,0,B|208:120|196:52,1,82.4999975413085
332,44,29282,22,0,B|396:66|397:154|334:183,1,164.999995082617,2|2
264,112,29818,5,0
196,164,29996,2,8,B|184:208|196:276,1,82.4999975413085,8|0
152,320,30353,2,0,B|104:320|48:336,1,82.4999975413085,2|0
16,268,30711,2,0,B|-8:180|8:76,1,164.999995082617,8|0
116,48,31246,5,0
116,48,31336,1,0
116,48,31425,2,0,B|144:92|144:144,1,82.4999975413085,8|0
236,52,31782,2,0,B|238:104|212:149,1,82.4999975413085,2|0
336,120,32139,2,0,B|311:166|266:192,1,82.4999975413085,8|0
196,256,32496,6,0,B|104:296|12:248,1,164.999995082617,4|8
34,177,33032,2,0,B|126:137|218:185,1,164.999995082617,2|0
276,204,33568,1,8
328,132,33746,6,0,B|392:154|393:242|330:271,1,164.999995082617,2|0
196,256,34282,2,0,B|184:212|200:148,1,82.4999975413085,8|0
252,96,34639,2,2,B|264:24,3,41.2499987706542
304,60,34996,2,0,B|316:-12,4,41.2499987706542,0|0|0|0|4
416,108,35532,5,0
416,108,35621,1,0
416,108,35711,2,0,B|428:156|420:200,1,82.4999975413085,8|0
344,248,36068,1,2
256,272,36246,1,0
232,184,36425,1,8
320,160,36603,1,0
344,248,36782,6,0,B|344:296|312:360,1,82.4999975413085,2|0
256,272,37139,2,0,B|256:320|224:384,1,82.4999975413085,8|0
168,296,37496,2,0,B|168:344|136:408,1,82.4999975413085,0|0
44,296,37853,22,0,B|-23:294|-51:211|0:164,1,164.999995082617,2|2
80,124,38389,5,0
80,124,38478,1,0
80,124,38568,2,0,B|92:80|80:8,1,82.4999975413085,8|0
156,152,38925,2,0,B|178:112|186:39,1,82.4999975413085,2|0
224,196,39282,2,0,B|256:163|282:95,1,82.4999975413085,8|0
300,36,39639,5,2
360,144,39818,1,0
384,64,39996,5,8
444,172,40175,1,0
344,240,40353,2,0,B|352:288|380:336,1,82.4999975413085
474,302,40711,6,2,B|525:254|497:171|430:170,1,164.999995082617,2|2
360,144,41246,5,0
280,116,41425,2,0,B|272:72|274:33,1,82.4999975413085,8|0
216,168,41782,2,0,B|224:212|220:257,1,82.4999975413085,2|0
212,332,42139,2,0,B|165:381|85:346|83:276,1,164.999995082617,8|0
75,204,42675,5,0
75,204,42764,1,0
75,204,42853,2,0,B|75:156|58:116,1,82.4999975413085,8|0
167,196,43211,2,0,B|188:152|190:109,1,82.4999975413085,2|0
223,264,43568,2,0,B|268:249|301:220,1,82.4999975413085,8|0
333,143,43925,5,2
410,191,44103,1,0
371,273,44282,1,8
295,225,44461,1,0
407,109,44639,5,2
452,267,44818,1,0
298,311,44996,1,8
252,152,45175,2,0,B|191:199|191:199|70:182,1,164.999995082617,4|0
4,152,45711,5,0
16,132,45800,1,0
28,112,45889,1,0
40,92,45978,1,0
52,72,46068,2,0,B|148:84,1,82.4999975413085,4|0
252,152,46425,2,0,B|156:164,1,82.4999975413085,4|0
65,220,46782,2,0,B|79:288|165:307|201:249,1,164.999995082617,4|2
192,260,47496,6,0,B|296:260,1,82.4999975413085,2|0
364,300,47853,2,0,B|372:254|360:210,1,82.4999975413085,2|0
296,148,48211,2,0,B|284:104|292:58,1,82.4999975413085,2|0
375,100,48568,2,0,B|479:100,1,82.4999975413085,2|0
488,188,48925,5,2
488,188,49103,1,0
448,268,49282,1,2
448,268,49461,1,0
380,328,49639,6,0,B|348:296|332:240,1,82.4999975413085,2|0
272,348,49996,2,0,B|256:305|265:247,1,82.4999975413085,2|0
164,324,50353,2,0,B|167:278|200:230,1,82.4999975413085,2|0
76,248,50711,2,0,B|98:208|148:178,1,82.4999975413085,2|0
200,120,51068,6,0,B|177:4,1,82.4999975413085,2|0
280,160,51425,2,0,B|257:44,1,82.4999975413085,2|0
360,200,51782,2,0,B|336:84,1,82.4999975413085,2|0
440,240,52139,2,0,B|416:128,1,82.4999975413085,4|0
412,320,52496,2,0,B|324:356|232:336,1,164.999995082617,4|2
250,340,53211,6,0,B|254:296|247:247,1,82.4999975413085,2|0
122,132,53568,2,0,B|118:176|125:225,1,82.4999975413085,2|0
290,172,53925,2,0,B|246:168|200:174,1,82.4999975413085,2|0
78,300,54282,2,0,B|122:304|167:297,2,82.4999975413085,2|0|2
28,224,54818,1,0
16,136,54996,1,2
68,60,55175,5,0
68,60,55264,1,0
68,60,55353,2,0,B|136:40|236:48,1,150,6|0
292,76,55889,2,0,B|372:82|440:62,1,150,2|0
504,116,56425,1,0
472,192,56603,2,0,B|460:272|496:360,1,150,2|0
412,372,57139,1,0
332,352,57318,6,0,B|252:336|164:368,1,150,2|0
104,348,57853,2,0,B|88:256,1,75,2|0
256,192,58211,12,4,59282
33,209,59639,5,2
197,236,59818,1,0
83,122,59996,1,2
103,281,60175,1,0
184,136,60353,6,2,B|232:120|304:116,1,112.499996647239,2|8
384,132,60889,5,0
384,132,60978,1,0
384,132,61068,2,0,B|416:224|392:328,1,164.999995082617,6|8
332,340,61603,1,0
252,312,61782,2,0,B|236:268|232:196,1,82.4999975413085,2|0
156,212,62139,2,0,B|160:172|188:104,1,82.4999975413085,8|0
260,44,62496,2,0,B|328:58|347:144|289:180,1,164.999995082617,2|8
324,264,63032,5,0
324,264,63121,1,0
324,264,63211,2,0,B|372:264|424:248,1,82.4999975413085,2|0
440,104,63568,2,0,B|460:148|456:208,1,82.4999975413085,8|0
460,316,63925,2,2,B|392:368|276:340,1,164.999995082617,2|8
228,312,64461,5,0
228,312,64550,1,0
228,312,64639,2,0,B|184:312|124:328,1,82.4999975413085,2|0
64,312,64996,1,10
28,236,65175,1,0
32,152,65353,5,2
192,52,65711,1,10
364,64,66068,2,2,B|371:108,3,41.2499987706542
412,88,66425,2,0,B|419:132,3,41.2499987706542
452,160,66782,6,0,B|468:200|460:276,1,82.4999975413085,6|0
380,232,67139,2,0,B|385:274|357:346,1,82.4999975413085,8|0
288,304,67496,2,0,B|208:360|92:332,1,164.999995082617,2|8
32,280,68032,5,0
112,240,68211,1,2
116,148,68389,1,0
36,192,68568,5,8
44,104,68746,1,0
124,60,68925,1,2
388,60,69282,1,10
388,60,69639,6,0,B|380:108|396:160,1,82.4999975413085,2|0
308,116,69996,2,0,B|312:164|341:210,1,82.4999975413085,10|0
244,192,70353,2,0,B|261:237|300:274,1,82.4999975413085,2|0
380,300,70711,1,2
380,300,70889,2,2,B|366:368|280:387|244:329,1,164.999995082617,6|4
253,341,71425,1,4
156,296,71603,5,0
156,296,71693,1,0
156,296,71782,2,0,B|144:252|144:192,1,82.4999975413085,2|0
64,228,72139,2,0,B|63:182|79:124,1,82.4999975413085,2|0
16,88,72496,2,0,B|52:29|138:48|152:116,1,164.999995082617,6|8
200,168,73032,5,0
200,168,73121,1,0
200,168,73211,2,0,B|244:176|304:152,1,82.4999975413085,2|0
348,212,73568,2,0,B|372:172|376:120,1,82.4999975413085,10|0
316,76,73925,2,0,B|352:17|438:36|452:104,1,164.999995082617,2|8
484,168,74461,5,0
484,168,74550,1,0
484,168,74639,2,0,B|496:212|492:276,1,82.4999975413085,2|0
356,285,74996,2,0,B|344:241|348:204,1,82.4999975413085,10|0
404,140,75353,5,2
256,36,75711,1,10
108,140,76068,5,2
140,224,76246,1,8
224,192,76425,1,2
192,108,76603,1,8
120,56,76782,6,0,B|72:60|28:100,1,82.4999975413085,2|0
20,180,77139,2,0,B|24:228|64:272,1,82.4999975413085,10|0
128,312,77496,2,0,B|176:308|220:268,1,82.4999975413085,2|0
296,212,77853,1,0
308,192,77943,1,0
316,172,78032,1,0
324,152,78121,1,0
332,132,78211,6,0,B|340:84|324:28,1,82.4999975413085,6|0
416,152,78568,2,0,B|424:104|411:62,1,82.4999975413085,8|0
484,24,78925,2,0,B|520:104|488:212,1,164.999995082617,2|8
440,276,79461,5,2
440,276,79550,1,0
440,276,79639,2,0,B|396:280|328:304,1,82.4999975413085,0|0
284,328,79996,1,8
204,340,80175,1,0
128,308,80353,2,0,B|116:264|117:218,1,82.4999975413085,2|0
164,84,80711,1,8
164,84,80889,1,0
200,168,81068,6,0,B|212:212|210:257,1,82.4999975413085,2|0
301,257,81425,2,0,B|300:212|312:168,1,82.4999975413085,2|0
348,84,81782,1,8
260,44,81961,1,0
164,84,82139,1,8
88,128,82318,6,0,B|72:224|112:312,1,164.999995082617,6|2
256,320,82853,1,6
256,320,83568,2,2,B|328:304,1,56.2499983236194,0|2
384,284,83925,6,2,B|408:196|376:104,1,164.999995082617,6|2
320,64,84461,1,0
236,60,84639,2,0,B|192:68|140:56,2,82.4999975413085,2|0|2
268,136,85175,2,2,B|180:176|92:124,1,164.999995082617,0|0
52,76,85711,1,0
44,192,85889,5,0
44,192,85978,1,0
44,192,86068,2,0,B|56:284,1,82.4999975413085,2|0
168,336,86425,2,0,B|156:246,1,82.4999975413085,2|0
140,160,86782,5,2
372,160,87139,1,2
256,52,87496,1,2
256,52,87675,2,0,B|280:120|232:140|256:216,1,164.999995082617,2|4
256,192,88121,12,0,89193
