osu file format v13

[General]
AudioFilename: Miracle Rush.mp3
AudioLeadIn: 500
PreviewTime: 60264
Countdown: 0
SampleSet: Soft
StackLeniency: 0.7
Mode: 0
LetterboxInBreaks: 0
WidescreenStoryboard: 0

[Editor]
DistanceSpacing: 1
BeatDivisor: 2
GridSize: 4
TimelineZoom: 1.3

[Metadata]
Title:MIRACLE RUSH (TV Size)
TitleUnicode:MIRACLE RUSH (TV Size)
Artist:StylipS
ArtistUnicode:StylipS
Creator:No Dap
Version:Easy
Source:Saki: Achiga-hen - episode of side-A
Tags:opening kinshara kibbleru
BeatmapID:450724
BeatmapSetID:189178

[Difficulty]
HPDrainRate:2
CircleSize:3
OverallDifficulty:2
ApproachRate:3
SliderMultiplier:1
SliderTickRate:2

[Events]
//Background and Video events
0,0,"BBBBBGGGGGG.png",0,0
Video,0,"VIDDDDEEEEEO.avi"
//Break Periods
//Storyboard Layer 0 (Background)
//Storyboard Layer 1 (Fail)
//Storyboard Layer 2 (Pass)
//Storyboard Layer 3 (Foreground)
//Storyboard Sound Samples
//Background Colour Transformations
3,100,163,162,255

[TimingPoints]
-360,357.142857142857,4,2,1,50,1,0
3925,-100,4,2,1,5,0,0
5354,-100,4,2,1,70,0,0
6068,-100,4,2,1,50,0,0
12497,-100,4,2,1,60,0,0
18211,-100,4,2,1,70,0,0
19282,-100,4,2,2,70,0,0
19461,-100,4,2,1,70,0,0
26425,-100,4,2,2,70,0,0
26604,-100,4,2,1,70,0,0
28568,-100,4,2,2,70,0,0
28747,-100,4,2,1,70,0,0
31425,-100,4,2,2,70,0,0
31604,-100,4,2,1,70,0,0
37854,-100,4,2,2,70,0,0
38032,-100,4,2,1,70,0,0
40711,-100,4,2,2,70,0,0
40889,-100,4,2,1,70,0,0
44282,-100,4,2,2,70,0,0
44461,-100,4,2,1,70,0,0
45532,-100,4,2,2,70,0,0
45711,-100,4,2,1,70,0,0
46782,-100,4,2,1,80,0,0
55354,-100,4,2,1,65,0,0
58211,-100,4,2,1,70,0,0
58389,-100,4,2,1,5,0,0
59639,-100,4,2,1,75,0,0
61068,-100,4,2,1,85,0,1
61425,-100,4,2,2,85,0,1
61604,-100,4,2,1,85,0,1
62854,-100,4,2,2,85,0,1
63032,-100,4,2,1,85,0,1
63568,-100,4,2,2,85,0,1
63747,-100,4,2,1,85,0,1
64997,-100,4,2,2,85,0,1
65175,-100,4,2,1,85,0,1
65711,-100,4,2,2,85,0,1
65889,-100,4,2,1,85,0,1
70711,-100,4,2,2,85,0,1
70889,-100,4,2,1,85,0,1
72854,-100,4,2,2,85,0,1
73032,-100,4,2,1,85,0,1
74282,-100,4,2,2,85,0,1
74461,-100,4,2,1,85,0,1
74997,-100,4,2,2,85,0,1
75175,-100,4,2,1,85,0,1
77139,-100,4,2,2,85,0,1
77318,-100,4,2,1,85,0,1
83925,-100,4,2,1,70,0,0
84997,-100,4,2,2,70,0,0
85175,-100,4,2,1,70,0,0
88211,-100,4,2,1,5,0,0

[Colours]
Combo1 : 255,85,170
Combo2 : 224,193,193
Combo3 : 255,136,136
Combo4 : 187,120,120

[HitObjects]
215,219,711,5,2,0:0:0:0:
215,219,1068,6,0,P|268:270|364:256,2,150,2|2|2,0:0|0:0|0:0,0:0:0:0:
88,144,2675,2,0,P|127:82|199:72,2,150,2|2|2,0:0|0:0|0:0,0:0:0:0:
256,192,3925,12,2,5354,0:0:0:0:
136,212,6068,5,2,0:0:0:0:
232,188,6425,1,2,0:0:0:0:
304,256,6782,2,0,P|364:256|452:148,2,200,4|2|2,0:0|0:0|0:0,0:0:0:0:
180,100,8925,5,2,0:0:0:0:
108,172,9282,1,2,0:0:0:0:
76,268,9639,2,0,B|76:328|120:348|120:348|180:300|252:336,2,200,2|2|2,0:0|0:0|0:0,0:0:0:0:
372,156,12497,6,0,L|384:256,1,100,4|8,0:0|0:0,0:0:0:0:
320,332,13211,1,2,0:0:0:0:
320,332,13568,1,8,0:0:0:0:
236,280,13925,2,0,L|120:288,1,100,2|8,0:0|0:0,0:0:0:0:
56,348,14639,1,2,0:0:0:0:
56,348,14997,1,8,0:0:0:0:
16,256,15354,6,0,P|8:206|6:156,1,100,2|2,0:0|0:0,0:0:0:0:
60,72,16068,2,0,B|132:44|132:96|206:74,1,150,2|4,0:0|0:0,0:0:0:0:
300,112,16961,2,0,L|292:176,1,50,4|4,0:0|0:0,0:0:0:0:
196,296,18211,6,0,P|158:263|136:219,1,100,4|8,0:0|0:0,0:0:0:0:
184,132,18925,2,0,P|284:136|326:102,2,150,2|2|8,0:0|0:0|0:0,0:0:0:0:
104,72,20354,2,0,L|96:184,1,100,2|8,0:0|0:0,0:0:0:0:
108,272,21068,5,8,0:0:0:0:
184,340,21425,1,8,0:0:0:0:
280,312,21782,2,0,L|316:264,1,50,4|4,0:0|0:0,0:0:0:0:
360,184,22318,2,0,P|325:72|208:74,1,250,4|2,0:0|0:0,0:0:0:0:
124,128,23568,1,2,0:0:0:0:
56,204,23925,6,0,L|68:320,1,100,2|8,0:0|0:0,0:0:0:0:
156,352,24639,1,2,0:0:0:0:
156,352,24997,1,8,0:0:0:0:
231,288,25354,2,0,P|281:289|329:304,1,100,2|8,0:0|0:0,0:0:0:0:
403,367,26068,2,0,P|364:278|390:183,1,200,2|2,0:0|0:0,0:0:0:0:
448,100,27139,5,8,0:0:0:0:
367,39,27497,2,0,P|321:20|272:26,1,100,2|8,0:0|0:0,0:0:0:0:
200,92,28211,2,0,P|127:109|56:90,2,150,2|2|8,0:0|0:0|0:0,0:0:0:0:
288,48,29639,1,2,0:0:0:0:
368,108,29997,6,0,B|384:144|384:144|384:168|384:168|400:204,1,100,8|2,0:0|0:0,0:0:0:0:
420,300,30711,1,8,0:0:0:0:
328,344,31068,2,0,P|228:336|133:363,1,200,2|2,0:0|0:0,0:0:0:0:
60,296,32139,1,8,0:0:0:0:
111,207,32497,6,0,P|99:159|77:114,1,100,2|8,0:0|0:0,0:0:0:0:
39,79,33032,2,0,P|113:90|183:65,1,150,2|8,0:0|0:0,0:0:0:0:
212,24,33747,2,0,L|236:184,1,150,2|8,0:0|0:0,0:0:0:0:
284,260,34639,1,2,0:0:0:0:
284,260,34997,1,8,0:0:0:0:
372,308,35354,6,0,L|472:308,2,100,4|8|2,0:0|0:0|0:0,0:0:0:0:
288,360,36425,1,8,0:0:0:0:
192,332,36782,2,0,P|140:324|76:336,1,100,2|8,0:0|0:0,0:0:0:0:
8,280,37497,2,0,P|19:180|10:81,1,200,2|2,0:0|0:0,0:0:0:0:
96,32,38568,5,8,0:0:0:0:
168,100,38925,2,0,P|220:100|272:68,1,100,2|8,0:0|0:0,0:0:0:0:
348,32,39639,2,0,P|400:32|448:64,1,100,2|8,0:0|0:0,0:0:0:0:
480,148,40354,2,0,P|464:240|372:250,1,200,2|2,0:0|0:0,0:0:0:0:
308,176,41425,5,8,0:0:0:0:
228,236,41782,2,0,L|120:224,1,100,2|8,0:0|0:0,0:0:0:0:
72,144,42497,1,2,0:0:0:0:
72,144,42854,1,8,0:0:0:0:
20,232,43211,2,0,L|36:332,1,100,2|8,0:0|0:0,0:0:0:0:
136,347,43925,6,0,P|206:323|280:330,2,150,2|2|8,0:0|0:0|0:0,0:0:0:0:
92,376,45175,2,0,L|80:224,1,150,4|8,0:0|0:0,0:0:0:0:
144,152,46068,1,2,0:0:0:0:
236,188,46425,1,2,0:0:0:0:
312,124,46782,6,0,L|416:112,1,100,2|2,0:0|0:0,0:0:0:0:
456,200,47497,2,0,L|356:211,1,100,2|2,0:0|0:0,0:0:0:0:
288,284,48211,1,2,0:0:0:0:
288,284,48568,1,2,0:0:0:0:
192,260,48925,1,2,0:0:0:0:
192,260,49282,1,2,0:0:0:0:
112,200,49639,6,0,L|100:84,1,100,2|2,0:0|0:0,0:0:0:0:
192,56,50354,2,0,L|202:155,1,100,2|2,0:0|0:0,0:0:0:0:
292,204,51068,1,2,0:0:0:0:
292,204,51425,1,2,0:0:0:0:
384,160,51782,1,2,0:0:0:0:
384,160,52139,1,2,0:0:0:0:
452,232,52497,6,0,L|472:340,1,100,4|2,0:0|0:0,0:0:0:0:
380,372,53211,2,0,L|361:273,1,100,2|2,0:0|0:0,0:0:0:0:
292,204,53925,1,2,0:0:0:0:
292,204,54282,1,2,0:0:0:0:
204,248,54639,1,2,0:0:0:0:
204,248,54997,1,2,0:0:0:0:
116,196,55354,6,0,B|88:168|72:120|88:72|128:48|128:48|88:16,2,200,4|4|4,0:0|0:0|0:0,0:0:0:0:
260,336,57497,1,4,0:0:0:0:
400,196,58211,1,4,0:0:0:0:
256,192,58389,12,2,59639,0:0:0:0:
156,264,61068,6,0,P|230:325|323:302,1,200,4|2,0:0|0:0,0:0:0:0:
380,216,62139,1,8,0:0:0:0:
424,128,62497,2,0,L|444:332,2,200,2|2|2,0:0|0:0|0:0,0:0:0:0:
344,68,64282,5,8,0:0:0:0:
275,140,64639,2,0,P|188:183|96:153,2,200,2|2|2,0:0|0:0|0:0,0:0:0:0:
344,68,66425,1,8,0:0:0:0:
396,152,66782,6,0,L|400:264,1,100,2|8,0:0|0:0,0:0:0:0:
324,316,67497,2,0,P|272:316|224:327,2,100,2|8|2,0:0|0:0|0:0,0:0:0:0:
404,380,68568,1,8,0:0:0:0:
480,316,68925,2,0,L|492:204,1,100,2|8,0:0|0:0,0:0:0:0:
436,131,69639,6,0,P|388:146|339:139,1,100,2|8,0:0|0:0,0:0:0:0:
292,52,70354,2,0,L|284:228,1,150,2|4,0:0|0:0,0:0:0:0:
188,232,71247,2,0,L|196:292,1,50,4|4,0:0|0:0,0:0:0:0:
420,83,72497,6,0,P|479:161|471:258,1,200,4|2,0:0|0:0,0:0:0:0:
396,324,73568,1,8,0:0:0:0:
303,279,73925,2,0,P|205:269|117:314,2,200,2|2|2,0:0|0:0|0:0,0:0:0:0:
396,324,75711,1,8,0:0:0:0:
456,244,76068,2,0,L|464:128,1,100,2|8,0:0|0:0,0:0:0:0:
476,44,76782,6,0,B|436:36|404:60|404:60|344:16|272:28|216:88|240:168,1,300,2|8,0:0|0:0,0:0:0:0:
336,140,78211,6,0,P|352:200|320:264,1,100,4|8,0:0|0:0,0:0:0:0:
256,288,78925,1,2,0:0:0:0:
256,288,79282,1,8,0:0:0:0:
168,336,79639,2,0,P|104:324|64:288,1,100,2|8,0:0|0:0,0:0:0:0:
28,216,80354,1,2,0:0:0:0:
28,216,80711,1,8,0:0:0:0:
76,128,81068,6,0,P|117:101|167:95,1,100,8|8,0:0|0:0,0:0:0:0:
231,171,81782,2,0,P|305:173|367:132,1,150,8|4,0:0|0:0,0:0:0:0:
444,68,82675,2,0,L|452:132,1,50,4|4,0:0|0:0,0:0:0:0:
152,96,83925,6,0,L|148:204,1,100,4|8,0:0|0:0,0:0:0:0:
148,296,84639,2,0,P|222:290|296:300,2,150,2|2|8,0:0|0:0|0:0,0:0:0:0:
60,244,86068,2,0,P|40:196|40:147,1,100,2|8,0:0|0:0,0:0:0:0:
104,72,86782,5,8,0:0:0:0:
192,120,87139,1,8,0:0:0:0:
284,84,87497,2,0,L|292:140,1,50,8|8,0:0|0:0,0:0:0:0:
388,104,88032,1,4,0:0:0:0:
256,192,88211,12,0,89193,0:0:0:0:
