osu file format v12

[General]
AudioFilename: Miracle Rush.mp3
AudioLeadIn: 0
PreviewTime: 132169
Countdown: 0
SampleSet: Soft
StackLeniency: 0.7
Mode: 0
LetterboxInBreaks: 1
WidescreenStoryboard: 0

[Editor]
DistanceSpacing: 0.9
BeatDivisor: 4
GridSize: 4

[Metadata]
Title:MIRACLE RUSH
TitleUnicode:MIRACLE RUSH
Artist:StylipS
ArtistUnicode:StylipS
Creator:-S c a r l e t-
Version:Rinshan Kaihou!
Source:Saki Achiga-hen Episode of side-A
Tags:luxoDeh mahjong ako atarashi kuro matsumi yuu arata sagimora takakamo shizuno miyanaga Tsukuyomi baldrace
BeatmapID:297219
BeatmapSetID:114897

[Difficulty]
HPDrainRate:7
CircleSize:4
OverallDifficulty:7
ApproachRate:9
SliderMultiplier:2
SliderTickRate:2

[Events]
//Background and Video events
0,0,"Saki_Achiga_Hen_02.jpg",0,0
//Break Periods
2,157905,160855
//Storyboard Layer 0 (Background)
//Storyboard Layer 1 (Fail)
//Storyboard Layer 2 (Pass)
//Storyboard Layer 3 (Foreground)
//Storyboard Sound Samples
//Background Colour Transformations
3,100,163,162,255

[TimingPoints]
27,357.142857142857,4,2,1,80,1,0
1455,-100,4,2,2,80,0,0
2526,-100,4,2,2,80,0,0
5738,-100,4,2,1,80,0,0
5741,-200,4,2,1,80,0,0
6455,-100,4,2,1,80,0,0
7169,-100,4,2,1,80,0,0
9312,-100,4,2,1,80,0,0
29312,-133.333333333333,4,2,1,80,0,0
29669,-100,4,2,1,80,0,0
30026,-66.6666666666667,4,2,1,80,0,0
30294,-100,4,2,1,80,0,0
47526,-100,4,2,1,80,0,0
65741,-100,4,2,1,30,0,0
65919,-80,4,2,1,30,0,0
66098,-100,4,2,1,30,0,0
66276,-80,4,2,1,30,0,0
66455,-133.333333333333,4,2,1,80,0,0
67169,-100,4,2,1,80,0,1
77884,-100,4,2,1,80,0,0
78598,-100,4,2,1,80,0,1
87169,-100,4,2,1,80,0,0
91098,-80,4,2,1,80,0,0
92169,-100,4,2,1,80,0,0
95026,-133.333333333333,4,2,1,80,0,0
95384,-100,4,2,1,80,0,0
95741,-66.6666666666667,4,2,1,80,0,0
96009,-100,4,2,1,80,0,0
131456,-100,4,2,1,30,0,0
131634,-80,4,2,1,30,0,0
131813,-100,4,2,1,30,0,0
131991,-80,4,2,1,30,0,0
132169,-133.333333333333,4,2,1,80,0,0
132884,-100,4,2,1,80,0,1
138419,-100,4,2,1,5,0,1
138598,-100,4,2,1,80,0,1
139491,-100,4,2,1,5,0,1
139669,-100,4,2,1,80,0,1
143599,-100,4,2,1,80,0,0
144313,-100,4,2,1,80,0,1
152884,-100,4,2,1,80,0,0
157884,-133.333333333333,4,2,1,80,0,0
164134,-200,4,2,1,80,0,0
164234,-200,4,2,1,80,0,0
165741,-100,4,2,1,80,0,0
168419,-133.333333333333,4,2,1,80,0,0
169312,-66.6666666666667,4,2,1,80,0,0
169489,-66.6666666666667,4,2,1,5,0,0
169848,-66.6666666666667,4,2,1,80,0,0
170741,-100,4,2,1,80,0,0
171276,-66.6666666666667,4,2,1,80,0,0
173419,-100,4,2,1,80,0,0
178419,-66.6666666666667,4,2,1,80,0,0
181098,-100,4,2,1,80,0,0
182884,-66.6666666666667,4,2,1,80,0,0
184849,-100,4,2,1,80,0,0
195741,-66.6666666666667,4,2,1,80,0,0
197169,-50,4,2,1,80,0,0
197526,-66.6666666666667,4,2,1,80,0,0
198598,-100,4,2,1,80,0,0
200026,-100,4,2,1,80,0,1
210741,-100,4,2,1,80,0,0
211455,-100,4,2,1,80,0,1
220026,-100,4,2,1,80,0,0
223598,-100,4,2,1,80,0,0
223955,-66.6666666666667,4,2,1,80,0,0
224312,-100,4,2,1,80,0,0
227884,-100,4,2,1,60,0,0
228419,-66.6666666666667,4,2,1,80,0,0
229312,-100,4,2,1,80,0,0
230026,-66.6666666666667,4,2,1,80,0,0
231276,-66.6666666666667,4,2,1,80,0,0
232884,-100,4,2,1,80,0,0
234134,-200,4,2,1,80,0,0
236455,-66.6666666666667,4,2,1,80,0,0

[HitObjects]
224,48,1098,5,0,0:0:0:0:
176,52,1187,1,0,0:0:0:0:
136,80,1276,1,0,0:0:0:0:
116,124,1366,1,0,0:0:0:0:
116,172,1455,2,0,P|128:220|180:248,1,100,2|0,0:0|0:0,0:0:0:0:
276,280,1812,1,0,0:0:0:0:
312,176,1991,6,0,P|344:92|464:56,1,200,0|0,0:0|0:0,0:0:0:0:
228,100,2526,2,0,P|216:196|112:228,1,200
12,260,3062,1,2,0:0:0:0:
148,144,3241,1,0,0:0:0:0:
108,320,3419,1,0,0:0:0:0:
40,152,3598,1,2,0:0:0:0:
192,244,3776,1,0,0:0:0:0:
272,144,3955,1,0,0:0:0:0:
240,52,4134,6,0,P|332:52|368:144,1,200,2|0,0:0|0:0,0:0:0:0:
332,232,4669,1,2,0:0:0:0:
256,296,4848,1,0,0:0:0:0:
272,144,5026,1,2,0:0:0:0:
176,172,5205,1,2,0:0:0:0:
236,48,5384,1,0,0:0:0:0:
136,40,5562,1,0,0:0:0:0:
56,104,5741,6,0,P|36:156|52:212,1,100
168,300,6455,6,0,L|208:264,1,50
308,288,6634,2,0,L|356:244,1,50
436,108,6812,2,0,L|392:152,1,50
316,116,6991,2,0,L|272:160,1,50
196,124,7169,6,0,P|164:168|100:180,1,100
316,116,7526,2,0,P|352:72|416:60,1,100
400,160,7884,1,2,0:0:0:0:
468,236,8062,1,0,0:0:0:0:
224,196,8241,1,2,0:0:0:0:
324,200,8419,1,0,0:0:0:0:
116,160,8598,2,0,P|196:104|304:128,1,200
380,164,9134,1,0,0:0:0:0:
224,196,9312,5,0,0:0:0:0:
388,296,9491,1,0,0:0:0:0:
272,296,9669,1,0,0:0:0:0:
304,116,9848,1,0,0:0:0:0:
144,176,10026,2,0,P|92:152|80:92,1,100,2|0,0:0|0:0,0:0:0:0:
248,64,10384,2,0,P|204:64|152:104,1,100,2|0,0:0|0:0,0:0:0:0:
104,248,10741,1,0,0:0:0:0:
232,156,10919,1,0,0:0:0:0:
72,156,11098,1,0,0:0:0:0:
200,248,11276,1,0,0:0:0:0:
256,192,11455,12,0,12526,0:0:0:0:
436,200,12884,6,0,P|420:256|372:280,1,100,6|0,0:0|0:0,0:0:0:0:
168,228,13241,2,0,P|188:276|244:300,1,100,6|0,0:0|0:0,0:0:0:0:
296,200,13598,1,2,0:0:0:0:
392,128,13776,1,0,0:0:0:0:
408,8,13955,1,2,0:0:0:0:
296,52,14134,2,0,P|244:44|196:76,1,100
124,120,14491,1,0,0:0:0:0:
172,288,14669,5,0,0:0:0:0:
172,288,14759,1,0,0:0:0:0:
172,288,14848,2,0,P|124:264|116:216,1,100
124,120,15205,1,0,0:0:0:0:
228,176,15384,2,0,P|276:184|320:160,1,100,6|4,0:0|0:0,0:0:0:0:
412,160,15741,2,0,P|400:116|316:80,1,100,0|0,0:0|0:0,0:0:0:0:
232,28,16098,2,0,P|244:76|296:104,1,100
360,272,16455,2,0,P|356:228|300:188,1,100
268,176,16723,1,0,0:0:0:0:
220,176,16812,1,0,0:0:0:0:
172,160,16901,1,0,0:0:0:0:
132,128,16991,6,0,B|100:76|136:32,1,100,4|2,0:0|0:0,0:0:0:0:
220,84,17348,1,0,0:0:0:0:
360,176,17526,1,2,0:0:0:0:
312,96,17705,1,0,0:0:0:0:
344,268,17884,1,0,0:0:0:0:
236,344,18062,1,0,0:0:0:0:
228,212,18241,1,0,0:0:0:0:
344,268,18419,6,0,P|392:296|448:268,2,100
476,196,18955,1,0,0:0:0:0:
432,88,19134,1,0,0:0:0:0:
340,168,19312,1,0,0:0:0:0:
340,168,19401,1,0,0:0:0:0:
340,168,19491,2,0,B|340:116|284:76,1,100
180,64,19848,6,0,B|168:72|168:72|148:72|148:72|156:80|156:80|124:84|124:84|140:96|140:96|104:104|104:104|120:124|120:124|48:140|64:248,1,300
156,324,20562,1,0,0:0:0:0:
204,328,20651,1,0,0:0:0:0:
248,304,20741,1,2,0:0:0:0:
312,164,20919,1,0,0:0:0:0:
188,192,21098,1,12,0:0:0:0:
380,232,21276,5,0,0:0:0:0:
480,92,21455,2,0,B|464:40|396:32,1,100,12|0,0:0|0:0,0:0:0:0:
312,164,21812,2,0,B|384:156|408:92,1,100,12|0,0:0|0:0,0:0:0:0:
268,24,22169,1,10,0:0:0:0:
312,164,22348,1,10,0:0:0:0:
384,44,22526,1,0,0:0:0:0:
212,116,22705,2,0,B|192:112|192:112|192:124|192:124|168:116|168:116|164:136|164:136|140:124|140:124|136:144|136:144|68:128|8:184|24:264,1,300,4|0,0:0|0:0,0:0:0:0:
64,332,23419,5,0,0:0:0:0:
164,352,23598,1,0,0:0:0:0:
212,340,23687,1,0,0:0:0:0:
248,308,23776,1,0,0:0:0:0:
268,260,23866,1,0,0:0:0:0:
260,212,23955,2,0,P|284:160|352:144,1,100,4|0,0:0|0:0,0:0:0:0:
373,60,24312,6,0,P|417:145|364:224,2,200,12|2|0,0:0|0:0|0:0,0:0:0:0:
312,144,25205,1,0,0:0:0:0:
216,216,25383,1,2,0:0:0:0:
200,104,25562,2,0,B|184:108|184:108|180:92|180:92|156:104|156:104|152:88|152:88|76:88|52:20,1,200,0|2,0:0|0:0,0:0:0:0:
140,8,26098,1,0,0:0:0:0:
48,136,26276,1,0,0:0:0:0:
52,184,26365,1,0,0:0:0:0:
80,224,26455,1,2,0:0:0:0:
172,264,26634,6,0,B|224:284|272:256,2,100,0|0|0,0:0|0:0|0:0,0:0:0:0:
216,184,27169,2,0,B|268:144|248:76,1,100,6|0,0:0|0:0,0:0:0:0:
136,44,27526,1,0,0:0:0:0:
92,64,27616,1,0,0:0:0:0:
56,100,27705,1,0,0:0:0:0:
44,148,27794,1,0,0:0:0:0:
48,196,27883,1,4,0:0:0:0:
100,284,28062,1,4,0:0:0:0:
136,308,28419,6,0,B|152:320|152:320|168:308|168:308|176:328|176:328|200:308|200:308|248:360|336:304,1,200,4|0,0:0|0:0,0:0:0:0:
344,304,28866,1,0,0:0:0:0:
388,280,28955,1,2,0:0:0:0:
420,240,29044,1,0,0:0:0:0:
432,192,29133,1,0,0:0:0:0:
420,144,29222,1,0,0:0:0:0:
396,116,29312,6,0,P|356:96|344:48,1,75.0000028610231
276,100,29669,6,0,P|304:152|356:180,1,100
296,240,30026,6,0,P|224:192|200:108,1,150.000005722046
216,36,30383,1,8,0:0:0:0:
88,212,30562,1,0,0:0:0:0:
80,56,30740,2,0,P|124:104|108:160,1,100
128,320,31098,2,0,P|140:276|224:264,1,100,8|0,0:0|0:0,0:0:0:0:
284,232,31455,1,0,0:0:0:0:
392,72,31634,1,0,0:0:0:0:
232,152,31812,1,0,0:0:0:0:
428,156,31991,1,0,0:0:0:0:
280,72,32169,1,0,0:0:0:0:
384,232,32348,1,0,0:0:0:0:
332,156,32526,6,0,P|292:252|360:316,1,200,8|0,0:0|0:0,0:0:0:0:
480,176,33062,1,0,0:0:0:0:
332,156,33241,2,0,P|320:76|204:60,1,200,8|0,0:0|0:0,0:0:0:0:
108,80,33776,1,0,0:0:0:0:
248,128,33955,1,8,0:0:0:0:
136,220,34133,1,0,0:0:0:0:
196,60,34312,5,0,0:0:0:0:
332,124,34490,1,0,0:0:0:0:
208,244,34669,1,8,0:0:0:0:
284,48,34848,5,0,0:0:0:0:
416,120,35026,1,0,0:0:0:0:
280,264,35205,1,0,0:0:0:0:
316,344,35383,2,0,B|384:324|376:248|376:248|448:216,1,200,8|0,0:0|0:0,0:0:0:0:
432,44,35919,5,0,0:0:0:0:
336,24,36098,1,8,0:0:0:0:
428,140,36276,1,0,0:0:0:0:
328,116,36455,2,0,P|236:164|180:100,1,200,0|8,0:0|0:0,0:0:0:0:
184,20,36990,1,0,0:0:0:0:
100,76,37169,1,0,0:0:0:0:
260,88,37348,1,0,0:0:0:0:
372,36,37526,2,0,P|440:44|464:88,1,100,8|0,0:0|0:0,0:0:0:0:
436,192,37884,2,0,P|392:156|391:112,1,100,8|0,0:0|0:0,0:0:0:0:
353,231,38241,2,0,P|376:280|340:328,1,100,8|0,0:0|0:0,0:0:0:0:
288,276,38598,6,0,P|188:232|132:292,1,200
212,308,39133,2,0,L|176:112,1,200
160,32,39669,1,8,0:0:0:0:
84,124,39848,1,0,0:0:0:0:
272,84,40026,2,0,P|336:80|380:128,1,100
360,232,40384,2,0,P|312:192|308:154,1,100,8|0,0:0|0:0,0:0:0:0:
320,24,40740,1,0,0:0:0:0:
372,24,40830,1,0,0:0:0:0:
420,40,40919,1,14,0:0:0:0:
456,72,41008,1,0,0:0:0:0:
488,112,41098,2,0,P|488:164|448:204,1,100
284,328,41455,6,0,P|272:272|332:224,1,100,6|0,0:0|0:0,0:0:0:0:
360,164,41812,1,0,0:0:0:0:
264,144,41990,1,8,0:0:0:0:
292,240,42169,1,0,0:0:0:0:
336,84,42348,1,0,0:0:0:0:
184,212,42526,1,0,0:0:0:0:
392,260,42705,1,0,0:0:0:0:
184,212,42884,1,0,0:0:0:0:
392,260,43062,1,0,0:0:0:0:
252,356,43240,2,0,B|284:256,1,100,8|0,0:0|0:0,0:0:0:0:
340,104,43598,2,0,B|304:208,1,100
428,96,43955,6,0,P|372:28|268:64,1,200
208,144,44490,1,0,0:0:0:0:
340,104,44669,1,0,0:0:0:0:
476,152,44848,1,0,0:0:0:0:
436,244,45026,2,0,P|396:280|340:280,1,100
195,321,45383,2,0,P|228:285|276:272,1,100,8|0,0:0|0:0,0:0:0:0:
364,208,45741,1,0,0:0:0:0:
184,212,45919,1,0,0:0:0:0:
324,100,46098,1,8,0:0:0:0:
276,272,46276,1,0,0:0:0:0:
228,100,46455,1,0,0:0:0:0:
276,180,46634,1,0,0:0:0:0:
324,100,46812,6,0,P|416:108|456:208,1,200
292,264,47348,1,0,0:0:0:0:
292,264,47437,1,0,0:0:0:0:
292,264,47526,2,0,L|372:176,1,100,8|0,0:0|0:0,0:0:0:0:
292,264,47883,2,0,L|188:276,1,100
108,200,48240,1,8,0:0:0:0:
168,80,48419,1,0,0:0:0:0:
168,80,48508,1,0,0:0:0:0:
168,80,48598,2,0,B|264:128,1,100
348,80,48955,6,0,B|248:128,1,100,8|0,0:0|0:0,0:0:0:0:
192,312,49312,1,0,0:0:0:0:
356,200,49490,1,0,0:0:0:0:
156,200,49669,1,8,0:0:0:0:
320,312,49848,1,0,0:0:0:0:
100,300,50026,5,0,0:0:0:0:
60,216,50205,1,0,0:0:0:0:
156,200,50384,1,0,0:0:0:0:
264,184,50562,1,0,0:0:0:0:
212,100,50740,1,0,0:0:0:0:
168,16,50919,1,0,0:0:0:0:
268,4,51098,1,8,0:0:0:0:
376,28,51276,6,0,B|448:68|424:148|424:148|472:208,1,200,6|8,0:0|0:0,0:0:0:0:
416,280,51812,1,8,0:0:0:0:
340,112,51990,1,8,0:0:0:0:
340,112,52080,1,8,0:0:0:0:
340,112,52169,1,4,0:0:0:0:
284,280,52348,1,0,0:0:0:0:
244,312,52437,1,0,0:0:0:0:
200,332,52526,1,0,0:0:0:0:
152,336,52615,1,0,0:0:0:0:
104,324,52705,1,0,0:0:0:0:
68,292,52794,1,0,0:0:0:0:
48,244,52884,6,0,B|84:220|84:220|88:120|180:92,1,200,12|8,0:0|0:0,0:0:0:0:
284,280,53419,1,0,0:0:0:0:
176,196,53598,1,0,0:0:0:0:
272,76,53776,1,8,0:0:0:0:
252,308,53955,1,0,0:0:0:0:
188,168,54133,1,8,0:0:0:0:
308,60,54312,2,0,P|372:64|404:124,1,100,8|0,0:0|0:0,0:0:0:0:
332,140,54669,6,0,P|328:192|376:224,1,100,8|0,0:0|0:0,0:0:0:0:
436,352,55026,1,8,0:0:0:0:
436,224,55205,1,0,0:0:0:0:
360,352,55383,1,8,0:0:0:0:
484,288,55562,1,0,0:0:0:0:
312,288,55740,2,0,P|268:320|220:316,1,100,8|0,0:0|0:0,0:0:0:0:
80,236,56098,2,0,P|132:224|184:264,1,100,8|0,0:0|0:0,0:0:0:0:
340,139,56455,2,0,P|384:160|432:148,1,100,8|0,0:0|0:0,0:0:0:0:
287,66,56813,2,0,P|236:60|188:84,1,100,8|0,0:0|0:0,0:0:0:0:
256,192,57169,5,8,0:0:0:0:
352,192,57348,1,0,0:0:0:0:
256,276,57526,1,8,0:0:0:0:
168,192,57705,1,0,0:0:0:0:
256,100,57883,1,8,0:0:0:0:
432,192,58062,1,0,0:0:0:0:
256,192,58240,1,12,0:0:0:0:
88,192,58419,1,0,0:0:0:0:
88,192,58508,1,0,0:0:0:0:
88,192,58598,2,0,P|112:84|204:76,1,200,12|8,0:0|0:0,0:0:0:0:
256,172,59133,5,0,0:0:0:0:
188,236,59312,1,8,0:0:0:0:
164,152,59490,1,0,0:0:0:0:
272,164,59669,1,8,0:0:0:0:
184,252,59848,1,0,0:0:0:0:
148,140,60026,1,8,0:0:0:0:
288,156,60205,1,0,0:0:0:0:
180,268,60384,1,8,0:0:0:0:
132,128,60562,1,0,0:0:0:0:
304,144,60740,1,8,0:0:0:0:
176,284,60919,1,0,0:0:0:0:
112,116,61098,1,12,0:0:0:0:
324,128,61276,5,0,0:0:0:0:
324,128,61365,1,0,0:0:0:0:
324,128,61455,2,0,P|308:60|188:92,1,200,4|8,0:0|0:0,0:0:0:0:
164,152,61991,1,0,0:0:0:0:
340,244,62169,1,4,0:0:0:0:
256,100,62348,1,0,0:0:0:0:
256,288,62526,1,8,0:0:0:0:
340,156,62705,1,0,0:0:0:0:
164,244,62883,1,2,0:0:0:0:
64,188,63062,5,0,0:0:0:0:
64,188,63151,1,0,0:0:0:0:
64,188,63240,1,8,0:0:0:0:
196,192,63419,1,0,0:0:0:0:
196,192,63508,1,0,0:0:0:0:
196,191,63598,2,0,L|296:192,1,100,4|0,0:0|0:0,0:0:0:0:
440,112,63955,5,0,0:0:0:0:
360,200,64133,1,0,0:0:0:0:
432,304,64312,1,6,0:0:0:0:
376,84,64490,1,8,0:0:0:0:
308,192,64669,1,8,0:0:0:0:
380,320,64848,1,4,0:0:0:0:
316,60,65026,1,8,0:0:0:0:
260,180,65205,1,8,0:0:0:0:
316,336,65383,5,8,0:0:0:0:
316,336,65473,1,8,0:0:0:0:
316,336,65562,1,8,0:0:0:0:
192,340,65741,2,0,L|124:300,1,50
88,204,65919,2,0,L|151:237,1,62.5
260,172,66098,2,0,L|184:188,1,50
116,108,66276,2,0,L|204:76,1,62.5
100,28,66455,2,0,P|44:68|44:144,1,150.000005722046
128,288,67169,6,0,L|168:168,1,100,4|0,0:0|0:0,0:0:0:0:
184,96,67527,1,8,0:0:0:0:
256,164,67705,1,0,0:0:0:0:
296,72,67884,2,0,B|416:92,1,100,4|0,0:0|0:0,0:0:0:0:
444,176,68241,1,8,0:0:0:0:
468,272,68419,1,0,0:0:0:0:
376,316,68598,2,0,P|300:344|176:256,1,200,0|8,0:0|0:0,0:0:0:0:
112,196,69134,5,0,0:0:0:0:
228,172,69312,2,0,P|272:195|293:240,1,100,10|0,0:0|0:0,0:0:0:0:
364,112,69669,2,0,P|321:88|302:44,1,100,10|0,0:0|0:0,0:0:0:0:
215,57,70027,2,4,P|121:39|60:112,1,200,12|8,0:0|0:0,0:0:0:0:
252,144,70562,1,0,0:0:0:0:
152,120,70741,1,8,0:0:0:0:
136,260,70919,1,0,0:0:0:0:
268,112,71098,1,0,0:0:0:0:
152,120,71277,1,0,0:0:0:0:
176,272,71455,2,0,P|216:308|292:304,1,100
261,213,71812,6,0,P|320:196|344:156,1,100
384,76,72169,1,8,0:0:0:0:
344,44,72259,1,0,0:0:0:0:
296,28,72348,1,8,0:0:0:0:
248,32,72437,1,0,0:0:0:0:
204,52,72526,2,0,P|160:84|104:80,1,100
123,208,72884,6,0,P|173:205|219:224,1,100,4|0,0:0|0:0,0:0:0:0:
312,209,73241,2,0,P|268:231|219:223,1,100,4|0,0:0|0:0,0:0:0:0:
195,315,73598,2,0,P|194:266|221:225,1,100,4|0,0:0|0:0,0:0:0:0:
216,132,73955,2,0,P|234:176|222:228,1,100,4|0,0:0|0:0,0:0:0:0:
300,292,74312,1,2,0:0:0:0:
432,296,74491,1,0,0:0:0:0:
464,164,74669,5,8,0:0:0:0:
380,40,74848,1,0,0:0:0:0:
364,188,75027,1,2,0:0:0:0:
464,80,75205,1,0,0:0:0:0:
316,108,75384,2,0,P|228:140|144:72,1,200,10|2,0:0|0:0,0:0:0:0:
248,32,75919,5,0,0:0:0:0:
148,84,76098,2,0,P|48:120|56:232,1,200,10|2,0:0|0:0,0:0:0:0:
136,176,76634,1,0,0:0:0:0:
232,264,76812,1,8,0:0:0:0:
272,140,76991,2,0,P|328:60|428:64,1,200,4|8,0:0|0:0,0:0:0:0:
464,160,77526,2,0,P|400:160|364:128,1,100
232,24,77884,2,0,P|292:36|328:80,1,100
152,144,78241,2,0,P|216:132|252:92,1,100
144,220,78598,6,0,B|68:308,1,100
144,220,78955,2,0,B|252:220,1,100
440,216,79312,1,0,0:0:0:0:
292,292,79491,1,0,0:0:0:0:
372,148,79669,1,0,0:0:0:0:
372,292,79848,1,0,0:0:0:0:
292,148,80026,2,0,P|272:100|196:72,1,100,8|0,0:0|0:0,0:0:0:0:
144,220,80384,6,0,P|160:184|224:152,1,100,8|0,0:0|0:0,0:0:0:0:
364,112,80741,1,0,0:0:0:0:
152,60,80919,1,8,0:0:0:0:
328,184,81098,1,8,0:0:0:0:
208,8,81277,1,0,0:0:0:0:
248,208,81455,2,0,P|248:240|188:296,1,100
69,226,81812,2,0,P|118:232|164:212,1,100
320,88,82169,5,8,0:0:0:0:
164,212,82348,1,8,0:0:0:0:
364,212,82526,1,0,0:0:0:0:
208,88,82705,1,0,0:0:0:0:
268,280,82884,2,0,P|312:320|376:316,1,100
348,236,83241,2,0,P|404:224|420:164,1,100
384,88,83598,1,0,0:0:0:0:
344,56,83687,1,0,0:0:0:0:
296,44,83777,1,0,0:0:0:0:
248,44,83866,1,0,0:0:0:0:
200,56,83955,6,0,P|108:96|88:196,1,200,12|4,0:0|0:0,0:0:0:0:
112,272,84491,1,0,0:0:0:0:
184,160,84669,1,0,0:0:0:0:
20,260,84848,1,0,0:0:0:0:
184,328,85027,2,0,P|244:336|292:296,1,100
356,256,85384,1,8,0:0:0:0:
276,196,85562,1,0,0:0:0:0:
360,140,85741,2,0,P|360:88|400:40,1,100,8|0,0:0|0:0,0:0:0:0:
284,96,86098,6,0,P|244:136|184:144,1,100,8|0,0:0|0:0,0:0:0:0:
196,44,86455,1,0,0:0:0:0:
96,112,86634,1,0,0:0:0:0:
148,232,86812,1,12,0:0:0:0:
268,228,86991,1,0,0:0:0:0:
288,112,87169,2,0,L|412:104,1,100,12|0,0:0|0:0,0:0:0:0:
364,212,87526,2,0,L|296:284,1,100,12|0,0:0|0:0,0:0:0:0:
256,308,87794,1,0,0:0:0:0:
212,316,87884,1,0,0:0:0:0:
168,312,87973,1,0,0:0:0:0:
124,300,88062,1,0,0:0:0:0:
92,268,88152,1,0,0:0:0:0:
76,228,88241,1,0,0:0:0:0:
68,184,88330,1,0,0:0:0:0:
76,140,88419,6,0,P|144:76|244:88,1,200,12|8,0:0|0:0,0:0:0:0:
376,208,88955,1,8,0:0:0:0:
180,164,89134,1,0,0:0:0:0:
308,312,89312,1,0,0:0:0:0:
296,116,89491,1,0,0:0:0:0:
188,284,89669,1,0,0:0:0:0:
56,252,89848,5,0,0:0:0:0:
56,252,89937,1,0,0:0:0:0:
56,252,90026,2,0,P|96:224|92:164,1,100
36,120,90384,2,0,P|80:92|152:112,1,100,8|0,0:0|0:0,0:0:0:0:
220,132,90741,1,0,0:0:0:0:
128,96,90919,1,0,0:0:0:0:
288,64,91098,2,0,B|296:80|296:80|308:72|308:72|312:96|312:96|324:80|324:80|324:104|324:104|348:88|348:88|440:120|424:224,1,250,8|0,0:0|0:0,0:0:0:0:
364,284,91634,5,0,0:0:0:0:
252,340,91812,1,8,0:0:0:0:
260,216,91991,1,0,0:0:0:0:
260,216,92080,1,0,0:0:0:0:
260,216,92169,2,0,P|244:164|164:168,1,100,2|0,0:0|0:0,0:0:0:0:
60,72,92526,2,0,P|52:128|120:160,1,100,2|0,0:0|0:0,0:0:0:0:
236,32,92884,2,0,P|190:50|170:94,1,100,2|0,0:0|0:0,0:0:0:0:
176,284,93241,2,0,P|224:252|224:192,1,100,2|0,0:0|0:0,0:0:0:0:
224,164,93509,1,0,0:0:0:0:
224,164,93598,2,0,P|176:148|136:96,1,100,2|0,0:0|0:0,0:0:0:0:
292,288,94134,6,0,B|296:276|296:276|308:288|308:288|312:272|312:272|316:276|316:276|380:236,1,100
392,224,94401,1,0,0:0:0:0:
420,188,94491,1,0,0:0:0:0:
416,144,94580,1,0,0:0:0:0:
396,100,94669,1,0,0:0:0:0:
352,76,94759,1,0,0:0:0:0:
304,68,94848,1,0,0:0:0:0:
256,84,94937,1,0,0:0:0:0:
224,104,95026,6,0,P|200:108|160:48,1,75.0000028610231
112,4,95384,6,0,P|84:32|80:100,1,100
8,152,95741,6,0,P|68:184|156:148,1,150.000005722046
256,104,96098,1,8,0:0:0:0:
256,280,96276,1,0,0:0:0:0:
328,132,96455,1,0,0:0:0:0:
180,264,96634,1,8,0:0:0:0:
356,200,96812,1,0,0:0:0:0:
160,196,96991,1,0,0:0:0:0:
360,288,97169,1,0,0:0:0:0:
144,96,97348,1,8,0:0:0:0:
256,328,97526,1,0,0:0:0:0:
256,56,97705,1,0,0:0:0:0:
148,292,97884,1,0,0:0:0:0:
360,96,98063,1,0,0:0:0:0:
352,192,98241,6,0,L|148:192,1,200
52,204,98777,1,0,0:0:0:0:
68,104,98955,1,0,0:0:0:0:
124,196,99134,1,8,0:0:0:0:
140,80,99312,1,0,0:0:0:0:
192,192,99490,1,0,0:0:0:0:
208,60,99669,1,8,0:0:0:0:
264,188,99848,1,0,0:0:0:0:
336,352,100027,5,0,0:0:0:0:
336,184,100205,1,0,0:0:0:0:
400,320,100384,1,8,0:0:0:0:
408,180,100563,1,0,0:0:0:0:
464,292,100741,1,0,0:0:0:0:
476,176,100920,1,0,0:0:0:0:
428,48,101098,6,0,P|312:40|256:120,1,200
224,204,101634,1,0,0:0:0:0:
272,304,101813,1,8,0:0:0:0:
328,208,101991,1,0,0:0:0:0:
376,108,102170,2,0,P|304:52|180:56,1,200,0|8,0:0|0:0,0:0:0:0:
92,72,102705,1,0,0:0:0:0:
168,152,102884,1,0,0:0:0:0:
200,48,103063,1,0,0:0:0:0:
68,168,103241,6,0,P|80:220|132:248,1,100,8|0,0:0|0:0,0:0:0:0:
128,324,103598,2,0,P|180:324|224:272,1,100,8|0,0:0|0:0,0:0:0:0:
292,340,103955,2,0,P|332:296|316:244,1,100,8|0,0:0|0:0,0:0:0:0:
404,224,104312,2,0,P|396:172|352:144,1,100,8|0,0:0|0:0,0:0:0:0:
240,188,104669,1,0,0:0:0:0:
352,60,104848,2,0,B|284:60|264:124,1,100
240,188,105205,1,0,0:0:0:0:
64,272,105384,1,8,0:0:0:0:
192,300,105563,1,0,0:0:0:0:
124,168,105741,2,0,P|140:116|192:84,1,100
308,44,106098,6,0,B|312:104|232:128,1,100,8|0,0:0|0:0,0:0:0:0:
124,168,106455,2,0,L|64:208,3,50
128,228,106812,2,0,L|80:272,3,50
132,296,107170,6,0,P|172:320|236:312,1,100,6|0,0:0|0:0,0:0:0:0:
384,280,107527,1,8,0:0:0:0:
188,244,107705,1,0,0:0:0:0:
388,264,107884,5,0,0:0:0:0:
192,228,108063,1,0,0:0:0:0:
392,248,108241,5,0,0:0:0:0:
196,212,108420,1,0,0:0:0:0:
396,232,108599,5,0,0:0:0:0:
200,196,108777,1,0,0:0:0:0:
404,212,108955,6,0,P|404:168|456:124,1,100,8|0,0:0|0:0,0:0:0:0:
352,56,109313,2,0,P|344:112|304:144,1,100
228,184,109670,5,2,0:0:0:0:
144,136,109848,1,0,0:0:0:0:
228,184,110027,1,2,0:0:0:0:
264,72,110205,1,0,0:0:0:0:
228,184,110384,1,0,0:0:0:0:
56,120,110563,1,0,0:0:0:0:
68,244,110741,2,0,P|124:264|176:240,1,100
208,180,111098,2,0,P|244:220|244:276,1,100
212,344,111456,5,0,0:0:0:0:
132,240,111634,1,0,0:0:0:0:
300,300,111813,1,8,0:0:0:0:
224,148,111991,1,0,0:0:0:0:
384,256,112170,1,0,0:0:0:0:
332,76,112348,1,0,0:0:0:0:
260,48,112526,2,0,P|168:64|120:176,1,200
164,252,113062,1,0,0:0:0:0:
164,252,113241,2,0,P|232:245|280:200,1,100,8|0,0:0|0:0,0:0:0:0:
204,156,113598,6,0,B|228:120|272:124|272:124|304:104,1,100
400,64,113955,1,8,0:0:0:0:
288,248,114134,1,0,0:0:0:0:
288,248,114223,1,0,0:0:0:0:
288,248,114312,2,0,B|312:212|356:216|356:216|373:205,1,100
364,316,114669,2,0,B|340:352|296:348|296:348|278:358,1,100
184,320,115027,1,0,0:0:0:0:
180,160,115205,1,0,0:0:0:0:
84,288,115384,1,8,0:0:0:0:
236,236,115563,1,0,0:0:0:0:
84,192,115741,5,0,0:0:0:0:
184,48,115920,1,0,0:0:0:0:
260,188,116099,1,0,0:0:0:0:
172,228,116277,1,0,0:0:0:0:
336,156,116455,1,0,0:0:0:0:
316,336,116634,1,0,0:0:0:0:
232,308,116813,1,8,0:0:0:0:
392,284,116991,6,0,P|472:192|424:96,1,200,6|8,0:0|0:0,0:0:0:0:
376,188,117527,1,8,0:0:0:0:
284,280,117705,1,0,0:0:0:0:
240,304,117794,1,0,0:0:0:0:
188,304,117884,1,0,0:0:0:0:
84,252,118062,1,0,0:0:0:0:
112,208,118152,1,0,0:0:0:0:
148,176,118241,1,0,0:0:0:0:
192,156,118330,1,0,0:0:0:0:
240,144,118420,1,0,0:0:0:0:
288,140,118509,1,0,0:0:0:0:
336,152,118599,6,0,B|352:104|352:104|336:32|208:40,1,200,12|8,0:0|0:0,0:0:0:0:
96,104,119134,1,0,0:0:0:0:
232,40,119313,1,8,0:0:0:0:
144,208,119491,1,0,0:0:0:0:
232,40,119670,1,8,0:0:0:0:
236,284,119848,1,0,0:0:0:0:
368,284,120027,2,0,P|396:236|384:188,1,100,8|0,0:0|0:0,0:0:0:0:
360,56,120384,2,0,P|320:92|320:148,1,100,8|0,0:0|0:0,0:0:0:0:
316,260,120741,5,8,0:0:0:0:
208,124,120920,1,0,0:0:0:0:
208,260,121098,1,8,0:0:0:0:
316,124,121277,1,0,0:0:0:0:
144,192,121455,2,0,L|32:192,1,100,8|0,0:0|0:0,0:0:0:0:
376,192,121812,2,0,L|512:192,1,100,8|0,0:0|0:0,0:0:0:0:
256,340,122169,2,0,L|256:228,1,100,8|0,0:0|0:0,0:0:0:0:
256,48,122526,2,0,L|256:152,1,100,8|0,0:0|0:0,0:0:0:0:
184,128,122884,5,0,0:0:0:0:
184,260,123063,1,8,0:0:0:0:
312,260,123241,1,0,0:0:0:0:
312,128,123420,1,0,0:0:0:0:
336,108,123598,5,8,0:0:0:0:
336,288,123777,1,0,0:0:0:0:
156,288,123955,1,12,0:0:0:0:
156,108,124134,1,0,0:0:0:0:
156,108,124223,1,0,0:0:0:0:
156,108,124313,2,0,B|224:80|224:80|304:96|344:152,1,200,12|8,0:0|0:0,0:0:0:0:
384,272,124848,5,0,0:0:0:0:
268,236,125027,1,8,0:0:0:0:
364,152,125205,1,0,0:0:0:0:
384,272,125384,1,8,0:0:0:0:
232,220,125563,1,0,0:0:0:0:
356,116,125741,1,8,0:0:0:0:
384,272,125920,1,0,0:0:0:0:
196,204,126098,1,8,0:0:0:0:
348,88,126276,1,0,0:0:0:0:
384,272,126455,1,8,0:0:0:0:
160,188,126634,1,0,0:0:0:0:
340,56,126813,1,12,0:0:0:0:
384,272,126991,1,0,0:0:0:0:
384,272,127080,1,0,0:0:0:0:
384,272,127170,6,0,P|296:332|204:320,1,200,4|8,0:0|0:0,0:0:0:0:
140,248,127705,1,0,0:0:0:0:
212,176,127884,1,4,0:0:0:0:
116,148,128063,1,0,0:0:0:0:
296,176,128241,1,8,0:0:0:0:
256,84,128420,1,0,0:0:0:0:
356,248,128598,1,2,0:0:0:0:
408,148,128777,1,0,0:0:0:0:
408,148,128866,1,0,0:0:0:0:
408,148,128955,1,8,0:0:0:0:
256,272,129134,1,0,0:0:0:0:
256,272,129223,1,0,0:0:0:0:
256,272,129313,6,0,B|256:172,1,100,4|0,0:0|0:0,0:0:0:0:
180,64,129670,1,0,0:0:0:0:
72,180,129848,1,0,0:0:0:0:
128,332,130027,1,6,0:0:0:0:
216,72,130205,1,8,0:0:0:0:
108,188,130384,1,8,0:0:0:0:
168,332,130563,1,4,0:0:0:0:
260,84,130741,1,8,0:0:0:0:
148,196,130920,1,8,0:0:0:0:
208,332,131098,5,8,0:0:0:0:
208,332,131188,1,8,0:0:0:0:
208,332,131277,1,8,0:0:0:0:
316,284,131456,2,0,L|356:313,1,50
384,232,131634,2,0,L|312:188,1,62.5
220,60,131813,2,0,L|284:100,1,50
248,172,131991,2,0,L|184:136,1,62.5
144,68,132169,2,0,P|103:127|128:195,1,150.000005722046
412,192,132884,6,0,P|408:256|368:284,1,100,4|0,0:0|0:0,0:0:0:0:
292,316,133242,1,8,0:0:0:0:
196,336,133420,1,0,0:0:0:0:
104,296,133599,2,0,B|128:240|208:224,1,100,4|0,0:0|0:0,0:0:0:0:
260,168,133956,1,8,0:0:0:0:
172,128,134134,1,0,0:0:0:0:
76,136,134313,6,4,P|120:52|220:52,1,200,4|8,0:0|0:0,0:0:0:0:
260,168,134849,1,0,0:0:0:0:
212,288,135027,2,0,P|236:332|312:348,1,100,10|0,0:0|0:0,0:0:0:0:
260,180,135384,2,0,P|292:224|296:272,1,100
216,72,135741,2,4,P|180:112|200:184,1,100,12|8,0:0|0:0,0:0:0:0:
376,68,136098,6,0,L|432:60,2,50
216,72,136456,1,8,0:0:0:0:
360,176,136634,1,0,0:0:0:0:
296,8,136813,1,0,0:0:0:0:
256,176,136992,1,0,0:0:0:0:
256,176,137080,1,0,0:0:0:0:
256,176,137169,2,0,P|216:196|140:188,1,100
312,256,137526,2,0,P|328:204|400:168,1,100
440,128,137884,1,8,0:0:0:0:
408,96,137974,1,0,0:0:0:0:
364,84,138062,1,8,0:0:0:0:
320,96,138152,1,0,0:0:0:0:
280,120,138241,2,0,P|236:100|216:40,1,100,4|4,0:0|0:0,0:0:0:0:
99,75,138598,6,0,P|125:116|123:165,1,100,4|0,0:0|0:0,0:0:0:0:
143,250,138956,2,0,P|114:211|124:164,1,100,4|0,0:0|0:0,0:0:0:0:
215,159,139313,2,4,P|170:179|124:164,1,100
32,168,139669,2,0,P|77:148|124:164,1,100,4|0,0:0|0:0,0:0:0:0:
224,176,140027,5,2,0:0:0:0:
292,104,140206,1,0,0:0:0:0:
224,180,140384,1,8,0:0:0:0:
384,120,140563,1,0,0:0:0:0:
224,180,140742,1,2,0:0:0:0:
460,172,140920,1,0,0:0:0:0:
460,172,141009,1,0,0:0:0:0:
460,172,141098,6,0,P|476:252|344:300,1,200,10|2,0:0|0:0,0:0:0:0:
272,312,141634,1,0,0:0:0:0:
392,224,141812,2,0,P|304:244|220:168,1,200,10|2,0:0|0:0,0:0:0:0:
196,56,142349,1,0,0:0:0:0:
196,56,142526,1,8,0:0:0:0:
320,164,142706,6,0,P|284:252|156:276,1,200,4|8,0:0|0:0,0:0:0:0:
144,284,143152,1,0,0:0:0:0:
100,272,143241,1,0,0:0:0:0:
184,168,143419,1,0,0:0:0:0:
36,180,143598,2,0,P|64:144|128:132,1,100
336,108,143955,2,0,P|304:152|236:160,1,100
296,324,144313,6,0,P|260:288|256:220,1,100
120,168,144670,2,0,B|175:199|175:267,1,100,8|0,0:0|0:0,0:0:0:0:
224,148,145027,2,0,B|204:108|256:76|256:76|252:40,1,100,8|0,0:0|0:0,0:0:0:0:
132,76,145384,1,0,0:0:0:0:
300,144,145563,1,0,0:0:0:0:
480,72,145741,2,0,B|408:68|380:132,1,100,8|0,0:0|0:0,0:0:0:0:
368,256,146098,2,0,B|428:244|436:176,1,100,8|0,0:0|0:0,0:0:0:0:
360,128,146456,5,0,0:0:0:0:
296,48,146634,1,8,0:0:0:0:
284,156,146813,1,8,0:0:0:0:
184,32,146991,1,0,0:0:0:0:
208,188,147169,2,0,P|168:220|148:268,1,100
208,320,147526,2,0,P|160:344|116:340,1,100
64,208,147884,5,8,0:0:0:0:
256,132,148062,1,8,0:0:0:0:
208,272,148241,1,0,0:0:0:0:
112,88,148420,1,0,0:0:0:0:
248,40,148598,2,0,P|320:56|348:96,1,100
416,52,148955,2,0,P|452:96|440:148,1,100
424,236,149313,1,0,0:0:0:0:
396,276,149402,1,0,0:0:0:0:
356,304,149492,1,0,0:0:0:0:
308,316,149581,1,0,0:0:0:0:
260,316,149670,6,0,B|180:324|104:272|108:168,1,200,12|4,0:0|0:0,0:0:0:0:
168,88,150206,1,0,0:0:0:0:
248,200,150384,1,0,0:0:0:0:
112,212,150562,1,0,0:0:0:0:
168,88,150742,2,0,P|207:48|280:56,1,100
344,72,151099,1,8,0:0:0:0:
420,136,151277,1,0,0:0:0:0:
444,232,151455,6,0,B|428:292|348:300,1,100
356,216,151812,2,0,B|292:212|256:284,1,100
200,308,152169,1,0,0:0:0:0:
88,184,152349,1,0,0:0:0:0:
128,320,152527,1,12,0:0:0:0:
164,168,152706,1,0,0:0:0:0:
232,72,152884,6,0,B|360:52,1,100,12|0,0:0|0:0,0:0:0:0:
448,200,153241,2,0,B|360:136,1,100,12|0,0:0|0:0,0:0:0:0:
324,116,153509,1,0,0:0:0:0:
280,92,153599,1,0,0:0:0:0:
232,92,153688,1,0,0:0:0:0:
184,104,153777,1,0,0:0:0:0:
140,128,153867,1,0,0:0:0:0:
108,168,153956,1,0,0:0:0:0:
92,216,154045,1,0,0:0:0:0:
96,264,154134,6,0,B|136:320|216:336|296:300,1,200,12|8,0:0|0:0,0:0:0:0:
328,216,154670,1,8,0:0:0:0:
256,28,154849,1,0,0:0:0:0:
192,216,155027,1,0,0:0:0:0:
360,104,155206,1,0,0:0:0:0:
160,96,155384,1,0,0:0:0:0:
256,192,155562,12,0,157705,0:0:0:0:
404,48,161455,6,0,L|312:72,1,75.0000028610231
260,152,161812,1,0,0:0:0:0:
120,88,161991,2,0,L|196:120,1,75.0000028610231
260,228,162348,1,0,0:0:0:0:
356,252,162526,2,0,P|308:312|233:313,1,150.000005722046
144,268,163062,5,0,0:0:0:0:
84,196,163241,1,0,0:0:0:0:
108,108,163419,1,0,0:0:0:0:
188,64,163598,1,0,0:0:0:0:
280,76,163776,1,0,0:0:0:0:
336,140,163955,1,0,0:0:0:0:
308,236,164134,6,0,P|404:212|428:108,1,200
336,140,165026,2,0,P|244:168|216:256,1,175
192,280,165741,6,0,L|128:304,3,50
132,248,166098,2,0,L|80:228,3,50
104,188,166455,2,0,L|80:112,3,50
140,148,166812,6,4,P|164:100|212:72,1,100,0|4,0:0|0:0,0:0:0:0:
300,68,167169,6,0,B|400:100,3,100,0|0|0|0,0:0|0:0|0:0|0:0,0:0:0:0:
436,192,167884,1,0,0:0:0:0:
396,284,168062,1,0,0:0:0:0:
336,204,168241,1,0,0:0:0:0:
240,148,168419,1,0,0:0:0:0:
136,148,168598,2,0,P|136:208|176:248,1,112.500004291535
136,280,168955,6,0,P|192:304|264:272,1,112.500004291535,0|0,0:0|0:0,0:0:0:0:
272,340,169312,6,4,P|328:284|348:212,1,150.000005722046,4|4,0:0|0:0,0:0:0:0:
348,220,169848,6,0,B|328:196|328:196|316:208|316:208|312:184|312:184|296:204|296:204|280:184|280:184|272:200|272:200|164:244|96:140,1,300.000011444092
132,64,170384,1,0,0:0:0:0:
204,128,170562,1,0,0:0:0:0:
272,52,170741,2,0,P|328:56|376:100,1,100
420,164,171098,1,0,0:0:0:0:
424,272,171276,2,0,B|400:292|400:292|380:268|380:268|368:288|368:288|352:260|352:260|328:280|328:280|308:252|308:252|240:296|156:224,1,300.000011444092
164,136,171812,5,0,0:0:0:0:
140,96,171901,1,0,0:0:0:0:
116,56,171991,1,0,0:0:0:0:
256,128,172170,1,0,0:0:0:0:
256,84,172259,1,0,0:0:0:0:
256,40,172348,1,0,0:0:0:0:
352,136,172526,1,0,0:0:0:0:
380,100,172615,1,0,0:0:0:0:
408,64,172705,1,0,0:0:0:0:
396,224,172884,2,0,B|380:252|380:252|360:232|360:232|356:268|356:268|328:248|328:248|272:332|160:272,1,300.000011444092
120,172,173419,5,0,0:0:0:0:
244,212,173598,1,0,0:0:0:0:
336,100,173776,1,0,0:0:0:0:
432,188,173955,1,0,0:0:0:0:
362,304,174134,2,0,P|320:331|272:328,1,100
184,328,174491,1,0,0:0:0:0:
176,244,174669,2,0,P|120:236|92:176,1,100
164,156,175026,2,0,P|136:104|176:44,1,100
232,96,175384,2,0,P|268:64|324:72,1,100
344,196,175741,5,8,0:0:0:0:
248,224,175919,1,8,0:0:0:0:
156,184,176098,1,8,0:0:0:0:
128,88,176276,1,4,0:0:0:0:
232,264,176634,5,8,0:0:0:0:
116,200,176812,1,8,0:0:0:0:
80,80,176991,1,4,0:0:0:0:
212,300,177348,5,8,0:0:0:0:
76,220,177527,1,8,0:0:0:0:
48,80,177705,1,4,0:0:0:0:
192,340,178062,5,8,0:0:0:0:
40,240,178241,1,8,0:0:0:0:
24,84,178419,2,0,B|40:64|40:64|48:96|48:96|60:64|60:64|72:96|72:96|84:64|84:64|96:96|96:96|108:64|108:64|120:96|120:96|132:64|132:64|144:96|144:96|156:64|156:64|168:96|168:96|180:64|180:64|192:96|192:96|204:64|204:64|216:96|216:96|228:64|228:64|240:96|240:96|252:64|252:64|264:96|264:96|276:64|276:64|288:96|288:96|300:64|300:64|312:96|312:96|324:64|324:64|336:96|336:96|348:64|348:64|360:96|360:96|372:64|372:64|424:80|448:132,1,1050.00004005432
476,308,179848,1,0,0:0:0:0:
476,308,179937,1,0,0:0:0:0:
476,308,180026,2,0,B|460:328|460:328|452:296|452:296|440:328|440:328|428:296|428:296|416:328|416:328|404:296|404:296|392:328|392:328|380:296|380:296|368:328|368:328|356:296|356:296|344:328|344:328|332:296|332:296|320:328|320:328|308:296|308:296|296:328|296:328|284:296|284:296|272:328|272:328|248:296|248:296|192:328|192:328|144:320|132:272,1,750.000028610231
112,168,181098,5,0,0:0:0:0:
224,144,181276,2,8,P|276:160|312:200,1,100,2|2,0:0|0:0,0:0:0:0:
112,168,181991,1,0,0:0:0:0:
224,144,182169,2,8,P|272:128|324:128,1,100
112,168,182705,1,0,0:0:0:0:
224,144,182884,2,8,P|256:92|360:68,1,150.000005722046
464,108,183240,1,0,0:0:0:0:
328,160,183419,1,0,0:0:0:0:
448,248,183598,1,8,0:0:0:0:
388,112,183776,5,0,0:0:0:0:
312,56,183955,1,0,0:0:0:0:
204,84,184134,2,0,P|136:100|68:180,1,150.000005722046,0|8,0:0|0:0,0:0:0:0:
272,132,184848,1,0,0:0:0:0:
172,168,185026,2,8,P|136:224|152:280,1,100
312,56,185562,1,0,0:0:0:0:
176,124,185741,1,8,0:0:0:0:
312,192,185919,1,0,0:0:0:0:
228,56,186098,1,0,0:0:0:0:
228,192,186276,1,0,0:0:0:0:
344,124,186455,6,8,P|412:148|424:204,1,100,0|0,0:0|0:0,0:0:0:0:
432,204,186723,1,0,0:0:0:0:
432,240,186813,1,0,0:0:0:0:
420,272,186902,1,0,0:0:0:0:
400,300,186991,1,0,0:0:0:0:
368,316,187081,1,0,0:0:0:0:
336,324,187169,6,0,L|232:320,1,100,0|0,0:0|0:0,0:0:0:0:
148,304,187526,1,0,0:0:0:0:
148,304,187705,1,0,0:0:0:0:
112,124,187884,2,0,L|216:128,1,100
284,136,188241,1,0,0:0:0:0:
284,136,188420,1,0,0:0:0:0:
388,228,188598,6,0,P|368:288|304:312,1,100
148,304,188955,2,0,P|156:252|216:204,1,100
348,124,189312,2,0,P|296:88|240:104,1,100
108,72,189669,1,0,0:0:0:0:
100,168,189848,1,0,0:0:0:0:
132,264,190026,1,0,0:0:0:0:
236,312,190205,1,0,0:0:0:0:
432,272,190384,5,0,0:0:0:0:
420,172,190563,1,0,0:0:0:0:
360,100,190741,1,0,0:0:0:0:
256,100,190920,1,0,0:0:0:0:
208,12,191098,5,0,0:0:0:0:
172,108,191277,1,0,0:0:0:0:
224,196,191455,1,0,0:0:0:0:
324,228,191634,1,0,0:0:0:0:
320,108,191812,5,0,0:0:0:0:
396,160,191991,1,0,0:0:0:0:
428,244,192169,1,0,0:0:0:0:
420,340,192348,1,0,0:0:0:0:
328,360,192526,6,0,P|264:344|248:296,1,100
256,192,192884,12,0,195384,0:0:0:0:
312,248,195741,6,0,P|376:316|340:208,1,300.000011444092
252,104,196455,6,0,P|152:54|211:150,1,300.000011444092
312,248,197169,6,0,P|364:288|340:208,1,200
200,248,197526,6,0,P|132:316|184:216,1,300.000011444092
420,120,198598,6,0,P|432:180|392:244,1,100
400,256,198866,1,0,0:0:0:0:
376,292,198954,1,8,0:0:0:0:
260,228,199134,1,8,0:0:0:0:
224,260,199223,1,0,0:0:0:0:
180,284,199312,6,0,B|112:264|112:184,1,100,4|0,0:0|0:0,0:0:0:0:
188,56,199669,2,0,P|188:116|128:144,1,100
292,96,200026,2,0,B|344:76|396:116,1,100,4|0,0:0|0:0,0:0:0:0:
432,208,200384,1,8,0:0:0:0:
356,292,200562,1,0,0:0:0:0:
240,328,200741,6,0,B|180:328|156:252,1,100,4|0,0:0|0:0,0:0:0:0:
124,140,201098,1,8,0:0:0:0:
224,72,201276,1,0,0:0:0:0:
348,56,201455,2,0,B|424:56|472:128|452:200,1,200,0|8,0:0|0:0,0:0:0:0:
356,156,201991,5,0,0:0:0:0:
368,248,202169,2,0,B|400:272|400:272|412:328|452:340,1,100,10|0,0:0|0:0,0:0:0:0:
308,332,202526,2,0,B|276:340|248:296|248:296|212:304,1,100,10|0,0:0|0:0,0:0:0:0:
120,332,202884,6,4,B|36:296|24:200|92:136,1,200,8|12,0:0|0:0,0:0:0:0:
128,60,203419,1,0,0:0:0:0:
248,120,203598,1,8,0:0:0:0:
264,240,203776,1,0,0:0:0:0:
168,40,203955,1,0,0:0:0:0:
248,120,204134,1,0,0:0:0:0:
236,268,204312,2,0,P|188:276|140:236,1,100
248,120,204669,2,0,P|304:128|348:196,1,100
384,292,205026,1,8,0:0:0:0:
340,316,205116,1,0,0:0:0:0:
292,324,205205,1,8,0:0:0:0:
244,320,205294,1,0,0:0:0:0:
200,296,205384,2,0,P|144:272|128:228,1,100
160,132,205741,6,0,P|200:96|272:96,1,100,4|0,0:0|0:0,0:0:0:0:
240,180,206098,2,0,P|304:232|336:224,1,100,4|0,0:0|0:0,0:0:0:0:
380,88,206455,2,0,P|328:112|316:168,1,100,4|0,0:0|0:0,0:0:0:0:
468,216,206812,2,0,P|412:164|380:172,1,100,4|0,0:0|0:0,0:0:0:0:
264,128,207169,5,0,0:0:0:0:
380,88,207348,1,2,0:0:0:0:
344,184,207526,1,8,0:0:0:0:
300,48,207705,1,0,0:0:0:0:
172,152,207884,1,2,0:0:0:0:
64,188,208062,1,0,0:0:0:0:
64,188,208151,1,0,0:0:0:0:
64,188,208241,6,0,P|140:280|232:268,1,200,10|2,0:0|0:0,0:0:0:0:
316,228,208776,1,0,0:0:0:0:
60,312,208955,2,0,P|120:232|238:204,1,200,10|2,0:0|0:0,0:0:0:0:
328,124,209491,1,0,0:0:0:0:
380,224,209669,1,8,0:0:0:0:
432,128,209848,6,0,P|396:52|256:44,1,200,4|8,0:0|0:0,0:0:0:0:
216,96,210384,1,0,0:0:0:0:
120,52,210562,2,0,P|88:88|88:156,1,100
88,240,210919,1,0,0:0:0:0:
112,284,211009,1,0,0:0:0:0:
152,316,211098,1,0,0:0:0:0:
200,324,211187,1,0,0:0:0:0:
248,320,211276,1,0,0:0:0:0:
296,308,211366,1,0,0:0:0:0:
336,280,211455,6,0,P|392:264|412:220,1,100
272,132,211812,2,0,B|340:208,1,100,8|0,0:0|0:0,0:0:0:0:
132,96,212169,2,0,B|204:176,1,100,8|0,0:0|0:0,0:0:0:0:
156,232,212526,1,0,0:0:0:0:
216,80,212705,1,0,0:0:0:0:
24,84,212883,2,0,B|92:160,1,100,8|0,0:0|0:0,0:0:0:0:
232,196,213241,2,0,B|164:120,1,100,8|0,0:0|0:0,0:0:0:0:
316,80,213598,5,0,0:0:0:0:
432,148,213776,1,8,0:0:0:0:
416,48,213955,1,8,0:0:0:0:
332,180,214134,1,0,0:0:0:0:
228,120,214312,2,0,P|168:128|128:116,1,100
116,300,214669,2,0,P|160:248|216:232,1,100
336,320,215026,5,8,0:0:0:0:
300,128,215205,1,8,0:0:0:0:
400,276,215383,1,0,0:0:0:0:
232,164,215562,1,0,0:0:0:0:
256,332,215741,2,0,L|160:296,1,100
72,244,216098,2,0,P|72:192|112:140,1,100
168,76,216455,1,0,0:0:0:0:
212,52,216544,1,0,0:0:0:0:
260,44,216634,1,0,0:0:0:0:
308,52,216723,1,0,0:0:0:0:
356,68,216812,6,0,P|428:100|420:212,1,200,12|4,0:0|0:0,0:0:0:0:
344,268,217348,1,0,0:0:0:0:
244,188,217526,1,0,0:0:0:0:
140,260,217705,1,0,0:0:0:0:
52,184,217884,2,0,P|76:136|136:120,1,100
256,104,218241,1,8,0:0:0:0:
388,184,218419,1,0,0:0:0:0:
352,320,218598,6,0,B|236:300,1,100,8|0,0:0|0:0,0:0:0:0:
296,160,218955,2,0,B|192:224,1,100,8|0,0:0|0:0,0:0:0:0:
32,236,219312,1,0,0:0:0:0:
192,324,219491,1,0,0:0:0:0:
124,156,219669,1,0,0:0:0:0:
76,328,219848,1,12,0:0:0:0:
124,156,220026,6,0,B|176:64,1,100,12|0,0:0|0:0,0:0:0:0:
296,216,220383,2,0,B|344:128,1,100,12|0,0:0|0:0,0:0:0:0:
280,60,220741,2,0,L|229:146,1,100
120,240,221098,1,0,0:0:0:0:
120,240,221187,1,0,0:0:0:0:
120,240,221276,6,0,P|104:148|200:88,1,200,12|8,0:0|0:0,0:0:0:0:
280,60,221812,1,8,0:0:0:0:
432,244,221991,1,0,0:0:0:0:
192,184,222169,1,0,0:0:0:0:
420,88,222348,1,0,0:0:0:0:
296,296,222526,1,0,0:0:0:0:
288,200,222705,5,0,0:0:0:0:
288,200,222794,1,0,0:0:0:0:
288,200,222883,1,0,0:0:0:0:
288,200,222972,1,0,0:0:0:0:
288,200,223062,1,0,0:0:0:0:
288,200,223151,1,0,0:0:0:0:
288,200,223241,6,0,B|184:176,1,100,8|0,0:0|0:0,0:0:0:0:
96,92,223598,2,0,L|60:144,1,50,8|0,0:0|0:0,0:0:0:0:
208,72,223776,2,8,L|176:110,1,50
252,160,223955,2,0,P|204:224|300:316,1,225.000008583069,8|0,0:0|0:0,0:0:0:0:
316,308,224312,6,0,B|412:244,1,100,8|0,0:0|0:0,0:0:0:0:
392,152,224669,1,8,0:0:0:0:
320,80,224848,1,0,0:0:0:0:
320,80,224937,1,0,0:0:0:0:
320,80,225026,2,0,B|220:120,1,100,2|0,0:0|0:0,0:0:0:0:
160,232,225384,2,0,B|280:184,1,100,2|0,0:0|0:0,0:0:0:0:
404,224,225741,2,0,B|308:268,1,100,2|0,0:0|0:0,0:0:0:0:
160,232,226098,2,0,B|256:196,1,100,2|0,0:0|0:0,0:0:0:0:
284,184,226366,1,0,0:0:0:0:
312,168,226455,6,0,P|312:120|276:68,1,100
88,148,226812,2,0,P|132:120|192:132,1,100
320,268,227169,2,0,P|264:284|220:264,1,100
128,268,227526,1,0,0:0:0:0:
212,184,227705,1,0,0:0:0:0:
344,80,227884,2,0,L|300:116,1,50
380,154,228062,2,0,L|332:168,1,50
372,234,228241,2,0,L|324:224,1,50
336,312,228419,2,0,B|300:292|300:292|284:316|284:316|280:292|280:292|244:312|244:312|244:288|244:288|160:332|92:272,1,300.000011444092
60,200,228955,5,0,0:0:0:0:
60,200,229134,1,0,0:0:0:0:
116,96,229312,2,0,P|164:60|232:56,1,100
216,136,229669,2,0,P|272:136|316:96,1,100
408,128,230026,2,0,B|428:192|428:192|388:184|388:184|408:240|408:240|360:228|360:228|376:304|240:352|128:312,1,450.000017166138
64,232,230741,5,0,0:0:0:0:
96,92,230919,1,0,0:0:0:0:
224,156,231098,1,0,0:0:0:0:
272,36,231276,2,0,B|328:48|328:48|320:80|320:80|368:84|368:84|348:104|348:104|378:114|378:114|372:128|372:128|400:144|400:144|396:156|396:156|416:164|416:164|444:284|296:296,1,450.000017166138
140,300,231991,5,0,0:0:0:0:
140,300,232080,1,0,0:0:0:0:
140,300,232169,1,0,0:0:0:0:
160,116,232348,1,0,0:0:0:0:
52,248,232526,1,0,0:0:0:0:
236,264,232705,1,0,0:0:0:0:
68,152,232884,2,0,P|80:68|208:32,2,200
240,172,233776,1,0,0:0:0:0:
256,192,234134,12,0,236276,0:0:0:0:
256,120,236455,5,0,0:0:0:0:
256,264,236634,1,0,0:0:0:0:
176,192,236812,1,0,0:0:0:0:
332,192,236991,1,0,0:0:0:0:
256,192,237080,12,0,242973,0:0:0:0:
