osu file format v12

[General]
AudioFilename: Miracle Rush.mp3
AudioLeadIn: 0
PreviewTime: 132169
Countdown: 0
SampleSet: Soft
StackLeniency: 0.7
Mode: 0
LetterboxInBreaks: 1
WidescreenStoryboard: 1

[Editor]
DistanceSpacing: 1.1
BeatDivisor: 4
GridSize: 4

[Metadata]
Title:MIRACLE RUSH
TitleUnicode:MIRACLE RUSH
Artist:StylipS
ArtistUnicode:StylipS
Creator:-S c a r l e t-
Version:Hard
Source:Saki Achiga-hen Episode of side-A
Tags:luxoDeh mahjong ako atarashi kuro matsumi yuu arata sagimora takakamo shizuno miyanaga Tsukuyomi baldrace
BeatmapID:306461
BeatmapSetID:114897

[Difficulty]
HPDrainRate:4
CircleSize:4
OverallDifficulty:5
ApproachRate:7
SliderMultiplier:1.5
SliderTickRate:2

[Events]
//Background and Video events
0,0,"Saki_Achiga_Hen_02.jpg",0,0
//Break Periods
2,95941,97341
2,167012,171984
//Storyboard Layer 0 (Background)
//Storyboard Layer 1 (Fail)
//Storyboard Layer 2 (Pass)
//Storyboard Layer 3 (Foreground)
//Storyboard Sound Samples
//Background Colour Transformations
3,100,163,162,255

[TimingPoints]
27,357.142857142857,4,2,1,80,1,0
1455,-100,4,2,2,80,0,0
5738,-100,4,2,1,80,0,0
5741,-100,4,2,1,80,0,0
9312,-100,4,2,1,80,0,0
15026,-100,4,2,1,80,0,0
29669,-100,4,2,1,80,0,0
30294,-100,4,2,1,80,0,0
67169,-100,4,2,1,80,0,1
77884,-100,4,2,1,80,0,0
78598,-100,4,2,1,80,0,1
87169,-100,4,2,1,80,0,0
91098,-80,4,2,1,80,0,0
92169,-100,4,2,1,80,0,0
95026,-100,4,2,1,80,0,0
95384,-100,4,2,1,80,0,0
95741,-66.6666666666667,4,2,1,80,0,0
95841,-66.6666666666667,4,2,1,80,0,0
96009,-100,4,2,1,80,0,0
132169,-100,4,2,1,80,0,0
132884,-100,4,2,1,80,0,1
143598,-100,4,2,1,80,0,0
144312,-100,4,2,1,80,0,1
152884,-100,4,2,1,80,0,0
157884,-100,4,2,1,80,0,0
164134,-100,4,2,1,80,0,0
165829,-100,4,2,1,80,0,0
168419,-100,4,2,1,80,0,0
169312,-66.6666666666667,4,2,1,80,0,0
170741,-100,4,2,1,80,0,0
171276,-100,4,2,1,80,0,0
173419,-100,4,2,1,80,0,0
178419,-100,4,2,1,80,0,0
181098,-100,4,2,1,80,0,0
198598,-100,4,2,1,80,0,0
200026,-100,4,2,1,80,0,1
210741,-100,4,2,1,80,0,0
211455,-100,4,2,1,80,0,1
220026,-100,4,2,1,80,0,0
223955,-100,4,2,1,80,0,0
224312,-100,4,2,1,80,0,0
227884,-100,4,2,1,80,0,0
228419,-100,4,2,1,80,0,0
230741,-100,4,2,1,80,0,0
231276,-66.6666666666667,4,2,1,80,0,0
232884,-100,4,2,1,80,0,0
234134,-200,4,2,1,80,0,0

[HitObjects]
120,60,1098,2,0,L|56:32,2,37.5
184,112,1455,1,0,0:0:0:0:
196,192,1634,2,0,P|200:228|252:260,1,75
288,200,1991,2,0,P|312:268|244:332,1,150,2|0,0:0|0:0,0:0:0:0:
288,200,2526,2,0,P|360:144|352:80,1,150,2|0,0:0|0:0,0:0:0:0:
296,40,3062,5,0,0:0:0:0:
272,120,3241,1,0,0:0:0:0:
200,160,3419,1,0,0:0:0:0:
128,200,3598,2,0,P|104:168|104:128,1,75
120,52,3955,1,0,0:0:0:0:
120,52,4134,1,2,0:0:0:0:
256,192,4312,12,2,5741,0:0:0:0:
340,60,6455,5,0,0:0:0:0:
416,92,6634,1,0,0:0:0:0:
420,224,6812,1,0,0:0:0:0:
352,176,6991,1,0,0:0:0:0:
288,124,7169,2,0,P|272:192|332:252,1,150,4|0,0:0|0:0,0:0:0:0:
140,252,7884,2,0,B|72:332,2,75
152,172,8419,1,0,0:0:0:0:
72,156,8598,2,0,B|80:108|124:80|168:88|168:88|192:48,1,150,2|0,0:0|0:0,0:0:0:0:
364,84,9312,6,0,B|452:16,2,75,2|0|2,0:0|0:0|0:0,0:0:0:0:
324,156,9848,1,0,0:0:0:0:
408,152,10026,2,0,P|368:232|292:232,1,150,2|0,0:0|0:0,0:0:0:0:
188,284,10741,1,0,0:0:0:0:
152,212,10919,1,0,0:0:0:0:
264,192,11098,1,0,0:0:0:0:
300,116,11276,1,0,0:0:0:0:
332,40,11455,2,0,P|384:96|344:180,2,150,2|0|0,0:0|0:0|0:0,0:0:0:0:
208,148,12526,1,4,0:0:0:0:
80,256,12884,5,0,0:0:0:0:
128,324,13062,1,0,0:0:0:0:
208,344,13241,1,0,0:0:0:0:
284,316,13419,1,0,0:0:0:0:
348,264,13598,2,0,P|416:236|423:147,1,150,2|8,0:0|0:0,0:0:0:0:
352,188,14134,2,0,P|332:108|252:80,1,150
272,160,14669,1,2,0:0:0:0:
272,160,14848,1,0,0:0:0:0:
200,196,15026,2,0,B|120:252,1,75,8|0,0:0|0:0,0:0:0:0:
68,284,15384,5,0,0:0:0:0:
96,172,15562,1,0,0:0:0:0:
196,300,15741,1,8,0:0:0:0:
308,256,16098,1,8,0:0:0:0:
424,300,16455,1,8,0:0:0:0:
424,300,16544,1,8,0:0:0:0:
424,300,16634,2,8,P|440:260|408:208,1,75
416,148,16991,6,0,B|380:144|380:144|372:68|280:64,1,150,8|10,0:0|0:0,0:0:0:0:
296,148,17526,2,0,P|244:156|224:192,1,75,8|0,0:0|0:0,0:0:0:0:
220,252,17884,1,2,0:0:0:0:
296,224,18062,1,2,0:0:0:0:
364,272,18241,1,0,0:0:0:0:
408,204,18419,1,4,0:0:0:0:
256,192,18598,12,8,19669,0:0:0:0:
412,104,20026,2,0,L|368:204,1,75
424,244,20384,2,0,P|340:244|300:176,1,150,8|2,0:0|0:0,0:0:0:0:
316,108,20919,1,0,0:0:0:0:
232,112,21098,1,8,0:0:0:0:
216,192,21276,1,0,0:0:0:0:
256,264,21455,6,0,B|204:332|116:316,1,150,2|8,0:0|0:0,0:0:0:0:
68,164,22169,1,0,0:0:0:0:
88,84,22348,1,0,0:0:0:0:
164,52,22526,1,8,0:0:0:0:
248,52,22705,2,0,P|340:56|368:124,1,150,4|0,0:0|0:0,0:0:0:0:
288,120,23241,2,0,B|208:140,1,75,8|0,0:0|0:0,0:0:0:0:
140,176,23598,1,0,0:0:0:0:
128,204,23687,1,0,0:0:0:0:
116,232,23776,1,0,0:0:0:0:
104,256,23866,1,0,0:0:0:0:
92,284,23955,6,0,B|160:304|160:304|192:272|256:256,1,150
388,288,24669,2,0,P|432:268|452:244,1,75
436,168,25026,1,0,0:0:0:0:
396,96,25205,1,0,0:0:0:0:
320,68,25384,1,0,0:0:0:0:
240,76,25562,2,0,P|152:84|112:158,1,150,2|0,0:0|0:0,0:0:0:0:
104,232,26098,1,8,0:0:0:0:
140,308,26276,5,0,0:0:0:0:
140,308,26366,1,0,0:0:0:0:
140,308,26455,2,0,B|220:252,1,75,2|0,0:0|0:0,0:0:0:0:
284,260,26812,2,0,B|340:320,1,75,8|0,0:0|0:0,0:0:0:0:
416,328,27169,5,4,0:0:0:0:
444,164,27526,1,8,0:0:0:0:
324,52,27884,2,0,L|240:100,1,75
108,288,28419,6,0,P|160:200|208:184,1,150,4|0,0:0|0:0,0:0:0:0:
328,140,28955,1,0,0:0:0:0:
360,160,29044,1,0,0:0:0:0:
392,180,29134,1,0,0:0:0:0:
424,200,29223,1,0,0:0:0:0:
448,216,29312,2,0,B|460:272|460:272|408:312|340:292,1,168.750006437302,4|4,0:0|0:0,0:0:0:0:
212,320,30026,1,4,0:0:0:0:
136,292,30205,6,0,B|124:256|124:256|184:224|176:152,1,150,2|0,0:0|0:0,0:0:0:0:
96,176,30741,2,0,B|48:116,1,75,0|0,0:0|0:0,0:0:0:0:
124,80,31098,2,0,B|200:12,1,75,8|0,0:0|0:0,0:0:0:0:
264,32,31455,1,0,0:0:0:0:
344,44,31634,1,0,0:0:0:0:
412,92,31812,1,0,0:0:0:0:
440,172,31991,1,0,0:0:0:0:
424,252,32169,2,0,P|404:288|360:308,1,75
344,228,32526,2,0,B|260:220|200:284,1,150,10|2,0:0|0:0,0:0:0:0:
128,292,33062,5,0,0:0:0:0:
108,212,33241,2,0,B|116:128,1,75,8|0,0:0|0:0,0:0:0:0:
196,144,33598,2,0,B|240:80,2,75,0|0|8,0:0|0:0|0:0,0:0:0:0:
280,152,34134,1,0,0:0:0:0:
348,104,34312,1,0,0:0:0:0:
432,100,34491,1,0,0:0:0:0:
484,164,34669,1,8,0:0:0:0:
476,248,34848,1,0,0:0:0:0:
412,300,35026,2,0,B|396:340|332:348,1,75
272,340,35384,6,0,B|181:355|145:283,1,150,10|2,0:0|0:0,0:0:0:0:
152,200,35919,6,0,B|128:164|88:160,2,75,0|8|0,0:0|0:0|0:0,0:0:0:0:
212,144,36455,2,0,B|260:80|344:76,1,150,0|8,0:0|0:0,0:0:0:0:
412,116,36991,1,0,0:0:0:0:
444,192,37169,1,0,0:0:0:0:
408,268,37348,2,0,B|448:276|492:328,2,75,0|8|0,0:0|0:0|0:0,0:0:0:0:
345,322,37884,2,0,P|332:232|372:188,1,150,0|8,0:0|0:0,0:0:0:0:
300,44,38598,6,0,B|204:32|166:108,1,150,0|8,0:0|0:0,0:0:0:0:
256,128,39134,2,0,B|272:216|196:276,1,150
140,304,39669,1,8,0:0:0:0:
60,288,39848,2,0,B|84:224|140:224|140:224|172:184,1,150
132,116,40384,2,0,B|216:68,1,75,8|0,0:0|0:0,0:0:0:0:
272,48,40741,2,0,B|336:24,3,37.5,2|0|0|0,0:0|0:0|0:0|0:0,0:0:0:0:
312,76,41098,2,0,B|376:96,3,37.5,4|0|0|0,0:0|0:0|0:0|0:0,0:0:0:0:
340,128,41455,6,0,P|380:148|396:196,1,75,4|0,0:0|0:0,0:0:0:0:
320,208,41812,1,8,0:0:0:0:
260,268,41991,1,0,0:0:0:0:
180,252,42169,2,0,P|144:256|120:296,2,75,0|0|8,0:0|0:0|0:0,0:0:0:0:
272,196,42705,1,0,0:0:0:0:
348,272,42884,2,0,B|368:308|432:316,2,75,0|0|8,0:0|0:0|0:0,0:0:0:0:
256,292,43419,1,0,0:0:0:0:
209,219,43598,2,0,B|209:171|236:152,1,75,0|0,0:0|0:0,0:0:0:0:
292,88,43955,6,0,P|216:72|156:120,1,150,10|2,0:0|0:0,0:0:0:0:
92,156,44491,5,0,0:0:0:0:
76,236,44669,2,0,B|94:265|134:281,1,75,8|0,0:0|0:0,0:0:0:0:
208,320,45026,1,0,0:0:0:0:
292,316,45205,1,0,0:0:0:0:
364,272,45384,2,0,B|404:264|432:228,1,75,8|0,0:0|0:0,0:0:0:0:
360,184,45741,2,0,B|396:160|404:116,1,75
320,116,46098,2,0,B|348:84|344:40,1,75,8|0,0:0|0:0,0:0:0:0:
264,72,46455,2,0,B|280:32|248:0,1,75
192,52,46812,6,0,B|160:8|124:16|124:16|112:56|60:48,1,150,10|2,0:0|0:0,0:0:0:0:
80,132,47348,2,0,B|32:212,2,75,0|8|0,0:0|0:0|0:0,0:0:0:0:
136,196,47884,2,0,P|172:268|264:276,1,150,0|8,0:0|0:0,0:0:0:0:
316,268,48419,1,0,0:0:0:0:
380,216,48598,1,0,0:0:0:0:
404,136,48776,2,0,B|444:144|468:176,2,75,0|8|0,0:0|0:0|0:0,0:0:0:0:
324,152,49312,2,0,P|268:132|252:20,1,150,0|8,0:0|0:0,0:0:0:0:
396,8,50026,5,0,0:0:0:0:
336,64,50205,1,0,0:0:0:0:
396,120,50384,1,8,0:0:0:0:
456,176,50562,1,0,0:0:0:0:
412,244,50741,2,0,B|364:320,1,75
292,284,51098,2,0,B|344:208,1,75,8|4,0:0|0:0,0:0:0:0:
292,108,51634,5,8,0:0:0:0:
372,96,51812,2,0,P|332:36|247:44,2,150,8|2|2,0:0|0:0|0:0,0:0:0:0:
352,268,52884,6,0,B|400:240|408:184,1,75,12|0,0:0|0:0,0:0:0:0:
328,196,53241,2,0,B|340:152|296:104,1,75,8|0,0:0|0:0,0:0:0:0:
260,176,53598,2,0,B|240:140|184:144,2,75,8|0|8,0:0|0:0|0:0,0:0:0:0:
220,256,54134,1,0,0:0:0:0:
152,228,54312,6,0,B|148:189|120:161,1,75,8|0,0:0|0:0,0:0:0:0:
196,144,54669,2,0,B|220:112|196:56,1,75,8|0,0:0|0:0,0:0:0:0:
276,88,55026,2,0,B|316:72|324:20,2,75,8|0|8,0:0|0:0|0:0,0:0:0:0:
352,120,55562,1,0,0:0:0:0:
328,200,55741,6,0,P|408:184|436:128,2,150,8|8|8,0:0|0:0|0:0,0:0:0:0:
256,293,56812,2,0,P|192:280|124:340,2,150,8|8|8,0:0|0:0|0:0,0:0:0:0:
224,148,57884,2,0,B|176:164|112:152|84:68,2,150,8|8|12,0:0|0:0|0:0,0:0:0:0:
284,204,58776,5,0,0:0:0:0:
336,268,58955,2,0,L|404:308,1,75,8|0,0:0|0:0,0:0:0:0:
404,216,59312,2,0,B|488:184,2,75,8|0|8,0:0|0:0|0:0,0:0:0:0:
376,136,59848,2,0,P|348:68|264:48,1,150
284,128,60384,1,8,0:0:0:0:
200,124,60562,1,8,0:0:0:0:
184,40,60741,2,0,P|140:56|120:100,1,75
128,160,61098,2,0,P|136:200|112:236,1,75
44,196,61455,6,0,B|24:244|64:292|64:292|24:332,1,150,4|0,0:0|0:0,0:0:0:0:
112,348,61991,2,0,P|232:336|256:292,2,150,0|0|0,0:0|0:0|0:0,0:0:0:0:
172,272,62884,1,2,0:0:0:0:
372,168,63241,1,0,0:0:0:0:
332,240,63419,2,0,B|288:216|288:216|312:152|256:112,1,150
212,184,63955,1,0,0:0:0:0:
144,140,64134,1,0,0:0:0:0:
144,140,64223,1,0,0:0:0:0:
144,140,64312,6,0,B|192:72,1,75,12|0,0:0|0:0,0:0:0:0:
92,80,64669,2,0,B|4:36,2,75,0|8|0,0:0|0:0|0:0,0:0:0:0:
68,160,65205,1,0,0:0:0:0:
100,236,65384,2,0,B|48:264,2,37.5,8|0|0,0:0|0:0|0:0,0:0:0:0:
168,280,65741,5,2,0:0:0:0:
248,300,65919,1,2,0:0:0:0:
328,276,66098,1,2,0:0:0:0:
368,204,66276,1,2,0:0:0:0:
388,124,66455,6,0,B|432:100|440:52,2,75,0|0|2,0:0|0:0|0:0,0:0:0:0:
308,104,66991,1,0,0:0:0:0:
224,100,67169,6,0,B|184:20|72:44,1,150,4|8,0:0|0:0,0:0:0:0:
76,204,67884,2,0,B|120:136,1,75
192,176,68241,2,0,B|148:244,1,75
228,272,68598,2,0,B|268:212|268:212|296:244|360:224,1,150,0|8,0:0|0:0,0:0:0:0:
376,68,69312,6,0,B|408:40|444:44,2,75,2|0|8,0:0|0:0|0:0,0:0:0:0:
304,104,69848,1,0,0:0:0:0:
264,32,70026,2,0,B|172:40|148:128,1,150,2|8,0:0|0:0,0:0:0:0:
176,196,70562,2,0,P|212:176|236:116,1,75
304,104,70919,1,0,0:0:0:0:
380,140,71098,1,8,0:0:0:0:
412,216,71276,1,0,0:0:0:0:
376,288,71455,2,0,B|340:368|224:352,2,150,2|8|0,0:0|0:0|0:0,0:0:0:0:
268,264,72348,2,0,B|241:253|193:261,2,75,0|4|0,0:0|0:0|0:0,0:0:0:0:
296,188,72884,6,0,B|264:160|216:172,1,75,4|0,0:0|0:0,0:0:0:0:
332,120,73241,2,0,B|316:88|264:76,1,75,8|0,0:0|0:0,0:0:0:0:
368,36,73598,2,0,P|424:104|400:184,1,150,0|8,0:0|0:0,0:0:0:0:
376,232,74134,1,0,0:0:0:0:
316,288,74312,2,0,B|332:320|392:328,1,75,2|0,0:0|0:0,0:0:0:0:
260,356,74669,2,0,B|216:352|188:328,1,75,8|0,0:0|0:0,0:0:0:0:
120,288,75026,1,2,0:0:0:0:
176,132,75384,6,0,B|220:128|248:96,1,75,8|0,0:0|0:0,0:0:0:0:
240,20,75741,2,0,B|296:12|324:60|328:88|328:88|380:80,1,150,2|8,0:0|0:0,0:0:0:0:
448,220,76455,2,0,B|420:260|380:256,1,75,2|0,0:0|0:0,0:0:0:0:
312,224,76812,1,8,0:0:0:0:
292,304,76991,2,0,B|196:332|136:240,1,150,2|2,0:0|0:0,0:0:0:0:
84,216,77526,1,8,0:0:0:0:
140,60,77884,6,0,B|200:92,3,37.5
160,116,78241,2,0,B|208:140,3,37.5,0|0|0|0,0:0|0:0|0:0|0:0,0:0:0:0:
180,172,78598,6,0,B|260:196|288:144|288:144|344:140,1,150,4|8,0:0|0:0,0:0:0:0:
380,292,79312,2,0,B|340:272|328:236,1,75
408,216,79669,1,8,0:0:0:0:
444,144,79848,1,0,0:0:0:0:
468,64,80026,2,0,B|404:44|340:100|364:164,1,150,0|8,0:0|0:0,0:0:0:0:
252,260,80741,6,0,B|288:236|304:176,1,75,2|0,0:0|0:0,0:0:0:0:
216,188,81098,2,0,B|192:224|148:236,1,75,8|0,0:0|0:0,0:0:0:0:
136,152,81455,2,0,B|204:104|212:20,2,150,2|8|2,0:0|0:0|0:0,0:0:0:0:
76,208,82348,1,0,0:0:0:0:
132,268,82526,2,0,B|184:260|216:208,1,75,8|0,0:0|0:0,0:0:0:0:
256,192,82884,12,4,83956,0:0:0:0:
352,104,84312,6,0,B|384:132|432:108,2,75,4|0|8,0:0|0:0|0:0,0:0:0:0:
304,172,84848,1,0,0:0:0:0:
348,240,85026,2,0,B|312:300|252:280|252:280|192:296,1,150,0|8,0:0|0:0,0:0:0:0:
136,276,85562,2,0,B|128:184|204:132,1,150
248,200,86098,2,0,B|280:172|276:128,1,75,8|0,0:0|0:0,0:0:0:0:
232,64,86455,1,4,0:0:0:0:
396,56,86812,6,8,B|432:80|436:132,1,75,8|0,0:0|0:0,0:0:0:0:
384,184,87169,2,0,P|304:152|300:68,2,150,8|8|8,0:0|0:0|0:0,0:0:0:0:
392,268,88062,2,0,B|456:276,2,37.5,0|0|2,0:0|0:0|0:0,0:0:0:0:
320,304,88419,6,0,B|244:324|168:280,1,150,4|8,0:0|0:0,0:0:0:0:
116,224,88955,1,8,0:0:0:0:
116,224,89134,1,0,0:0:0:0:
160,152,89312,2,0,B|220:212,1,75
276,64,89669,2,0,B|244:140,1,75,2|0,0:0|0:0,0:0:0:0:
256,192,90026,12,8,91811,0:0:0:0:
88,144,92169,5,0,0:0:0:0:
144,84,92348,1,0,0:0:0:0:
224,64,92526,1,0,0:0:0:0:
308,68,92705,1,0,0:0:0:0:
380,108,92884,2,0,P|412:168|376:244,2,150
328,172,93776,1,0,0:0:0:0:
208,284,94134,2,0,P|140:232|136:96,1,225
284,32,95026,5,4,0:0:0:0:
244,192,95384,1,4,0:0:0:0:
404,136,95741,1,4,0:0:0:0:
256,192,98241,5,4,0:0:0:0:
256,192,98598,1,4,0:0:0:0:
256,64,100026,5,4,0:0:0:0:
256,312,101098,2,0,B|340:348,2,75,2|2|4,0:0|0:0|0:0,0:0:0:0:
320,260,101634,6,0,B|368:264|400:216,2,75,0|8|0,0:0|0:0|0:0,0:0:0:0:
332,180,102169,2,0,P|384:144|384:52,1,150,0|8,0:0|0:0,0:0:0:0:
316,96,102705,1,0,0:0:0:0:
236,80,102884,1,0,0:0:0:0:
156,64,103062,2,0,B|112:92|104:144,2,75,0|8|0,0:0|0:0|0:0,0:0:0:0:
196,136,103598,2,0,B|184:180|184:180|136:216|168:292,1,150,0|8,0:0|0:0,0:0:0:0:
324,300,104312,6,0,B|396:256|392:164,1,150,0|8,0:0|0:0,0:0:0:0:
364,96,104848,2,0,B|332:108|332:108|292:88|236:96|220:152,1,150
292,184,105384,1,8,0:0:0:0:
220,264,105562,2,0,B|252:252|252:252|292:272|348:264|364:208,1,150
372,148,106098,2,0,B|356:108|292:88,1,75,8|0,0:0|0:0,0:0:0:0:
236,80,106455,2,0,B|184:92,3,37.5,2|0|0|0,0:0|0:0|0:0|0:0,0:0:0:0:
220,124,106812,2,0,B|180:140,3,37.5,4|0|0|0,0:0|0:0|0:0|0:0,0:0:0:0:
200,176,107169,6,0,B|160:188|128:232,1,75,4|0,0:0|0:0,0:0:0:0:
208,260,107526,2,0,B|240:253|268:217,1,75,8|0,0:0|0:0,0:0:0:0:
344,252,107884,1,0,0:0:0:0:
416,212,108062,1,0,0:0:0:0:
416,212,108241,2,0,B|448:184|440:128,1,75,8|0,0:0|0:0,0:0:0:0:
360,156,108598,2,0,B|348:76|260:48,2,150,0|8|0,0:0|0:0|0:0,0:0:0:0:
308,220,109491,1,0,0:0:0:0:
232,248,109669,2,0,B|216:160|120:128,1,150,10|2,0:0|0:0,0:0:0:0:
112,212,110205,5,0,0:0:0:0:
156,284,110384,2,0,B|216:344,1,75,8|0,0:0|0:0,0:0:0:0:
284,308,110741,1,0,0:0:0:0:
360,276,110919,1,0,0:0:0:0:
396,204,111098,2,0,B|460:148,1,75,8|0,0:0|0:0,0:0:0:0:
364,128,111455,2,0,B|400:96|400:56,2,75,0|0|8,0:0|0:0|0:0,0:0:0:0:
292,168,111991,1,0,0:0:0:0:
304,88,112169,2,0,B|312:52|276:16,1,75
224,84,112526,6,0,B|204:128|204:128|136:128|120:200,1,150,10|2,0:0|0:0,0:0:0:0:
200,216,113062,6,0,B|224:308|336:300,1,150,0|0,0:0|0:0,0:0:0:0:
300,208,113598,2,0,B|380:216|392:272|392:272|440:232,1,150,0|8,0:0|0:0,0:0:0:0:
428,88,114312,1,0,0:0:0:0:
344,92,114491,2,0,B|304:76|284:44,2,75,0|8|0,0:0|0:0|0:0,0:0:0:0:
316,168,115026,2,0,B|280:144|280:144|252:192|156:176,1,150,0|8,0:0|0:0,0:0:0:0:
160,68,115741,6,0,B|112:88|124:148,1,75
60,184,116098,2,0,B|71:217|124:256,1,75,8|0,0:0|0:0,0:0:0:0:
80,320,116455,2,0,B|104:348|160:352,2,75,0|0|8,0:0|0:0|0:0,0:0:0:0:
168,272,116991,1,2,0:0:0:0:
316,328,117348,5,8,0:0:0:0:
368,264,117526,2,0,B|420:232,3,37.5,8|0|0|0,0:0|0:0|0:0|0:0,0:0:0:0:
368,216,117884,2,0,B|384:176,3,37.5,12|0|0|0,0:0|0:0|0:0|0:0,0:0:0:0:
340,180,118241,2,0,B|344:136|312:84,1,75,8|0,0:0|0:0,0:0:0:0:
276,172,118598,6,0,P|260:128|228:96,1,75
216,184,118955,2,0,P|196:152|152:128,1,75
176,212,119312,2,0,P|144:196|92:204,1,75
164,256,119669,2,0,P|120:264|92:308,1,75
184,328,120026,2,0,B|244:320|244:264,1,75,8|0,0:0|0:0,0:0:0:0:
308,196,120384,2,0,B|260:188|224:224,1,75,8|0,0:0|0:0,0:0:0:0:
332,272,120741,2,0,B|388:272|416:216,2,75,8|0|8,0:0|0:0|0:0,0:0:0:0:
296,100,121455,6,0,B|264:120|264:120|240:52|148:64,1,150,8|8,0:0|0:0,0:0:0:0:
176,232,122169,2,0,B|120:188|120:188|196:132,1,150,8|8,0:0|0:0,0:0:0:0:
144,304,122884,2,0,B|184:324|228:292,1,75,8|0,0:0|0:0,0:0:0:0:
248,224,123241,2,0,B|296:224|324:188,1,75,8|0,0:0|0:0,0:0:0:0:
320,116,123598,2,0,B|408:124|456:40,2,150,0|4|12,0:0|0:0|0:0,0:0:0:0:
236,116,124491,5,0,0:0:0:0:
164,76,124669,2,0,B|116:104|104:152,1,75,8|0,0:0|0:0,0:0:0:0:
172,188,125026,2,0,B|160:228|200:272,1,75,8|0,0:0|0:0,0:0:0:0:
272,260,125384,2,0,B|300:296|352:300,1,75,8|0,0:0|0:0,0:0:0:0:
352,216,125741,2,0,B|436:252|488:176,2,150,8|8|8,0:0|0:0|0:0,0:0:0:0:
404,152,126634,2,0,B|436:104|492:108,2,75,0|4|0,0:0|0:0|0:0,0:0:0:0:
344,96,127169,6,0,B|256:64|200:140,1,150,4|0,0:0|0:0,0:0:0:0:
172,204,127705,2,0,B|88:196|60:112,1,150
136,80,128241,1,0,0:0:0:0:
212,52,128419,2,0,B|272:48|272:48|252:96|312:152,1,150,0|0,0:0|0:0,0:0:0:0:
348,72,128955,1,0,0:0:0:0:
404,132,129134,2,0,B|448:136|476:164,2,75,0|4|0,0:0|0:0|0:0,0:0:0:0:
412,212,129669,1,0,0:0:0:0:
412,212,129848,5,0,0:0:0:0:
412,212,130026,2,0,B|420:256|356:288,1,75,10|0,0:0|0:0,0:0:0:0:
296,288,130384,2,0,B|288:244|344:208,2,75,0|10|0,0:0|0:0|0:0,0:0:0:0:
212,288,130919,1,0,0:0:0:0:
144,240,131098,2,0,B|88:232,3,37.5,8|8|8|0,0:0|0:0|0:0|0:0,0:0:0:0:
136,204,131455,5,2,0:0:0:0:
84,116,131634,1,2,0:0:0:0:
216,176,131812,1,2,0:0:0:0:
200,76,131991,1,2,0:0:0:0:
300,160,132169,6,0,B|344:128|348:80,2,75,0|0|2,0:0|0:0|0:0,0:0:0:0:
316,240,132705,1,0,0:0:0:0:
316,240,132884,2,0,P|328:304|406:335,1,150,4|8,0:0|0:0,0:0:0:0:
440,192,133598,2,0,B|436:160|496:116,2,75,0|0|8,0:0|0:0|0:0,0:0:0:0:
368,228,134134,1,0,0:0:0:0:
300,184,134312,2,0,B|288:136|188:68,1,150,0|8,0:0|0:0,0:0:0:0:
60,164,135026,2,0,B|48:184|72:240,1,75
152,224,135384,2,0,B|148:268|208:300,1,75,8|0,0:0|0:0,0:0:0:0:
268,276,135741,6,0,B|264:208|184:136,1,150,2|8,0:0|0:0,0:0:0:0:
136,92,136276,1,0,0:0:0:0:
204,44,136455,2,0,B|248:60|264:96,1,75
272,172,136812,2,0,B|312:184|348:176,1,75,8|0,0:0|0:0,0:0:0:0:
348,260,137169,2,0,B|428:256|476:192,2,150,2|8|2,0:0|0:0|0:0,0:0:0:0:
264,252,138062,2,0,B|224:252|180:260,2,75,0|4|0,0:0|0:0|0:0,0:0:0:0:
208,340,138598,6,0,B|168:344|128:324,1,75,4|0,0:0|0:0,0:0:0:0:
76,272,138955,2,0,B|56:240|60:196,1,75,8|0,0:0|0:0,0:0:0:0:
112,136,139312,2,0,B|128:60|216:32,1,150,0|8,0:0|0:0,0:0:0:0:
276,84,139848,1,0,0:0:0:0:
328,148,140026,2,0,B|368:132|384:96,2,75,0|0|8,0:0|0:0|0:0,0:0:0:0:
256,188,140562,1,0,0:0:0:0:
172,200,140741,1,2,0:0:0:0:
284,320,141098,2,0,B|324:316|352:288,1,75,8|0,0:0|0:0,0:0:0:0:
396,220,141455,6,0,B|408:144|464:80,1,150,2|8,0:0|0:0,0:0:0:0:
300,44,142169,2,0,B|288:120|224:172,1,150,2|8,0:0|0:0,0:0:0:0:
152,212,142705,2,0,B|76:248|48:328,1,150,6|4,0:0|0:0,0:0:0:0:
51,318,143241,1,4,0:0:0:0:
240,336,143598,6,0,B|264:300,3,37.5
280,268,143955,2,0,B|296:232,3,37.5,4|0|0|0,0:0|0:0|0:0|0:0,0:0:0:0:
300,192,144312,6,0,B|292:112|212:80,1,150,4|8,0:0|0:0,0:0:0:0:
208,244,145026,2,0,B|224:280|268:288,1,75
348,288,145384,2,0,B|388:280|408:244,1,75,8|0,0:0|0:0,0:0:0:0:
412,164,145741,2,0,B|408:80|488:40,2,150,0|8|0,0:0|0:0|0:0,0:0:0:0:
332,188,146634,1,0,0:0:0:0:
252,176,146812,2,0,B|224:152|220:100,1,75,8|0,0:0|0:0,0:0:0:0:
136,72,147169,6,0,B|132:144|176:216,1,150,2|8,0:0|0:0,0:0:0:0:
236,272,147705,1,0,0:0:0:0:
172,324,147884,2,0,B|92:324,2,75,2|0|8,0:0|0:0|0:0,0:0:0:0:
248,356,148419,1,0,0:0:0:0:
256,192,148598,12,4,149669,0:0:0:0:
256,44,150026,6,0,B|293:50|328:78,1,75,2|0,0:0|0:0,0:0:0:0:
352,152,150384,2,0,B|336:186|301:214,1,75,8|0,0:0|0:0,0:0:0:0:
236,164,150741,1,2,0:0:0:0:
184,320,151098,1,10,0:0:0:0:
268,324,151276,6,0,B|340:292|416:304,1,150,0|0,0:0|0:0,0:0:0:0:
452,232,151812,2,0,B|472:160,1,75,8|0,0:0|0:0,0:0:0:0:
408,104,152169,2,0,B|388:176,1,75,0|0,0:0|0:0,0:0:0:0:
320,220,152526,1,8,0:0:0:0:
244,192,152705,1,0,0:0:0:0:
232,108,152884,2,0,B|272:32|360:44,2,150,8|8|8,0:0|0:0|0:0,0:0:0:0:
156,136,153776,2,0,B|112:128,2,37.5
152,220,154134,6,0,B|208:272|216:352,1,150,4|8,0:0|0:0,0:0:0:0:
296,328,154669,2,0,B|336:316|376:316,1,75,4|0,0:0|0:0,0:0:0:0:
420,248,155026,2,0,B|452:212|456:176,2,75,0|0|2,0:0|0:0|0:0,0:0:0:0:
372,180,155562,1,0,0:0:0:0:
256,192,155741,12,0,157526,0:0:0:0:
88,200,157884,6,0,P|128:148|224:124,1,150
388,160,158598,1,0,0:0:0:0:
368,248,158776,1,0,0:0:0:0:
292,304,158955,1,0,0:0:0:0:
192,320,159134,2,0,P|132:292|108:216,1,150,4|0,0:0|0:0,0:0:0:0:
200,232,159669,1,0,0:0:0:0:
328,128,161455,6,0,P|376:112|404:76,2,75
224,104,161991,2,0,P|164:124|144:144,1,75
116,208,162348,1,8,0:0:0:0:
80,300,162526,2,0,P|124:312|164:284,1,75
336,264,163062,1,0,0:0:0:0:
380,172,163241,1,0,0:0:0:0:
324,100,163419,1,0,0:0:0:0:
232,72,163598,2,0,P|184:68|152:88,2,75
208,144,164134,6,0,P|224:240|116:280,1,225
384,88,165026,2,0,P|348:124|364:220,1,150
256,192,165741,12,4,166812,0:0:0:0:
276,92,172884,6,0,P|316:100|344:128,1,75
284,172,173241,2,0,P|304:208|360:228,1,75
408,212,173598,1,0,0:0:0:0:
388,284,173776,1,0,0:0:0:0:
316,296,173955,1,0,0:0:0:0:
240,300,174134,2,0,P|156:304|96:240,1,150
92,184,174669,2,0,L|128:104,1,75
180,188,175026,2,0,L|272:176,1,75,0|0,0:0|0:0,0:0:0:0:
204,100,175384,2,0,L|268:40,1,75
372,96,175741,6,4,P|412:72|448:68,3,75,0|0|8|0,0:0|0:0|0:0|0:0,0:0:0:0:
296,252,176634,2,0,P|320:280|368:280,2,75
152,232,177348,2,0,P|96:268|88:304,2,75
140,156,177884,1,0,0:0:0:0:
176,92,178062,1,0,0:0:0:0:
248,76,178241,1,0,0:0:0:0:
324,72,178419,6,0,P|384:128|364:264,1,225.000008583069
304,176,179134,1,0,0:0:0:0:
272,244,179312,2,0,P|256:268|128:288,1,150
256,192,179848,12,0,180919,0:0:0:0:
112,120,181098,6,0,L|184:72,1,75
264,68,181455,1,0,0:0:0:0:
308,312,181991,2,0,L|220:324,1,75
76,168,182705,5,0,0:0:0:0:
128,92,182884,2,0,P|208:68|284:112,1,150
332,56,183419,2,0,P|384:88|384:116,1,75
408,172,183776,1,0,0:0:0:0:
368,260,183955,1,0,0:0:0:0:
284,296,184134,2,0,L|192:276,1,75
168,120,184848,2,0,L|260:140,1,75
71,307,185562,6,0,P|108:314|144:304,1,75
228,252,185919,1,0,0:0:0:0:
288,180,186098,1,0,0:0:0:0:
248,112,186276,2,0,L|324:76,1,75
392,144,186634,2,0,L|436:128,2,37.5
392,232,186991,1,0,0:0:0:0:
320,280,187169,2,0,P|280:308|220:312,1,75
160,296,187526,1,0,0:0:0:0:
120,224,187705,6,0,P|92:196|96:136,1,75
124,88,188062,1,0,0:0:0:0:
216,80,188241,2,0,L|296:104,1,75
356,52,188598,2,0,L|396:116,1,75
364,192,188955,2,0,P|356:232|312:268,2,75
272,200,189491,5,0,0:0:0:0:
212,268,189669,1,0,0:0:0:0:
136,308,189848,1,0,0:0:0:0:
72,256,190026,2,0,P|32:196|80:108,2,150
120,184,190919,2,0,L|164:100,1,75
232,152,191276,2,0,L|300:80,1,75
364,80,191634,1,0,0:0:0:0:
420,140,191812,1,0,0:0:0:0:
424,224,191991,1,0,0:0:0:0:
368,284,192169,2,0,P|300:320|220:312,1,150
256,192,192884,12,0,195384,0:0:0:0:
116,168,195741,5,0,0:0:0:0:
404,164,196455,1,0,0:0:0:0:
256,256,197169,1,0,0:0:0:0:
256,256,197526,1,12,0:0:0:0:
156,88,198598,2,0,P|96:148|88:224,1,150
196,316,199312,2,0,P|236:296|264:256,1,75
276,192,199669,2,0,P|324:144|364:144,1,75
356,216,200026,6,0,B|376:292|304:356,1,150,4|8,0:0|0:0,0:0:0:0:
128,160,200741,2,0,B|136:116|172:92,1,75
212,192,201098,2,0,B|204:236|168:260,1,75,8|0,0:0|0:0,0:0:0:0:
236,112,201455,2,0,B|308:80|384:120,1,150,0|8,0:0|0:0,0:0:0:0:
376,284,202169,6,0,B|416:280|444:244,2,75,2|0|8,0:0|0:0|0:0,0:0:0:0:
296,300,202705,1,0,0:0:0:0:
216,288,202883,2,0,B|200:200|116:184,1,150,2|8,0:0|0:0,0:0:0:0:
52,232,203419,2,0,B|32:160,1,75
48,80,203776,1,0,0:0:0:0:
124,112,203955,1,8,0:0:0:0:
200,80,204133,1,0,0:0:0:0:
276,116,204312,2,0,B|356:100|408:36,2,150,2|8|0,0:0|0:0|0:0,0:0:0:0:
360,180,205205,2,0,B|408:172|440:184,2,75,0|4|0,0:0|0:0|0:0,0:0:0:0:
276,260,205741,6,0,B|240:280|196:276,1,75,4|0,0:0|0:0,0:0:0:0:
204,192,206098,2,0,B|164:196|128:176,1,75,8|0,0:0|0:0,0:0:0:0:
116,96,206455,2,0,B|172:40|256:56,1,150,0|8,0:0|0:0,0:0:0:0:
304,124,206991,1,0,0:0:0:0:
384,152,207169,2,0,B|420:172|464:164,1,75,2|0,0:0|0:0,0:0:0:0:
496,88,207526,2,0,B|460:68|416:76,1,75,8|0,0:0|0:0,0:0:0:0:
348,48,207883,1,2,0:0:0:0:
168,156,208241,6,0,B|212:152|240:120,1,75,8|0,0:0|0:0,0:0:0:0:
176,68,208598,2,0,B|120:64|72:112|80:164,1,150,2|8,0:0|0:0,0:0:0:0:
144,312,209312,2,0,B|184:312|216:284,1,75,2|0,0:0|0:0,0:0:0:0:
272,228,209669,1,8,0:0:0:0:
324,292,209848,2,0,B|404:288|444:212,1,150,2|2,0:0|0:0,0:0:0:0:
452,132,210383,1,8,0:0:0:0:
316,68,210741,6,0,B|276:72,3,37.5
280,108,211098,2,0,B|248:128,3,37.5,0|0|0|0,0:0|0:0|0:0|0:0,0:0:0:0:
260,164,211455,6,0,B|232:196|232:196|188:148|112:184,1,150,4|8,0:0|0:0,0:0:0:0:
144,324,212169,2,0,B|188:340|232:296,1,75
292,276,212526,1,8,0:0:0:0:
348,212,212705,1,0,0:0:0:0:
404,152,212883,2,0,B|412:68|324:40,1,150,0|8,0:0|0:0,0:0:0:0:
176,112,213598,6,0,B|200:76|244:64,1,75,2|0,0:0|0:0,0:0:0:0:
252,148,213955,2,0,B|228:184|184:196,1,75,8|0,0:0|0:0,0:0:0:0:
112,212,214312,2,0,B|128:164|128:164|96:132|104:80|124:64,2,150,2|8|2,0:0|0:0|0:0,0:0:0:0:
176,268,215205,1,0,0:0:0:0:
252,300,215383,2,0,B|300:304|336:264,1,75,8|0,0:0|0:0,0:0:0:0:
256,192,215741,12,4,216813,0:0:0:0:
352,112,217169,6,0,B|392:136|444:132,2,75,4|0|8,0:0|0:0|0:0,0:0:0:0:
276,84,217705,1,0,0:0:0:0:
192,84,217883,2,0,B|184:120|184:120|112:128|120:228,1,150,0|8,0:0|0:0,0:0:0:0:
96,280,218419,2,0,P|192:236|200:192,1,150
276,176,218955,2,0,B|304:140|356:128,1,75,8|0,0:0|0:0,0:0:0:0:
420,140,219312,1,4,0:0:0:0:
324,276,219669,6,8,B|320:316|260:336,1,75,8|0,0:0|0:0,0:0:0:0:
252,252,220026,2,0,B|260:208|260:208|208:176|216:116,2,150,8|8|8,0:0|0:0|0:0,0:0:0:0:
192,308,220919,2,0,B|236:328,2,37.5,0|0|2,0:0|0:0|0:0,0:0:0:0:
108,316,221276,6,0,B|96:272|128:236|168:220|168:220|144:176,1,150,4|8,0:0|0:0,0:0:0:0:
76,176,221812,1,8,0:0:0:0:
76,176,221991,1,0,0:0:0:0:
120,108,222169,2,0,B|52:48,1,75
188,76,222526,2,0,B|152:8,1,75,2|0,0:0|0:0,0:0:0:0:
256,192,222883,12,8,224312,0:0:0:0:
