osu file format v14

[General]
AudioFilename: mangaka.mp3
AudioLeadIn: 0
PreviewTime: 55674
Countdown: 0
SampleSet: Soft
StackLeniency: 0.3
Mode: 0
LetterboxInBreaks: 0
WidescreenStoryboard: 0

[Editor]
Bookmarks: 10159
DistanceSpacing: 0.9
BeatDivisor: 4
GridSize: 4
TimelineZoom: 1.3

[Metadata]
Title:Junsui na Fujunbutsu (TV-size)
TitleUnicode:純粋なフジュンブツ (TV-size)
Artist:StylipS
ArtistUnicode:StylipS
Creator:Remilia_CO
Version:Normal
Source:マンガ家さんとアシスタントさんと
Tags:Mangaka-san to Assistant-san The Comic Artist and His Assistants damian_q opening Mei animation noto arisa matsunaga maho toyota moe itou miku
BeatmapID:443205
BeatmapSetID:184880

[Difficulty]
HPDrainRate:4
CircleSize:4
OverallDifficulty:4
ApproachRate:5
SliderMultiplier:1.1
SliderTickRate:1

[Events]
//Background and Video events
0,0,"BG.jpg",0,0
Video,282,"mangaka.avi"
//Break Periods
//Storyboard Layer 0 (Background)
//Storyboard Layer 1 (Fail)
//Storyboard Layer 2 (Pass)
//Storyboard Layer 3 (Foreground)
//Storyboard Sound Samples

[TimingPoints]
-383,342.857142857143,4,2,1,50,1,0
988,-100,4,2,1,50,0,0
4417,-100,4,2,1,55,0,0
4588,-100,4,2,1,60,0,0
4759,-100,4,2,1,65,0,0
4931,-100,4,2,1,70,0,0
5788,-100,4,2,1,50,0,0
55674,-100,4,2,1,60,0,1
66474,-100,4,2,1,50,0,0
66645,-100,4,2,1,60,0,1
77788,-100,4,2,1,60,0,0
78988,-100,4,2,1,80,0,0

[Colours]
Combo1 : 128,255,0
Combo2 : 0,128,255
Combo3 : 255,128,0
Combo4 : 255,0,255

[HitObjects]
299,150,988,6,0,P|172:184|280:260,1,330,4|0,0:0|0:0,0:0:0:0:
280,260,2359,6,0,B|336:244|336:244|432:256|432:256|494:238,2,220
183,284,4074,6,0,L|194:337,2,55,8|8|8,0:0|0:0|0:0,0:0:0:0:
136,260,4588,2,0,L|127:204,1,55,8|8,0:0|0:0,0:0:0:0:
88,172,4931,2,0,P|105:90|144:64,1,110,12|8,0:0|0:0,0:0:0:0:
168,56,5445,1,8,0:0:0:0:
272,72,5788,6,0,P|308:116|312:168,1,110,0|0,0:0|0:0,0:0:0:0:
278,260,6474,6,0,L|390:260,1,110,4|2,0:0|0:0,0:0:0:0:
340,348,7159,2,0,L|228:348,1,110,0|10,0:0|0:0,0:0:0:0:
180,347,7674,1,2,0:0:0:0:
136,324,7845,2,0,P|92:288|76:232,1,110,0|10,0:0|0:0,0:0:0:0:
76,140,8531,1,0,0:0:0:0:
120,52,8874,2,0,L|180:52,1,55,8|0,0:0|0:0,0:0:0:0:
212,88,9217,6,0,L|324:88,1,110,0|8,0:0|0:0,0:0:0:0:
408,136,9902,1,0,0:0:0:0:
408,136,10245,1,8,0:0:0:0:
436,232,10588,2,0,L|472:340,2,110,0|8|0,0:0|0:0|0:0,0:0:0:0:
408,136,11617,1,8,0:0:0:0:
346,213,11959,6,0,B|324:252|276:252|256:216|256:216|232:252|188:252|166:213,1,220,4|2,0:0|0:0,0:0:0:0:
92,148,12988,1,8,0:0:0:0:
60,240,13331,2,0,B|56:276|56:276|72:320|40:352,2,110,2|8|2,0:0|0:0|0:0,0:0:0:0:
152,272,14359,1,8,0:0:0:0:
152,272,14702,6,0,B|204:288|204:288|260:276,1,110,0|8,0:0|0:0,0:0:0:0:
300,304,15217,2,0,B|344:296|344:296|400:320|464:296,1,165,0|8,0:0|0:0,0:0:0:0:
496,264,15902,1,8,0:0:0:0:
512,168,16245,1,6,0:0:0:0:
496,71,16588,6,0,L|384:71,1,110,4|0,0:0|0:0,0:0:0:0:
336,71,17102,1,8,0:0:0:0:
318,168,17445,5,4,0:0:0:0:
232,108,17788,2,0,P|212:156|224:216,1,110,8|2,0:0|0:0,0:0:0:0:
308,260,18474,1,8,0:0:0:0:
308,260,18817,2,0,P|364:252|420:264,2,110,0|8|0,0:0|0:0|0:0,0:0:0:0:
276,296,19674,1,0,0:0:0:0:
228,308,19845,2,0,P|172:320|120:308,1,110,8|0,0:0|0:0,0:0:0:0:
172,224,20531,6,0,L|172:112,1,110,8|2,0:0|0:0,0:0:0:0:
260,64,21217,2,0,P|328:52|368:64,1,110,8|0,0:0|0:0,0:0:0:0:
464,64,21902,2,0,P|484:112|488:176,1,110,8|0,0:0|0:0,0:0:0:0:
468,216,22417,1,0,0:0:0:0:
500,256,22588,2,0,P|432:252|376:256,1,110,8|0,0:0|0:0,0:0:0:0:
328,332,23274,6,0,P|392:336|440:332,2,110,8|2|8,0:0|0:0|0:0,0:0:0:0:
248,276,24302,2,0,L|132:276,1,110,0|8,0:0|0:0,0:0:0:0:
88,276,24817,1,0,0:0:0:0:
36,192,25159,1,0,0:0:0:0:
24,144,25331,2,0,P|20:80|56:28,1,110,8|0,0:0|0:0,0:0:0:0:
116,108,26017,2,0,B|164:100|164:100|212:124|280:104,1,165,8|2,0:0|0:0,0:0:0:0:
328,100,26702,1,8,0:0:0:0:
428,112,27045,6,0,P|476:136|504:192,1,110,4|10,0:0|0:0,0:0:0:0:
408,208,27731,1,2,0:0:0:0:
408,208,28074,2,0,P|364:244|332:288,1,110,8|4,0:0|0:0,0:0:0:0:
408,352,28759,6,0,B|328:332|328:332|280:356|280:356|192:336,1,220,8|8,0:0|0:0,0:0:0:0:
219,240,29788,1,0,0:0:0:0:
124,272,30131,2,0,B|69:295|69:295|13:291,2,110,8|0|8,0:0|0:0|0:0,0:0:0:0:
52,204,31159,1,0,0:0:0:0:
52,204,31502,6,0,B|104:168|104:168|116:116|116:116|176:116|232:84,1,220,8|8,0:0|0:0,0:0:0:0:
296,32,32531,1,0,0:0:0:0:
372,96,32874,2,0,P|448:112|480:132,1,110,8|0,0:0|0:0,0:0:0:0:
468,176,33388,1,0,0:0:0:0:
476,224,33559,2,0,P|427:248|372:256,1,110,8|0,0:0|0:0,0:0:0:0:
280,220,34245,6,0,P|224:208|172:220,2,110,8|2|8,0:0|0:0|0:0,0:0:0:0:
340,300,35274,2,0,P|284:316|232:304,1,110,2|8,0:0|0:0,0:0:0:0:
142,341,35959,2,0,B|128:310|139:274|139:274|106:216,1,110,0|8,0:0|0:0,0:0:0:0:
90,142,36645,6,0,L|30:142,2,55,6|2|10,0:0|0:0|0:0,0:0:0:0:
116,100,37159,2,0,B|172:92|172:92|232:104,1,110,2|2,0:0|0:0,0:0:0:0:
268,80,37674,1,10,0:0:0:0:
316,92,37845,2,0,B|304:128|304:128|312:164|312:164|296:204|312:252,1,165,4|8,0:0|0:0,0:0:0:0:
264,340,38702,2,0,L|320:340,1,55,8|8,0:0|0:0,0:0:0:0:
364,320,39045,2,0,L|424:320,1,55,10|8,0:0|0:0,0:0:0:0:
464,296,39388,6,0,B|444:228|444:228|456:188,1,110,4|8,0:0|0:0,0:0:0:0:
440,144,39902,1,8,0:0:0:0:
404,108,40074,2,0,P|416:80|456:48,2,82.5,0|0|0,0:0|0:0|0:3,0:0:0:0:
356,104,40759,2,0,B|304:96|300:120|240:104,1,110,2|0,0:0|0:0,0:0:0:0:
200,92,41274,2,0,P|140:76|100:44,1,110,8|0,0:0|0:0,0:0:0:0:
60,24,41788,1,8,0:0:0:0:
52,124,42131,6,0,P|48:184|52:240,1,110,4|8,0:0|0:0,0:0:0:0:
80,276,42645,1,8,0:0:0:0:
112,316,42817,2,0,L|28:316,2,82.5,2|0|2,0:0|0:0|0:0,0:0:0:0:
160,304,43502,2,0,P|240:280|284:292,1,110,4|8,0:0|0:0,0:0:0:0:
312,304,44017,1,2,0:0:0:0:
400,356,44359,2,0,P|412:300|396:248,1,110,8|0,0:0|0:0,0:0:0:0:
368,208,44874,6,0,L|484:208,2,110,4|8|0,0:0|0:0|0:0,0:0:0:0:
324,184,45731,1,0,0:0:0:0:
280,160,45902,2,0,P|224:168|172:160,1,110,8|0,0:0|0:0,0:0:0:0:
224,76,46588,2,0,P|292:72|336:80,1,110,8|0,0:0|0:0,0:0:0:0:
380,68,47102,2,0,L|436:48,1,55,0|8,0:0|0:0,0:0:0:0:
476,76,47445,5,0,0:0:0:0:
476,76,47617,2,0,B|464:128|464:128|476:188,1,110,2|8,0:0|0:0,0:0:0:0:
492,228,48131,2,0,P|408:216|328:228,1,165,0|8,0:0|0:0,0:0:0:0:
272,308,48988,2,0,B|324:324|324:324|380:312,2,110,2|8|0,0:0|0:0|0:0,0:0:0:0:
172,308,50017,1,8,0:0:0:0:
80,272,50359,5,4,0:0:0:0:
76,172,50702,1,8,0:0:0:0:
124,84,51045,1,2,0:0:0:0:
208,36,51388,1,10,0:0:0:0:
252,124,51731,2,0,B|312:124|312:124|372:124,1,110,0|8,0:0|0:0,0:0:0:0:
308,208,52417,1,8,0:0:0:0:
356,208,52588,2,8,L|412:208,2,55,8|8|8,0:0|0:0|0:0,0:0:0:0:
256,192,53102,12,0,54645,0:0:0:0:
184,188,55674,6,0,B|180:156|180:156|164:120|164:120|176:68|224:48,1,165,4|8,0:0|0:0,0:0:0:0:
268,136,56531,2,0,P|272:196|268:252,2,110,0|8|0,0:0|0:0|0:0,0:0:0:0:
332,60,57559,1,8,0:0:0:0:
360,101,57731,2,0,P|390:138|507:161,1,165,0|8,0:0|0:0,0:0:0:0:
487,211,58417,6,0,B|431:223|399:279|399:279|351:263,1,165,4|8,0:0|0:0,0:0:0:0:
256,288,59274,2,0,L|256:356,2,55,2|0|8,0:0|0:0|0:0,0:0:0:0:
211,266,59788,2,0,B|165:278|129:244|129:244|99:241|99:241|68:204,1,165,4|8,0:0|0:0,0:0:0:0:
96,108,60645,2,0,P|164:88|212:104,1,110,2|8,0:0|0:0,0:0:0:0:
288,52,61331,6,0,B|324:92|324:92|340:156,1,110,6|8,0:0|0:0,0:0:0:0:
328,196,61845,1,0,0:0:0:0:
356,236,62017,2,0,L|240:236,1,110,2|8,0:0|0:0,0:0:0:0:
164,180,62702,2,0,P|168:252|164:300,1,110,2|8,0:0|0:0,0:0:0:0:
120,312,63217,1,0,0:0:0:0:
76,292,63388,2,0,P|72:220|76:172,1,110,2|8,0:0|0:0,0:0:0:0:
109,89,64074,5,2,0:0:0:0:
205,61,64417,1,8,0:0:0:0:
305,61,64759,1,10,0:0:0:0:
401,89,65102,1,8,0:0:0:0:
444,180,65445,2,8,P|472:172|504:176,2,55,8|8|8,0:0|0:0|0:0,0:0:0:0:
412,220,65959,2,0,B|384:216|356:228|356:228|300:224|252:176,1,165,4|8,0:0|0:0,0:0:0:0:
228,144,66645,6,0,B|180:156|152:192|152:192|160:228|152:280,1,165,6|8,0:0|0:0,0:0:0:0:
96,344,67502,2,0,P|148:356|208:344,1,110,2|8,0:0|0:0,0:0:0:0:
248,320,68017,2,0,B|304:300|356:320|356:320|384:308|384:308|408:316,1,165,4|8,0:0|0:0,0:0:0:0:
452,328,68702,2,0,L|452:212,1,110,0|0,0:0|0:0,0:0:0:0:
468,172,69217,1,8,0:0:0:0:
492,132,69388,6,0,B|448:112|448:112|376:112|376:112|328:92,1,165,4|8,0:0|0:0,0:0:0:0:
236,72,70245,2,0,L|236:0,2,55,2|0|8,0:0|0:0|0:0,0:0:0:0:
192,100,70759,2,0,P|104:144|92:208,1,165,4|8,0:0|0:0,0:0:0:0:
60,300,71617,2,0,P|124:288|168:288,1,110,2|8,0:0|0:0,0:0:0:0:
264,260,72302,6,0,P|236:216|180:192,2,110,6|8|2,0:0|0:0|0:0,0:0:0:0:
328,328,73331,1,8,0:0:0:0:
236,364,73674,2,0,P|172:376|128:376,2,110,0|8|0,0:0|0:0|0:0,0:0:0:0:
328,328,74702,1,8,0:0:0:0:
426,337,75045,6,0,P|421:288|377:241,1,110,0|8,0:0|0:0,0:0:0:0:
300,192,75731,2,0,P|244:196|188:192,1,110,2|8,0:0|0:0,0:0:0:0:
92,184,76417,2,0,B|104:128|152:92|204:96|204:96|248:108|248:108|296:96|296:96|336:100|368:128,1,330,4|8,0:0|0:0,0:0:0:0:
256,192,77788,12,4,78988,0:0:0:0:
