osu file format v14

[General]
AudioFilename: HSDXDED.mp3
AudioLeadIn: 0
PreviewTime: 48658
Countdown: 0
SampleSet: Normal
StackLeniency: 0.7
Mode: 0
LetterboxInBreaks: 0
WidescreenStoryboard: 0

[Editor]
DistanceSpacing: 1.2
BeatDivisor: 4
GridSize: 4
TimelineZoom: 1.7

[Metadata]
Title:Give Me Secret
TitleUnicode:Give Me Secret
Artist:StylipS
ArtistUnicode:StylipS
Creator:jloughman14
Version:Insane
Source:High School DxD BoRN
Tags:season 3 devil ハイスクールd×d
BeatmapID:710527
BeatmapSetID:300894

[Difficulty]
HPDrainRate:7
CircleSize:4.8
OverallDifficulty:6
ApproachRate:9
SliderMultiplier:1.5
SliderTickRate:1

[Events]
//Background and Video events
0,0,"highschool_dxd_born_members_ WITH_CLOTHS!.jpg",0,0
//Break Periods
//Storyboard Layer 0 (Background)
//Storyboard Layer 1 (Fail)
//Storyboard Layer 2 (Pass)
//Storyboard Layer 3 (Foreground)
//Storyboard Sound Samples

[TimingPoints]
1000,379.746835443038,4,1,0,60,1,0
49607,-100,4,1,0,60,0,1
58246,-100,4,1,0,60,0,1
59860,-100,4,1,0,60,0,0
61759,-100,4,1,0,60,0,1
72107,-66.6666666666667,4,1,0,60,0,1
73721,-100,4,1,0,60,0,1
86063,-80,4,1,0,60,0,0
86727,-66.6666666666667,4,1,0,60,0,0
87487,-57.1428571428571,4,1,0,60,0,0

[Colours]
Combo1 : 255,0,0
Combo2 : 196,103,0
Combo3 : 255,255,255
Combo4 : 0,38,119
Combo5 : 41,0,83

[HitObjects]
104,116,1000,6,0,L|144:116,1,37.5,4|0,0:0|0:0,0:0:0:0:
224,76,1284,2,0,L|264:76,1,37.5,4|0,0:0|0:0,0:0:0:0:
238,165,1569,2,0,B|216:196|204:232,1,75,0|4,0:0|0:0,0:0:0:0:
188,276,1854,1,0,0:0:0:0:
220,312,1949,1,0,0:0:0:0:
259,333,2044,1,0,0:0:0:0:
304,333,2139,1,0,0:0:0:0:
335,301,2234,1,0,0:0:0:0:
346,257,2329,1,0,0:0:0:0:
377,225,2424,1,0,0:0:0:0:
419,210,2518,6,0,L|456:210,1,37.5,4|0,0:0|0:0,0:0:0:0:
400,140,2803,2,0,L|357:140,1,37.5,4|0,0:0|0:0,0:0:0:0:
276,114,3088,2,0,B|244:136|208:148,1,75,0|4,0:0|0:0,0:0:0:0:
167,166,3373,1,0,0:0:0:0:
125,147,3468,1,0,0:0:0:0:
85,169,3563,1,0,0:0:0:0:
61,207,3658,1,0,0:0:0:0:
61,252,3753,1,0,0:0:0:0:
83,292,3848,1,0,0:0:0:0:
121,316,3943,1,0,0:0:0:0:
164,316,4037,6,0,L|204:316,1,37.5,4|0,0:0|0:0,0:0:0:0:
244,236,4322,2,0,L|204:236,1,37.5,4|0,0:0|0:0,0:0:0:0:
206,145,4607,1,0,0:0:0:0:
341,92,4797,2,0,L|341:130,1,37.5,4|0,0:0|0:0,0:0:0:0:
405,193,5082,2,0,L|405:238,1,37.5,4|0,0:0|0:0,0:0:0:0:
340,294,5367,1,0,0:0:0:0:
252,308,5556,1,4,0:0:0:0:
109,198,5936,6,0,L|156:140,1,75
246,139,6316,2,0,L|304:186,1,75
304,276,6696,1,0,0:0:0:0:
240,339,6886,2,0,L|221:339,4,18.75,0|0|0|0|4,0:0|0:0|0:0|0:0|0:0,0:0:0:0:
176,275,7265,5,0,0:0:0:0:
176,275,7360,1,0,0:0:0:0:
176,275,7455,1,0,0:0:0:0:
112,211,7645,1,0,0:0:0:0:
175,147,7835,6,0,P|204:124|240:120,1,75
273,152,8120,1,0,0:0:0:0:
304,184,8215,2,0,P|275:207|239:211,1,75
174,147,8594,5,0,0:0:0:0:
142,115,8689,1,0,0:0:0:0:
51,115,8879,1,0,0:0:0:0:
19,146,8974,1,0,0:0:0:0:
19,236,9164,1,0,0:0:0:0:
82,299,9354,2,0,P|116:284|156:284,1,75
200,284,9639,1,0,0:0:0:0:
241,304,9734,2,0,P|280:312|316:312,1,75
378,248,10113,6,0,B|348:224|328:192|328:152,2,112.5
378,248,10778,1,0,0:0:0:0:
378,248,10873,6,0,B|402:218|434:198|474:198,2,112.5
378,248,11537,1,0,0:0:0:0:
378,248,11632,6,0,B|408:272|428:304|428:344,2,112.5
287,248,12392,1,0,0:0:0:0:
241,248,12487,1,0,0:0:0:0:
209,216,12582,1,0,0:0:0:0:
209,170,12677,1,0,0:0:0:0:
240,138,12772,1,0,0:0:0:0:
392,52,13151,5,8,0:0:0:0:
240,52,13531,1,0,0:0:0:0:
91,50,13911,1,0,0:0:0:0:
154,113,14101,1,0,0:0:0:0:
257,163,14291,1,0,0:0:0:0:
144,183,14481,1,0,0:0:0:0:
224,100,14670,5,8,0:0:0:0:
208,215,14860,1,0,0:0:0:0:
314,100,15050,2,0,L|390:100,2,75
336,187,15620,1,0,0:0:0:0:
291,265,15810,1,0,0:0:0:0:
381,265,16000,1,0,0:0:0:0:
432,188,16189,5,8,0:0:0:0:
448,40,16569,1,0,0:0:0:0:
314,100,16949,1,0,0:0:0:0:
250,163,17139,1,0,0:0:0:0:
186,99,17329,1,0,0:0:0:0:
122,162,17518,1,0,0:0:0:0:
185,225,17708,5,8,0:0:0:0:
248,288,17898,1,0,0:0:0:0:
338,288,18088,2,0,B|372:268|396:236,2,75
248,288,18658,1,0,0:0:0:0:
248,288,18753,1,0,0:0:0:0:
248,288,18848,1,0,0:0:0:0:
184,351,19037,1,0,0:0:0:0:
120,287,19227,5,8,0:0:0:0:
41,330,19417,1,0,0:0:0:0:
41,239,19607,1,0,0:0:0:0:
41,148,19797,1,0,0:0:0:0:
41,57,19987,1,8,0:0:0:0:
131,57,20177,1,0,0:0:0:0:
131,57,20272,1,0,0:0:0:0:
131,57,20367,1,0,0:0:0:0:
131,330,20556,1,0,0:0:0:0:
131,239,20746,5,8,0:0:0:0:
131,148,20936,1,0,0:0:0:0:
131,57,21126,1,0,0:0:0:0:
221,57,21316,2,0,L|295:58,1,75,0|8,0:0|0:0,0:0:0:0:
222,330,21696,5,0,0:0:0:0:
222,239,21886,1,0,0:0:0:0:
222,148,22076,1,0,0:0:0:0:
222,57,22265,5,8,0:0:0:0:
349,184,22645,1,0,0:0:0:0:
476,56,23025,2,0,L|476:130,1,75
476,221,23405,2,0,L|475:298,1,75
384,295,23784,5,0,0:0:0:0:
293,295,23974,1,0,0:0:0:0:
112,295,24354,2,0,B|132:264|140:228|132:188,1,112.5
115,144,24734,2,2,B|96:104|96:72|116:36|156:12|196:12|236:32|248:64,1,225,2|2,1:0|1:0,1:0:0:0:
300,109,25493,5,0,0:0:0:0:
336,136,25588,1,0,0:0:0:0:
372,164,25683,1,8,0:0:0:0:
308,227,25873,2,0,P|276:252|240:248,1,75
179,185,26253,1,0,0:0:0:0:
147,153,26348,1,0,0:0:0:0:
115,121,26443,1,8,0:0:0:0:
51,184,26632,1,0,0:0:0:0:
114,247,26822,6,0,P|92:276|88:316,2,75,0|0|8,0:0|0:0|0:0,0:0:0:0:
178,311,27392,1,0,0:0:0:0:
241,247,27582,2,0,L|312:216,1,75
309,171,27867,1,0,0:0:0:0:
309,126,27962,2,0,L|380:95,1,75,8|0,0:0|0:0,0:0:0:0:
441,159,28341,5,0,0:0:0:0:
441,249,28531,1,0,0:0:0:0:
409,280,28626,1,0,0:0:0:0:
377,248,28721,1,8,0:0:0:0:
313,311,28911,1,0,0:0:0:0:
249,247,29101,2,0,P|216:264|180:256,1,75
154,218,29386,1,0,0:0:0:0:
137,176,29481,2,0,P|170:159|206:167,1,75,8|0,0:0|0:0,0:0:0:0:
269,103,29860,5,0,0:0:0:0:
332,166,30050,1,0,0:0:0:0:
367,130,30145,1,0,0:0:0:0:
395,102,30240,1,8,0:0:0:0:
458,165,30430,1,0,0:0:0:0:
394,228,30620,2,0,L|394:302,1,75
348,303,30905,1,0,0:0:0:0:
303,303,31000,2,0,L|303:227,1,75,8|0,0:0|0:0,0:0:0:0:
239,164,31379,5,0,0:0:0:0:
175,100,31569,2,0,L|216:80,2,37.5,0|0|12,0:0|0:0|0:0,0:0:0:0:
92,137,31949,1,0,0:0:0:0:
92,227,32139,1,0,0:0:0:0:
175,260,32329,1,0,0:0:0:0:
220,260,32424,1,0,0:0:0:0:
264,260,32518,1,8,0:0:0:0:
327,323,32708,1,0,0:0:0:0:
390,259,32898,5,0,0:0:0:0:
326,195,33088,1,0,0:0:0:0:
326,195,33183,1,0,0:0:0:0:
326,195,33278,1,12,0:0:0:0:
389,131,33468,1,0,0:0:0:0:
325,67,33658,1,0,0:0:0:0:
261,130,33848,2,0,L|223:131,2,37.5,0|0|8,0:0|0:0|0:0,0:0:0:0:
261,220,34227,1,0,0:0:0:0:
197,283,34417,5,0,0:0:0:0:
133,219,34607,1,0,0:0:0:0:
133,173,34702,1,0,0:0:0:0:
133,127,34797,1,12,0:0:0:0:
196,63,34987,1,0,0:0:0:0:
286,63,35177,1,0,0:0:0:0:
349,126,35367,1,0,0:0:0:0:
349,126,35462,1,0,0:0:0:0:
349,126,35556,1,8,0:0:0:0:
439,126,35746,1,0,0:0:0:0:
439,306,36126,5,4,0:0:0:0:
348,306,36316,1,8,0:0:0:0:
257,306,36506,1,4,0:0:0:0:
129,178,36886,1,0,0:0:0:0:
192,114,37075,2,0,L|216:114,8,18.75,0|0|0|0|0|0|0|0|4,0:0|0:0|0:0|0:0|0:0|0:0|0:0|0:0|0:0,0:0:0:0:
282,114,37645,5,0,0:0:0:0:
345,177,37835,2,0,L|345:258,1,75,8|0,0:0|0:0,0:0:0:0:
254,252,38215,2,0,L|254:333,1,75
163,327,38594,2,0,L|163:246,1,75,8|0,0:0|0:0,0:0:0:0:
163,161,38974,5,0,0:0:0:0:
226,97,39164,1,0,0:0:0:0:
271,97,39259,1,0,0:0:0:0:
316,97,39354,1,8,0:0:0:0:
363,173,39544,2,0,P|392:149|408:113,1,75
488,72,39924,2,0,P|464:43|428:27,1,75,0|8,0:0|0:0,0:0:0:0:
340,32,40303,2,0,L|264:32,1,75
174,32,40683,5,0,0:0:0:0:
174,77,40778,1,0,0:0:0:0:
174,122,40873,1,8,0:0:0:0:
237,185,41063,6,0,P|208:208|172:216,1,75
171,306,41443,2,0,P|208:300|248:304,1,75,0|8,0:0|0:0,0:0:0:0:
329,336,41822,2,0,P|364:348|404:344,1,75
485,311,42202,5,0,0:0:0:0:
485,265,42297,1,0,0:0:0:0:
460,227,42392,1,8,0:0:0:0:
379,187,42582,2,0,L|380:106,2,75
288,187,43151,1,8,0:0:0:0:
197,187,43341,1,0,0:0:0:0:
133,123,43531,5,0,0:0:0:0:
69,186,43721,1,0,0:0:0:0:
69,231,43816,1,0,0:0:0:0:
100,262,43911,1,8,0:0:0:0:
175,311,44101,1,0,0:0:0:0:
265,311,44291,1,0,0:0:0:0:
348,280,44481,1,0,0:0:0:0:
348,280,44575,1,0,0:0:0:0:
348,280,44670,1,8,0:0:0:0:
411,216,44860,1,0,0:0:0:0:
411,125,45050,5,0,0:0:0:0:
348,62,45240,2,0,L|376:32,2,37.5,0|0|8,0:0|0:0|0:0,0:0:0:0:
257,62,45620,1,0,0:0:0:0:
166,62,45810,1,0,0:0:0:0:
144,100,45905,1,0,0:0:0:0:
144,144,46000,1,0,0:0:0:0:
156,188,46094,1,0,0:0:0:0:
168,232,46189,1,8,0:0:0:0:
156,275,46284,1,0,0:0:0:0:
124,306,46379,1,0,0:0:0:0:
84,328,46474,1,0,0:0:0:0:
40,317,46569,1,0,0:0:0:0:
15,279,46664,5,0,0:0:0:0:
15,233,46759,1,0,0:0:0:0:
15,187,46854,1,0,0:0:0:0:
15,141,46949,2,0,L|16:120,7,18.75,8|0|0|0|0|0|0|0,0:0|0:0|0:0|0:0|0:0|0:0|0:0|0:0,0:0:0:0:
15,99,47329,2,0,L|16:76,7,18.75
31,64,47708,2,0,L|52:64,8,18.75,8|0|0|0|0|0|0|0|4,0:0|0:0|0:0|0:0|0:0|0:0|0:0|0:0|0:0,0:0:0:0:
229,229,48658,5,8,0:0:0:0:
314,200,48848,2,8,B|350:183|370:151,1,75
369,61,49227,2,8,P|336:40|300:32,2,75,8|8|12,0:0|0:0|0:0,0:0:0:0:
464,156,49892,5,0,0:0:0:0:
464,201,49987,1,0,0:0:0:0:
400,264,50177,1,0,0:0:0:0:
309,264,50367,1,8,0:0:0:0:
219,264,50556,1,0,0:0:0:0:
176,268,50651,1,0,0:0:0:0:
132,268,50746,1,0,0:0:0:0:
68,204,50936,2,0,L|68:129,1,75,0|8,0:0|0:0,0:0:0:0:
158,129,51316,5,0,0:0:0:0:
158,83,51411,1,0,0:0:0:0:
158,37,51506,1,0,0:0:0:0:
247,54,51696,2,0,L|247:129,1,75,0|8,0:0|0:0,0:0:0:0:
337,129,52075,1,0,0:0:0:0:
337,129,52170,1,0,0:0:0:0:
337,129,52265,1,0,0:0:0:0:
400,192,52455,2,0,P|428:216|448:248,2,75,0|8|0,0:0|0:0|0:0,0:0:0:0:
367,224,52930,5,0,0:0:0:0:
321,224,53025,1,0,0:0:0:0:
244,175,53215,2,0,P|212:152|176:144,1,75,0|8,0:0|0:0,0:0:0:0:
87,144,53594,1,0,0:0:0:0:
87,144,53689,1,0,0:0:0:0:
87,144,53784,1,0,0:0:0:0:
40,221,53974,2,0,P|32:260|40:296,1,75,0|8,0:0|0:0,0:0:0:0:
129,293,54354,6,0,P|137:254|129:218,1,75
87,144,54734,2,0,P|76:104|80:72,1,75,0|8,0:0|0:0,0:0:0:0:
158,27,55113,2,0,L|195:27,2,37.5
216,104,55493,1,0,0:0:0:0:
160,156,55683,2,0,P|192:176|228:180,1,75,8|0,0:0|0:0,0:0:0:0:
273,179,55968,6,0,L|311:180,1,37.5
401,179,56253,1,0,0:0:0:0:
362,260,56443,1,8,0:0:0:0:
272,260,56632,1,0,0:0:0:0:
272,260,56727,1,0,0:0:0:0:
272,260,56822,1,0,0:0:0:0:
272,350,57012,2,0,L|197:349,1,75,0|8,0:0|0:0,0:0:0:0:
132,284,57392,6,0,L|132:209,1,75
221,119,57772,2,0,L|221:193,1,75,0|8,0:0|0:0,0:0:0:0:
371,284,58151,2,0,L|371:209,1,75,0|4,0:0|0:0,0:0:0:0:
324,71,58531,2,0,P|296:44|264:28,1,75,4|8,0:0|0:0,0:0:0:0:
173,27,58911,5,0,0:0:0:0:
141,58,59006,2,0,L|115:86,1,37.5
179,149,59291,2,0,P|204:176|224:208,1,75,0|8,0:0|0:0,0:0:0:0:
224,298,59670,2,0,L|261:298,2,37.5
133,298,60050,2,0,L|133:222,1,75
63,298,60430,6,4,L|63:220,1,75
63,132,60810,1,0,0:0:0:0:
126,68,61000,2,8,P|164:68|192:92,1,75
236,216,61379,2,8,P|264:242|300:242,1,75
367,128,61759,6,0,P|395:104|432:105,1,75,12|0,0:0|0:0,0:0:0:0:
474,121,62044,1,0,0:0:0:0:
489,163,62139,1,0,0:0:0:0:
425,226,62329,2,0,L|425:301,1,75,0|8,0:0|0:0,0:0:0:0:
334,301,62708,1,0,0:0:0:0:
334,301,62803,1,0,0:0:0:0:
334,301,62898,1,0,0:0:0:0:
270,237,63088,2,0,P|240:260|204:272,1,75,0|8,0:0|0:0,0:0:0:0:
141,207,63468,6,0,L|141:169,2,37.5
76,271,63848,2,0,P|40:258|11:236,1,75,0|8,0:0|0:0,0:0:0:0:
74,172,64227,1,0,0:0:0:0:
74,126,64322,1,0,0:0:0:0:
74,80,64417,1,0,0:0:0:0:
164,80,64607,2,0,P|144:44|116:12,2,75,0|8|0,0:0|0:0|0:0,0:0:0:0:
184,120,65082,6,0,L|204:160,1,37.5
291,153,65367,2,0,P|328:168|356:192,1,75,0|8,0:0|0:0,0:0:0:0:
354,280,65746,1,0,0:0:0:0:
354,280,65841,1,0,0:0:0:0:
354,280,65936,1,0,0:0:0:0:
262,280,66126,2,0,B|230:264|230:264|190:264,1,75,0|8,0:0|0:0,0:0:0:0:
127,327,66506,6,0,B|87:327|87:327|55:311,1,75
55,220,66886,2,0,B|95:220|95:220|127:236,1,75,0|8,0:0|0:0,0:0:0:0:
189,171,67265,1,0,0:0:0:0:
189,171,67360,1,0,0:0:0:0:
189,171,67455,1,0,0:0:0:0:
252,107,67645,2,0,L|284:88,1,37.5
329,87,67835,6,0,P|364:104|392:128,1,75,8|0,0:0|0:0,0:0:0:0:
420,208,68215,1,0,0:0:0:0:
360,290,68405,2,0,P|324:304|288:296,1,75,0|8,0:0|0:0,0:0:0:0:
213,248,68784,2,0,L|188:276,2,37.5
180,163,69164,1,0,0:0:0:0:
209,77,69354,5,8,0:0:0:0:
299,77,69544,1,0,0:0:0:0:
299,77,69639,1,0,0:0:0:0:
299,77,69734,1,0,0:0:0:0:
328,161,69924,2,0,L|328:236,1,75
264,299,70303,2,0,P|228:299|192:316,2,75
354,299,70873,5,0,0:0:0:0:
417,235,71063,2,0,L|444:208,2,37.5
352,170,71443,2,0,P|326:142|288:132,1,75
197,131,71822,1,0,0:0:0:0:
151,131,71917,1,0,0:0:0:0:
119,162,72012,1,0,0:0:0:0:
23,257,72202,5,0,0:0:0:0:
293,257,72582,5,0,0:0:0:0:
484,65,72962,5,0,0:0:0:0:
214,65,73341,5,0,0:0:0:0:
23,257,73721,6,4,P|58:280|90:284,1,75,4|12,0:0|0:0,0:0:0:0:
180,283,74101,1,0,0:0:0:0:
180,283,74196,1,0,0:0:0:0:
180,283,74291,1,0,0:0:0:0:
243,219,74481,2,0,P|268:188|300:168,1,75,0|8,0:0|0:0,0:0:0:0:
387,169,74860,2,0,L|420:188,2,37.5
322,104,75240,1,0,0:0:0:0:
258,40,75430,1,8,0:0:0:0:
194,103,75620,5,0,0:0:0:0:
194,103,75715,1,0,0:0:0:0:
194,103,75810,1,0,0:0:0:0:
108,96,76000,2,0,P|120:60|144:33,2,75,0|8|0,0:0|0:0|0:0,0:0:0:0:
108,141,76474,1,0,0:0:0:0:
108,186,76569,1,0,0:0:0:0:
171,249,76759,2,0,P|204:272|232:292,1,75,0|12,0:0|0:0,0:0:0:0:
322,292,77139,5,0,0:0:0:0:
367,292,77234,1,0,0:0:0:0:
412,292,77329,1,0,0:0:0:0:
412,202,77518,1,0,0:0:0:0:
321,202,77708,2,0,L|321:127,1,75,8|0,0:0|0:0,0:0:0:0:
275,127,77993,2,0,L|236:127,1,37.5
146,127,78278,2,8,B|112:144|96:176|96:220|132:256,1,150,0|0,0:0|0:0,0:0:0:0:
162,286,78753,5,0,0:0:0:0:
193,317,78848,1,0,0:0:0:0:
282,317,79037,2,0,P|320:308|348:284,2,75,0|8|0,0:0|0:0|0:0,0:0:0:0:
237,325,79512,2,0,L|237:288,1,37.5
237,196,79797,2,0,P|224:160|200:128,1,75,0|12,0:0|0:0,0:0:0:0:
126,81,80177,5,0,0:0:0:0:
126,81,80272,1,0,0:0:0:0:
126,81,80367,1,0,0:0:0:0:
205,40,80556,2,0,P|244:32|280:32,1,75,0|8,0:0|0:0,0:0:0:0:
369,31,80936,2,0,L|408:30,2,37.5
304,95,81316,1,0,0:0:0:0:
369,158,81506,1,12,0:0:0:0:
432,94,81696,5,0,0:0:0:0:
463,125,81791,1,0,0:0:0:0:
463,170,81886,1,0,0:0:0:0:
399,233,82075,1,0,0:0:0:0:
308,233,82265,2,0,L|234:233,1,75,8|0,0:0|0:0,0:0:0:0:
187,233,82550,1,0,0:0:0:0:
141,233,82645,1,0,0:0:0:0:
77,169,82835,1,0,0:0:0:0:
140,105,83025,5,12,0:0:0:0:
203,41,83215,2,0,L|180:12,2,37.5
266,104,83594,2,0,B|304:104|304:104|336:124,1,75,0|8,0:0|0:0,0:0:0:0:
412,171,83974,1,0,0:0:0:0:
348,234,84164,2,0,B|310:234|310:234|278:214,1,75
214,150,84544,6,0,B|176:150|176:150|144:170,1,75
108,196,84829,2,0,L|80:220,1,37.5
143,284,85113,1,0,0:0:0:0:
225,319,85303,2,0,L|304:336,1,75
343,334,85588,1,0,0:0:0:0:
374,302,85683,1,0,0:0:0:0:
310,238,85873,1,0,0:0:0:0:
389,158,86063,5,0,0:0:0:0:
269,38,86348,1,0,0:0:0:0:
150,156,86632,1,0,0:0:0:0:
285,156,86822,5,0,0:0:0:0:
141,12,87107,1,0,0:0:0:0:
343,12,87392,1,0,0:0:0:0:
454,123,87582,5,0,0:0:0:0:
286,290,87867,1,0,0:0:0:0:
119,123,88151,1,0,0:0:0:0:
276,123,88341,5,4,0:0:0:0:
