osu file format v14

[General]
AudioFilename: HSDXDED.mp3
AudioLeadIn: 0
PreviewTime: 48658
Countdown: 0
SampleSet: Normal
StackLeniency: 0.7
Mode: 0
LetterboxInBreaks: 0
WidescreenStoryboard: 0

[Editor]
DistanceSpacing: 1
BeatDivisor: 4
GridSize: 4
TimelineZoom: 2.4

[Metadata]
Title:Give Me Secret
TitleUnicode:Give Me Secret
Artist:StylipS
ArtistUnicode:StylipS
Creator:jloughman14
Version:Hyper
Source:High School DxD BoRN
Tags:season 3 devil ハイスクールd×d
BeatmapID:674762
BeatmapSetID:300894

[Difficulty]
HPDrainRate:6
CircleSize:4.5
OverallDifficulty:5
ApproachRate:8
SliderMultiplier:1.5
SliderTickRate:1

[Events]
//Background and Video events
0,0,"highschool_dxd_born_members_ WITH_CLOTHS!.jpg",0,0
//Break Periods
//Storyboard Layer 0 (Background)
//Storyboard Layer 1 (Fail)
//Storyboard Layer 2 (Pass)
//Storyboard Layer 3 (Foreground)
//Storyboard Sound Samples

[TimingPoints]
1000,379.746835443038,4,1,0,60,1,0
49607,-100,4,1,0,60,0,1
57582,-71.4285714285714,4,1,0,60,0,1
57962,-55.5555555555556,4,1,0,60,0,1
58341,-100,4,1,0,60,0,1
59860,-100,4,1,0,60,0,0
61000,-100,4,1,0,60,0,1
86063,-100,4,1,0,60,0,0

[Colours]
Combo1 : 255,0,0
Combo2 : 196,103,0
Combo3 : 255,255,255
Combo4 : 0,38,119
Combo5 : 41,0,83

[HitObjects]
320,60,1000,6,4,P|368:96|384:152,1,112.5
272,164,1569,1,0,0:0:0:0:
220,120,1759,1,0,0:0:0:0:
152,128,1949,2,0,L|112:88,2,37.5
148,196,2234,2,0,L|116:220,2,37.5
200,240,2518,6,4,P|244:273|257:326,1,112.5
368,296,3088,1,0,0:0:0:0:
440,296,3278,1,0,0:0:0:0:
404,228,3468,2,0,L|468:228,2,37.5
344,216,3753,2,0,L|288:216,2,37.5
384,168,4037,6,4,P|384:112|328:64,1,112.5
232,72,4607,1,0,0:0:0:0:
160,72,4797,2,4,P|104:80|64:120,1,112.5
145,197,5367,1,0,0:0:0:0:
219,197,5556,5,0,0:0:0:0:
325,303,5936,1,0,0:0:0:0:
431,196,6316,1,0,0:0:0:0:
324,89,6696,1,0,0:0:0:0:
248,89,6886,2,0,L|200:89,3,25
64,152,7360,6,0,L|72:192,1,37.5,0|8,0:0|0:0,0:0:0:0:
144,192,7645,2,0,P|200:192|240:208,1,75
272,248,8025,1,0,0:0:0:0:
296,280,8120,1,0,0:0:0:0:
320,312,8215,1,8,0:0:0:0:
384,272,8405,1,0,0:0:0:0:
360,240,8500,1,0,0:0:0:0:
336,208,8594,5,0,0:0:0:0:
256,128,8879,1,0,0:0:0:0:
216,128,8974,1,8,0:0:0:0:
232,56,9164,1,0,0:0:0:0:
304,80,9354,1,0,0:0:0:0:
376,104,9544,2,0,L|376:160,2,37.5,0|0|8,0:0|0:0|0:0,0:0:0:0:
448,80,9924,1,0,0:0:0:0:
448,152,10113,6,0,P|440:208|384:272,1,112.5,0|8,0:0|0:0,0:0:0:0:
312,192,10683,1,0,0:0:0:0:
240,192,10873,2,0,L|112:192,1,112.5,0|8,0:0|0:0,0:0:0:0:
128,304,11443,2,0,L|216:304,1,75
315,304,11917,5,8,0:0:0:0:
352,200,12202,1,0,0:0:0:0:
304,136,12392,1,0,0:0:0:0:
296,128,12487,1,0,0:0:0:0:
288,120,12582,1,0,0:0:0:0:
280,112,12677,1,0,0:0:0:0:
272,104,12772,1,0,0:0:0:0:
124,100,13151,6,0,P|176:104|212:188,1,150
144,168,13721,2,0,P|104:180|80:216,1,75
146,240,14101,2,0,L|234:240,1,75,0|8,0:0|0:0,0:0:0:0:
296,240,14481,2,0,L|216:240,1,75
216,312,14860,5,0,0:0:0:0:
288,312,15050,2,0,P|336:304|360:272,1,75
376,216,15430,1,0,0:0:0:0:
376,64,15810,1,8,0:0:0:0:
224,64,16189,6,0,P|155:83|128:152,1,150
200,136,16759,2,0,P|172:96|148:84,1,75
72,192,17139,2,0,P|88:248|112:264,1,75,0|8,0:0|0:0,0:0:0:0:
144,200,17518,2,0,P|167:228|171:265,1,75
160,336,17898,6,0,P|216:320|232:296,1,75
264,248,18278,1,0,0:0:0:0:
264,176,18468,1,0,0:0:0:0:
264,24,18848,2,0,L|344:24,2,75,8|0|0,0:0|0:0|0:0,0:0:0:0:
208,80,19417,5,0,0:0:0:0:
152,136,19607,2,0,L|88:200,1,75
45,242,19987,1,0,0:0:0:0:
151,348,20367,1,8,0:0:0:0:
225,348,20556,2,0,L|305:348,1,75
304,256,20936,6,0,L|224:256,1,75
296,184,21506,1,0,0:0:0:0:
368,184,21696,2,0,L|368:104,1,75,0|8,0:0|0:0,0:0:0:0:
328,40,22075,2,0,L|408:40,1,75
256,40,22645,5,0,0:0:0:0:
128,112,23025,2,0,P|152:192|224:208,1,150
200,136,23594,1,0,0:0:0:0:
272,152,23784,6,0,B|288:216|320:216|328:176|328:176|336:120|360:120|368:176|368:176|376:216|408:216|428:144,1,300
408,72,24734,2,2,B|352:0|264:0|208:80,1,225
163,121,25493,6,0,L|94:191,1,75
144,240,25873,1,0,0:0:0:0:
184,240,25968,1,0,0:0:0:0:
224,240,26063,1,0,0:0:0:0:
296,240,26253,2,0,L|384:240,1,75,0|8,0:0|0:0,0:0:0:0:
448,240,26632,1,0,0:0:0:0:
448,280,26727,1,0,0:0:0:0:
448,320,26822,5,0,0:0:0:0:
376,320,27012,2,0,L|296:320,1,75,0|8,0:0|0:0,0:0:0:0:
224,320,27392,1,0,0:0:0:0:
148,320,27582,2,0,P|112:252|144:192,2,150,0|8|0,0:0|0:0|0:0,0:0:0:0:
184,256,28531,5,0,0:0:0:0:
224,256,28626,1,0,0:0:0:0:
264,256,28721,1,8,0:0:0:0:
264,184,28911,2,0,L|352:184,1,75
416,184,29291,1,0,0:0:0:0:
440,152,29386,1,0,0:0:0:0:
408,128,29481,1,8,0:0:0:0:
336,128,29670,2,0,L|256:128,1,75
336,56,30050,6,0,L|432:56,1,75
488,56,30430,1,0,0:0:0:0:
496,128,30620,2,0,B|480:168|392:168|360:120,2,150,0|8|0,0:0|0:0|0:0,0:0:0:0:
432,88,31569,5,0,0:0:0:0:
408,56,31664,1,0,0:0:0:0:
376,32,31759,1,12,0:0:0:0:
304,32,31949,2,0,L|224:32,1,75
168,72,32329,1,0,0:0:0:0:
141,98,32424,1,0,0:0:0:0:
114,124,32518,1,8,0:0:0:0:
114,199,32708,2,0,L|114:280,1,75
184,200,33088,5,0,0:0:0:0:
224,200,33183,1,0,0:0:0:0:
264,200,33278,1,12,0:0:0:0:
336,200,33468,2,0,L|312:128,1,75
384,104,33848,1,0,0:0:0:0:
424,104,33943,1,0,0:0:0:0:
464,104,34037,1,8,0:0:0:0:
472,176,34227,2,0,L|416:240,1,75
360,272,34607,5,0,0:0:0:0:
360,312,34702,1,0,0:0:0:0:
328,296,34797,1,12,0:0:0:0:
256,296,34987,2,0,L|176:296,1,75
104,296,35367,1,0,0:0:0:0:
144,296,35462,1,0,0:0:0:0:
184,296,35556,1,8,0:0:0:0:
184,220,35746,2,0,L|184:132,1,75
184,72,36126,6,4,L|264:72,1,75
336,72,36506,2,0,L|360:148,1,75
340,216,36886,1,0,0:0:0:0:
272,184,37075,2,0,L|260:136,4,37.5,0|0|0|0|4,0:0|0:0|0:0|0:0|0:0,0:0:0:0:
200,128,37645,5,0,0:0:0:0:
167,60,37835,2,0,L|255:60,1,75
95,60,38215,2,0,L|15:60,1,75
127,124,38594,2,0,L|127:204,1,75
183,252,38974,6,0,L|271:252,1,75
333,252,39354,2,0,L|253:252,1,75
258,177,39734,2,0,L|258:257,1,75
258,327,40113,2,0,L|258:251,1,75
333,252,40493,5,0,0:0:0:0:
320,320,40683,1,0,0:0:0:0:
360,320,40778,1,0,0:0:0:0:
400,320,40873,1,0,0:0:0:0:
440,256,41063,1,0,0:0:0:0:
472,320,41253,2,0,L|392:320,1,75
360,256,41632,2,0,L|360:168,1,75
336,112,42012,5,0,0:0:0:0:
264,112,42202,1,0,0:0:0:0:
224,112,42297,1,0,0:0:0:0:
184,112,42392,1,0,0:0:0:0:
112,112,42582,1,0,0:0:0:0:
112,184,42772,2,0,L|112:280,1,75
184,224,43151,2,0,L|264:224,1,75
336,224,43531,5,0,0:0:0:0:
408,224,43721,1,0,0:0:0:0:
408,184,43816,1,0,0:0:0:0:
408,144,43911,1,0,0:0:0:0:
408,72,44101,1,0,0:0:0:0:
336,72,44291,1,0,0:0:0:0:
264,72,44481,1,0,0:0:0:0:
224,72,44575,1,0,0:0:0:0:
184,72,44670,1,0,0:0:0:0:
112,72,44860,1,0,0:0:0:0:
112,144,45050,5,0,0:0:0:0:
184,144,45240,1,0,0:0:0:0:
224,144,45335,1,0,0:0:0:0:
264,144,45430,1,0,0:0:0:0:
336,144,45620,1,0,0:0:0:0:
408,144,45810,1,0,0:0:0:0:
408,168,45905,1,0,0:0:0:0:
408,192,46000,1,0,0:0:0:0:
408,212,46094,1,0,0:0:0:0:
408,232,46189,5,0,0:0:0:0:
400,256,46284,1,0,0:0:0:0:
384,268,46379,1,0,0:0:0:0:
360,276,46474,1,0,0:0:0:0:
336,276,46569,1,0,0:0:0:0:
312,276,46664,1,0,0:0:0:0:
288,276,46759,1,0,0:0:0:0:
264,276,46854,1,0,0:0:0:0:
228,280,46949,2,0,L|228:328,6,25
228,232,47392,2,0,L|228:207,5,25
188,252,47772,2,0,L|163:252,5,25
354,60,48658,5,8,0:0:0:0:
417,123,48848,1,8,0:0:0:0:
353,186,49037,1,8,0:0:0:0:
289,122,49227,1,8,0:0:0:0:
258,37,49417,1,8,0:0:0:0:
176,80,49607,6,0,B|144:112|144:168|184:208,1,112.5,4|0,0:0|0:0,0:0:0:0:
192,216,49987,1,8,0:0:0:0:
256,256,50177,1,0,0:0:0:0:
256,184,50367,2,0,P|256:128|304:80,1,112.5
320,64,50746,1,8,0:0:0:0:
392,80,50936,2,0,L|392:160,1,75
392,8,51316,6,0,L|312:8,1,75,0|8,0:0|0:0,0:0:0:0:
248,40,51696,2,0,L|192:96,1,75
144,144,52075,1,0,0:0:0:0:
144,184,52170,1,0,0:0:0:0:
144,224,52265,1,8,0:0:0:0:
200,272,52455,1,0,0:0:0:0:
264,304,52645,6,0,L|376:304,1,112.5
416,304,53025,1,8,0:0:0:0:
416,232,53215,2,0,L|320:232,1,75
264,232,53594,2,0,L|264:152,1,75,0|8,0:0|0:0,0:0:0:0:
336,160,53974,2,0,L|424:160,1,75
488,160,54354,6,0,L|487:71,1,75,0|8,0:0|0:0,0:0:0:0:
410,85,54734,2,0,L|334:85,1,75
264,80,55113,1,0,0:0:0:0:
224,80,55208,1,0,0:0:0:0:
184,80,55303,1,8,0:0:0:0:
112,80,55493,1,0,0:0:0:0:
112,152,55683,6,0,L|112:312,2,150,0|8|0,0:0|0:0|0:0,0:0:0:0:
184,152,56632,1,0,0:0:0:0:
224,152,56727,1,0,0:0:0:0:
264,152,56822,1,8,0:0:0:0:
336,152,57012,1,0,0:0:0:0:
408,152,57202,6,0,L|408:232,1,75
336,152,57582,2,0,L|336:256,1,104.999996795654,8|0,0:0|0:0,0:0:0:0:
264,152,57962,2,0,L|264:288,1,134.999995880127
184,152,58341,1,12,0:0:0:0:
110,138,58531,2,0,P|134:210|208:224,2,150
112,64,59481,1,8,0:0:0:0:
184,64,59670,1,0,0:0:0:0:
224,64,59765,1,0,0:0:0:0:
264,64,59860,1,0,0:0:0:0:
336,64,60050,5,8,0:0:0:0:
488,64,60430,5,12,0:0:0:0:
280,152,61000,6,8,P|312:200|344:208,1,75
400,232,61379,2,8,P|380:263|346:277,1,75
272,280,61759,6,0,L|144:280,1,112.5,4|0,0:0|0:0,0:0:0:0:
120,280,62139,1,8,0:0:0:0:
120,208,62329,2,0,L|224:208,1,75
272,208,62708,2,0,L|352:208,1,75,0|8,0:0|0:0,0:0:0:0:
352,136,63088,6,0,P|312:96|208:104,2,150
384,200,64037,1,8,0:0:0:0:
384,272,64227,1,0,0:0:0:0:
384,312,64322,1,0,0:0:0:0:
384,352,64417,1,0,0:0:0:0:
312,352,64607,1,0,0:0:0:0:
240,352,64797,6,0,L|240:272,1,75,8|0,0:0|0:0,0:0:0:0:
240,240,65082,1,0,0:0:0:0:
240,200,65177,2,0,P|200:144|120:128,1,150,0|8,0:0|0:0,0:0:0:0:
56,152,65746,1,0,0:0:0:0:
56,192,65841,1,0,0:0:0:0:
56,232,65936,1,0,0:0:0:0:
56,304,66126,6,8,P|136:328|200:304,2,150
56,232,67075,1,0,0:0:0:0:
128,232,67265,1,0,0:0:0:0:
160,232,67360,1,0,0:0:0:0:
200,232,67455,1,8,0:0:0:0:
272,232,67645,1,0,0:0:0:0:
344,232,67835,6,0,P|400:168|368:104,2,150,0|12|0,0:0|0:0|0:0,0:0:0:0:
320,160,68784,1,0,0:0:0:0:
288,144,68879,1,0,0:0:0:0:
256,128,68974,1,8,0:0:0:0:
184,128,69164,1,0,0:0:0:0:
112,128,69354,5,0,0:0:0:0:
56,176,69544,2,0,P|56:256|136:296,2,150
120,216,70493,1,0,0:0:0:0:
184,176,70683,2,0,P|208:136|240:136,1,75
256,192,71063,12,0,72202,0:0:0:0:
256,192,72582,5,4,0:0:0:0:
368,96,72962,1,0,0:0:0:0:
488,192,73341,1,4,0:0:0:0:
256,192,73721,12,0,74670,0:0:0:0:
168,160,75050,6,0,P|160:232|224:272,1,150,8|4,0:0|0:0,0:0:0:0:
232,200,75810,6,0,P|290:240|282:311,2,150,0|8|0,0:0|0:0|0:0,0:0:0:0:
160,192,76759,1,0,0:0:0:0:
120,192,76854,1,0,0:0:0:0:
80,192,76949,5,12,0:0:0:0:
80,120,77139,1,0,0:0:0:0:
152,120,77329,2,0,P|200:136|240:120,1,75
192,64,77708,2,0,P|228:59|262:74,1,75,8|0,0:0|0:0,0:0:0:0:
288,104,77993,1,0,0:0:0:0:
312,136,78088,1,0,0:0:0:0:
328,208,78278,6,8,P|328:272|256:312,2,150
256,232,79227,1,0,0:0:0:0:
184,208,79417,1,0,0:0:0:0:
144,208,79512,1,0,0:0:0:0:
104,208,79607,1,8,0:0:0:0:
32,232,79797,1,0,0:0:0:0:
32,304,79987,5,8,0:0:0:0:
96,336,80177,1,0,0:0:0:0:
168,336,80367,2,0,L|328:336,2,150,0|8|0,0:0|0:0|0:0,0:0:0:0:
168,264,81316,1,0,0:0:0:0:
168,224,81411,1,0,0:0:0:0:
168,184,81506,5,8,0:0:0:0:
168,112,81696,1,0,0:0:0:0:
168,40,81886,2,0,L|320:40,2,150,0|8|0,0:0|0:0|0:0,0:0:0:0:
96,40,82835,1,0,0:0:0:0:
64,64,82930,1,0,0:0:0:0:
64,104,83025,5,12,0:0:0:0:
96,176,83215,1,0,0:0:0:0:
168,184,83405,2,0,P|208:192|232:216,1,75
168,256,83784,2,0,P|195:281|231:287,1,75
296,248,84164,1,0,0:0:0:0:
296,176,84354,6,0,P|232:120|232:56,2,150
304,96,85493,2,0,P|308:56|292:16,1,75
176,24,85873,1,0,0:0:0:0:
216,88,86063,5,0,0:0:0:0:
296,248,86348,1,0,0:0:0:0:
208,192,86632,5,0,0:0:0:0:
136,192,86822,2,0,L|136:64,1,112.5
248,72,87392,5,0,0:0:0:0:
320,72,87582,2,0,L|320:184,1,112.5
256,280,88151,5,0,0:0:0:0:
184,280,88341,1,4,0:0:0:0:
