osu file format v14

[General]
AudioFilename: HSDXDED.mp3
AudioLeadIn: 0
PreviewTime: 48658
Countdown: 0
SampleSet: Normal
StackLeniency: 0.7
Mode: 0
LetterboxInBreaks: 0
WidescreenStoryboard: 0

[Editor]
DistanceSpacing: 1
BeatDivisor: 4
GridSize: 4
TimelineZoom: 2

[Metadata]
Title:Give Me Secret
TitleUnicode:Give Me Secret
Artist:StylipS
ArtistUnicode:StylipS
Creator:jloughman14
Version:Hard
Source:High School DxD BoRN
Tags:season 3 devil ハイスクールd×d
BeatmapID:706713
BeatmapSetID:300894

[Difficulty]
HPDrainRate:5.5
CircleSize:4
OverallDifficulty:5
ApproachRate:8
SliderMultiplier:1.5
SliderTickRate:1

[Events]
//Background and Video events
0,0,"highschool_dxd_born_members_ WITH_CLOTHS!.jpg",0,0
//Break Periods
//Storyboard Layer 0 (Background)
//Storyboard Layer 1 (Fail)
//Storyboard Layer 2 (Pass)
//Storyboard Layer 3 (Foreground)
//Storyboard Sound Samples

[TimingPoints]
1000,379.746835443038,4,1,0,60,1,0
49607,-100,4,1,0,60,0,1
57582,-71.4285714285714,4,1,0,60,0,1
57962,-55.5555555555556,4,1,0,60,0,1
58341,-100,4,1,0,60,0,1
59860,-100,4,1,0,60,0,0
61000,-100,4,1,0,60,0,1
86063,-100,4,1,0,60,0,0

[Colours]
Combo1 : 255,0,0
Combo2 : 196,103,0
Combo3 : 255,255,255
Combo4 : 0,38,119
Combo5 : 41,0,83

[HitObjects]
224,44,1000,6,0,B|215:85|191:109|152:124,2,112.5,4|0|0,0:0|0:0|0:0,0:0:0:0:
296,40,1759,1,0,0:0:0:0:
349,93,1949,2,0,L|388:93,5,37.5
416,112,2518,6,0,B|425:153|449:177|489:193,2,112.5,4|0|0,0:0|0:0|0:0,0:0:0:0:
469,58,3278,1,0,0:0:0:0:
412,11,3468,2,0,L|372:12,5,37.5
347,38,4037,6,0,B|320:64|284:64|264:52|248:32,2,112.5,4|0|0,0:0|0:0|0:0,0:0:0:0:
400,91,4797,2,0,L|400:204,2,112.5,4|0|0,0:0|0:0|0:0,0:0:0:0:
327,109,5556,5,0,0:0:0:0:
176,109,5936,2,0,P|104:136|80:200,1,150
186,306,6696,1,0,0:0:0:0:
261,306,6886,2,0,L|283:306,4,18.75,0|0|0|0|4,0:0|0:0|0:0|0:0|0:0,0:0:0:0:
367,199,7455,6,0,P|332:212|291:199,1,75,8|0,0:0|0:0,0:0:0:0:
324,132,7835,2,0,P|359:119|400:132,1,75
447,181,8215,1,8,0:0:0:0:
424,252,8405,1,0,0:0:0:0:
353,276,8594,6,0,P|316:288|292:316,2,75,0|0|8,0:0|0:0|0:0,0:0:0:0:
360,352,9164,1,0,0:0:0:0:
431,328,9354,1,0,0:0:0:0:
466,262,9544,1,0,0:0:0:0:
440,191,9734,2,0,P|416:160|384:140,1,75,8|0,0:0|0:0,0:0:0:0:
311,140,10113,6,0,B|272:144|240:160|216:192,2,112.5,4|0|0,0:0|0:0|0:0,0:0:0:0:
384,128,10873,2,0,B|380:89|364:57|332:33,2,112.5,4|0|0,0:0|0:0|0:0,0:0:0:0:
384,203,11632,6,0,B|388:242|404:274|436:298,2,112.5,4|0|0,0:0|0:0|0:0,0:0:0:0:
308,203,12392,2,0,L|268:200,4,37.5
176,132,13151,6,0,B|148:204|184:280,1,150,12|0,0:0|0:0,0:0:0:0:
330,268,13911,1,0,0:0:0:0:
383,214,14101,2,0,L|340:152,1,75
264,152,14481,2,0,L|221:90,1,75
146,90,14860,5,0,0:0:0:0:
92,143,15050,2,0,P|92:184|112:216,2,75
218,69,15810,1,0,0:0:0:0:
293,69,16000,1,0,0:0:0:0:
367,69,16189,6,0,B|400:88|424:116|440:156|440:196,2,150,8|0|0,0:0|0:0|0:0,0:0:0:0:
331,135,17139,1,0,0:0:0:0:
262,164,17329,2,0,P|228:180|204:208,1,75
144,256,17708,6,0,P|174:283|208:288,2,75
120,184,18278,1,0,0:0:0:0:
173,130,18468,1,0,0:0:0:0:
279,236,18848,1,0,0:0:0:0:
384,130,19227,5,8,0:0:0:0:
437,183,19417,2,0,P|432:216|400:244,2,75
456,110,19987,1,0,0:0:0:0:
322,41,20367,1,8,0:0:0:0:
269,93,20556,2,0,P|240:116|204:128,1,75
130,144,20936,6,0,P|88:156|60:176,1,75
168,280,21506,1,8,0:0:0:0:
221,333,21696,1,0,0:0:0:0:
274,279,21886,1,0,0:0:0:0:
326,331,22075,1,0,0:0:0:0:
379,277,22265,5,0,0:0:0:0:
319,139,22645,1,8,0:0:0:0:
212,245,23025,2,0,B|180:269|140:277|100:261|72:237,1,150
73,163,23594,2,0,B|105:139|145:131|185:147|213:171,1,150
356,204,24354,5,0,0:0:0:0:
444,84,24734,2,2,B|408:68|372:64|332:80|288:100|244:92|220:72,1,225,2|14,0:0|0:0,0:0:0:0:
171,128,25493,6,0,L|171:205,1,75
171,278,25873,2,0,L|246:278,1,75,0|8,0:0|0:0,0:0:0:0:
299,224,26253,1,0,0:0:0:0:
374,224,26443,2,0,L|375:299,2,75,0|0|8,0:0|0:0|0:0,0:0:0:0:
427,170,27012,5,0,0:0:0:0:
373,116,27202,1,0,0:0:0:0:
319,62,27392,1,0,0:0:0:0:
265,115,27582,2,0,B|248:148|216:172|168:168|136:136,2,150,8|0|8,0:0|0:0|0:0,0:0:0:0:
195,85,28531,5,0,0:0:0:0:
130,46,28721,2,0,L|55:46,1,75
55,119,29101,2,0,L|55:194,1,75,8|0,0:0|0:0,0:0:0:0:
55,269,29481,2,0,L|55:347,2,75,0|0|8,0:0|0:0|0:0,0:0:0:0:
119,231,30050,6,0,L|194:232,2,75
119,155,30620,2,0,P|140:84|200:40,1,150,8|0,0:0|0:0,0:0:0:0:
349,40,31379,6,0,B|400:104|368:180,2,150,8|4|8,0:0|0:0|0:0,0:0:0:0:
214,107,32518,1,0,0:0:0:0:
75,165,32898,6,0,B|24:101|56:25,2,150,8|4|8,0:0|0:0|0:0,0:0:0:0:
226,168,34037,1,0,0:0:0:0:
376,168,34417,6,0,B|427:232|395:308,2,150,8|4|8,0:0|0:0|0:0,0:0:0:0:
243,98,35556,1,0,0:0:0:0:
167,98,35746,1,0,0:0:0:0:
60,204,36126,5,0,0:0:0:0:
60,204,36316,1,4,0:0:0:0:
60,204,36506,1,0,0:0:0:0:
166,310,36886,1,0,0:0:0:0:
240,310,37075,1,0,0:0:0:0:
346,203,37455,6,0,L|346:126,2,75,8|0|0,0:0|0:0|0:0,0:0:0:0:
195,203,38215,2,0,B|164:180|140:148|128:104|136:60,2,150,8|0|8,0:0|0:0|0:0,0:0:0:0:
345,203,39354,6,0,B|376:226|400:258|412:302|404:346,2,150,8|0|8,0:0|0:0|0:0,0:0:0:0:
238,96,40493,6,0,B|206:102|162:90|130:66|107:35,2,150,8|0|8,0:0|0:0|0:0,0:0:0:0:
388,96,41632,2,0,P|376:132|352:160,1,75
287,198,42012,5,8,0:0:0:0:
224,156,42202,1,0,0:0:0:0:
73,156,42582,1,0,0:0:0:0:
73,231,42772,1,8,0:0:0:0:
126,284,42962,1,0,0:0:0:0:
275,284,43341,1,0,0:0:0:0:
350,284,43531,5,8,0:0:0:0:
425,284,43721,2,0,L|425:327,2,37.5
425,208,44101,1,0,0:0:0:0:
425,132,44291,1,8,0:0:0:0:
371,78,44481,1,0,0:0:0:0:
318,25,44670,1,0,0:0:0:0:
242,25,44860,1,0,0:0:0:0:
188,78,45050,5,8,0:0:0:0:
188,153,45240,2,0,L|227:153,2,37.5
188,228,45620,1,0,0:0:0:0:
241,281,45810,2,0,L|208:300,3,37.5,8|0|0|0,0:0|0:0|0:0|0:0,0:0:0:0:
208,337,46189,2,0,L|175:356,3,37.5
148,328,46569,6,0,L|129:295,3,37.5,8|0|0|0,0:0|0:0|0:0|0:0,0:0:0:0:
91,295,46949,2,0,L|72:296,12,18.75
91,276,47566,2,0,L|92:248,11,18.75
316,257,48658,6,8,P|352:248|380:224,1,75
316,257,49037,2,8,P|280:266|252:290,1,75
316,257,49417,2,0,P|307:221|283:193,1,75,8|12,0:0|0:0,0:0:0:0:
217,155,49797,6,0,P|180:140|144:144,1,75
76,173,50177,1,0,0:0:0:0:
35,236,50367,1,8,0:0:0:0:
51,308,50556,1,0,0:0:0:0:
122,331,50746,2,0,L|197:332,1,75
262,293,51126,5,8,0:0:0:0:
292,224,51316,2,0,B|312:192|344:176|388:172|428:188,2,150
238,170,52265,2,0,P|194:142|164:144,1,75
172,68,52645,5,12,0:0:0:0:
247,68,52835,1,0,0:0:0:0:
314,99,53025,2,0,P|344:120|384:128,1,75
422,190,53405,1,8,0:0:0:0:
384,254,53594,1,0,0:0:0:0:
437,307,53784,1,0,0:0:0:0:
373,346,53974,2,0,B|340:328|304:316|264:312|224:316,3,150
153,315,55303,5,8,0:0:0:0:
99,261,55493,1,0,0:0:0:0:
152,207,55683,6,0,B|184:184|204:152|216:112|216:72,3,150,0|12|0|8,0:0|0:0|0:0|0:0,0:0:0:0:
278,35,57012,1,0,0:0:0:0:
353,35,57202,6,0,L|352:112,1,75
352,215,57582,2,0,L|352:320,1,104.999996795654,8|0,0:0|0:0,0:0:0:0:
216,320,57962,2,0,L|216:184,1,134.999995880127
162,131,58341,1,12,0:0:0:0:
104,180,58531,2,0,L|44:232,1,75,4|0,0:0|0:0,0:0:0:0:
47,304,58911,6,0,L|99:364,1,75,0|8,0:0|0:0,0:0:0:0:
160,320,59291,1,0,0:0:0:0:
213,266,59481,1,0,0:0:0:0:
284,243,59670,1,0,0:0:0:0:
390,136,60050,6,0,B|356:116|320:108|284:104|244:108,1,150
94,107,60810,1,0,0:0:0:0:
94,182,61000,2,8,L|94:258,1,75
168,180,61379,2,8,L|168:256,1,75
240,180,61759,6,0,L|240:256,1,75,12|0,0:0|0:0,0:0:0:0:
312,180,62139,2,0,L|388:180,2,75,0|0|8,0:0|0:0|0:0,0:0:0:0:
276,113,62708,1,0,0:0:0:0:
222,59,62898,1,0,0:0:0:0:
146,59,63088,1,0,0:0:0:0:
92,112,63278,5,8,0:0:0:0:
68,183,63468,2,0,B|68:220|84:256|116:280|160:288,2,150
143,183,64417,1,8,0:0:0:0:
208,224,64607,1,0,0:0:0:0:
244,292,64797,5,0,0:0:0:0:
319,292,64987,2,0,L|396:292,1,75,0|8,0:0|0:0,0:0:0:0:
392,216,65367,2,0,L|316:216,1,75
317,140,65746,1,0,0:0:0:0:
263,86,65936,1,8,0:0:0:0:
187,86,66126,1,0,0:0:0:0:
80,192,66506,5,0,0:0:0:0:
186,298,66886,1,0,0:0:0:0:
291,192,67265,1,0,0:0:0:0:
344,138,67455,1,8,0:0:0:0:
397,85,67645,1,0,0:0:0:0:
452,132,67835,6,0,B|438:166|410:194|378:214|374:262,2,150,0|8|0,0:0|0:0|0:0,0:0:0:0:
397,85,68784,1,0,0:0:0:0:
328,53,68974,2,0,L|244:44,1,75,8|0,0:0|0:0,0:0:0:0:
191,87,69354,5,0,0:0:0:0:
127,127,69544,2,0,B|94:149|94:149|94:185,1,75,0|8,0:0|0:0,0:0:0:0:
147,237,69924,1,0,0:0:0:0:
94,289,70113,1,0,0:0:0:0:
147,342,70303,1,0,0:0:0:0:
200,288,70493,1,8,0:0:0:0:
253,234,70683,1,0,0:0:0:0:
256,192,70873,12,0,72012,0:0:0:0:
63,59,72202,5,0,0:0:0:0:
213,59,72582,1,0,0:0:0:0:
319,165,72962,1,0,0:0:0:0:
213,270,73341,1,0,0:0:0:0:
256,192,73721,12,0,75430,0:0:0:0:
156,56,75810,6,0,B|128:80|128:80|88:80,1,75,8|0,0:0|0:0,0:0:0:0:
36,133,76189,2,0,B|36:172|36:172|60:200|60:200,1,75
112,252,76569,1,8,0:0:0:0:
187,252,76759,1,0,0:0:0:0:
240,198,76949,5,0,0:0:0:0:
392,196,77329,1,8,0:0:0:0:
392,164,77518,1,0,0:0:0:0:
392,132,77708,1,0,0:0:0:0:
392,100,77898,1,0,0:0:0:0:
244,108,78278,6,0,B|204:108|204:108|176:136|136:136|100:108,2,150
156,40,79417,1,0,0:0:0:0:
306,40,79797,2,0,L|376:72,1,75,0|4,0:0|0:0,0:0:0:0:
374,221,80367,6,0,B|352:252|320:272|272:280|240:276,1,150,8|0,0:0|0:0,0:0:0:0:
100,223,81126,1,8,0:0:0:0:
206,116,81506,5,4,0:0:0:0:
312,222,81886,1,8,0:0:0:0:
364,169,82075,1,0,0:0:0:0:
310,115,82265,1,0,0:0:0:0:
363,61,82455,1,0,0:0:0:0:
309,7,82645,1,8,0:0:0:0:
255,60,82835,1,0,0:0:0:0:
201,113,83025,5,4,0:0:0:0:
50,113,83405,2,8,P|72:144|80:180,1,75
100,252,83784,2,8,P|136:264|172:264,1,75
278,157,84354,1,8,0:0:0:0:
331,210,84544,5,0,0:0:0:0:
277,263,84734,1,8,0:0:0:0:
223,316,84924,1,0,0:0:0:0:
170,263,85113,2,8,B|170:224|152:192|128:160|136:112,1,150
188,65,85683,1,0,0:0:0:0:
263,65,85873,1,8,0:0:0:0:
338,65,86063,6,0,L|452:65,1,112.5
450,177,86632,1,0,0:0:0:0:
396,230,86822,2,0,L|281:230,1,112.5
170,230,87392,1,0,0:0:0:0:
94,230,87582,6,0,L|94:87,1,112.5
173,37,88151,1,0,0:0:0:0:
248,37,88341,1,0,0:0:0:0:
