osu file format v14

[General]
AudioFilename: Dramatic Cycle.mp3
AudioLeadIn: 2000
PreviewTime: 60582
Countdown: 0
SampleSet: Soft
StackLeniency: 0.7
Mode: 0
LetterboxInBreaks: 0
WidescreenStoryboard: 0

[Editor]
DistanceSpacing: 1.2
BeatDivisor: 4
GridSize: 4
TimelineZoom: 2.4

[Metadata]
Title:Dramatic Cycle
TitleUnicode:ドラマティック*サイクル
Artist:StylipS
ArtistUnicode:StylipS
Creator:kunkakunkakunkakunka
Version:Normal
Source:咲日和
Tags:saki biyori opening tv size oad original animation disc Studio五組 gokumi
BeatmapID:802927
BeatmapSetID:365323

[Difficulty]
HPDrainRate:3.5
CircleSize:3.5
OverallDifficulty:4
ApproachRate:5
SliderMultiplier:1
SliderTickRate:1

[Events]
//Background and Video events
0,0,"BG2.jpg",0,0
Video,0,"Dramatic Cycle.avi"
//Break Periods
//Storyboard Layer 0 (Background)
//Storyboard Layer 1 (Fail)
//Storyboard Layer 2 (Pass)
//Storyboard Layer 3 (Foreground)
//Storyboard Sound Samples

[TimingPoints]
582,300,4,2,1,30,1,0
582,-125,4,2,1,30,0,0
7782,-100,4,2,1,40,0,0
10182,-100,4,2,1,55,0,0
19782,-100,4,2,1,50,0,0
38982,-100,4,2,1,40,0,0
47382,-100,4,2,1,50,0,0
58182,-100,4,2,1,53,0,0
60582,-100,4,2,1,60,0,1
60882,-100,4,2,1,55,0,1
68982,-100,4,2,1,60,0,1
70482,-100,4,2,1,55,0,1
79782,-100,4,2,1,55,0,0

[Colours]
Combo1 : 255,128,255
Combo2 : 128,255,128
Combo3 : 128,255,255
Combo4 : 255,128,128
Combo5 : 255,255,128

[HitObjects]
94,281,582,6,0,P|131:296|170:293,1,80
264,272,1182,2,0,P|304:260|345:269,1,80,2|2,0:0|0:0,0:0:0:0:
412,203,1782,2,0,P|423:164|414:124,1,80,2|2,0:0|0:0,0:0:0:0:
240,46,2682,6,0,L|203:25,2,40,2|2|2,0:0|0:0|0:0,0:0:0:0:
223,141,3282,2,0,L|249:173,2,40,2|2|2,0:0|0:0|0:0,0:0:0:0:
127,132,3882,2,0,L|116:92,2,40,2|2|2,0:0|0:0|0:0,0:0:0:0:
59,200,4482,1,2,0:0:0:0:
59,296,4782,1,2,0:0:0:0:
136,353,5082,1,2,0:0:0:0:
232,353,5382,6,0,L|312:335,1,80,2|2,0:0|0:0,0:0:0:0:
328,240,5982,2,0,L|411:259,2,80,2|2|2,0:0|0:0|0:0,0:0:0:0:
232,230,6882,1,2,0:0:0:0:
141,260,7182,1,2,0:0:0:0:
65,201,7482,1,2,0:0:0:0:
71,109,7782,6,0,P|124:56|193:69,1,150,6|2,0:0|0:3,0:0:0:0:
241,103,8382,2,0,P|282:130|334:126,1,100,2|0,0:0|0:0,0:0:0:0:
448,155,8982,2,0,P|476:200|468:250,1,100,6|2,0:0|0:0,0:0:0:0:
376,318,9582,2,0,P|325:310|282:331,1,100,2|10,0:0|0:0,0:0:0:0:
165,354,10182,6,0,L|62:365,1,100,4|10,0:0|0:0,0:0:0:0:
77,245,10782,2,0,L|18:164,1,100,2|10,0:3|0:0,0:0:0:0:
127,113,11382,2,0,L|170:22,1,100,2|10,0:3|0:0,0:0:0:0:
286,52,11982,2,0,B|328:72|328:72|380:56,1,100,2|10,0:3|0:0,0:0:0:0:
479,122,12582,6,0,P|506:161|494:208,1,100,2|10,0:3|0:0,0:0:0:0:
471,264,13032,2,0,P|403:296|336:265,1,150,0|10,0:0|0:0,0:0:0:0:
241,198,13782,2,0,P|188:197|144:220,1,100,2|8,0:3|0:0,0:0:0:0:
87,224,14232,2,0,P|46:165|61:88,1,150,0|10,0:0|0:0,0:0:0:0:
173,53,14982,6,0,L|280:73,1,100,4|10,0:0|0:0,0:0:0:0:
343,167,15582,2,0,L|244:184,1,100,2|10,0:3|0:0,0:0:0:0:
173,281,16182,2,0,L|272:300,1,100,2|10,0:3|0:0,0:0:0:0:
388,327,16782,2,0,B|439:317|439:317|454:269,1,100,2|10,0:3|0:0,0:0:0:0:
456,151,17382,6,0,P|405:129|361:144,1,100,2|10,0:3|0:0,0:0:0:0:
282,230,17982,2,0,P|231:251|187:236,1,100,2|10,0:3|0:0,0:0:0:0:
113,146,18582,2,0,L|60:137,2,50,2|2|2,0:3|0:3|0:3,0:0:0:0:
158,106,19032,2,0,P|216:72|293:96,1,150,4|0,0:0|0:0,0:0:0:0:
399,147,19782,6,0,P|454:153|487:126,1,100,2|0,0:3|0:0,0:0:0:0:
485,66,20232,2,0,P|418:42|368:92,1,150,2|8,0:3|0:0,0:0:0:0:
314,200,20982,2,0,L|320:250,2,50,2|2|0,0:3|0:3|0:0,0:0:0:0:
248,99,21582,2,0,P|211:60|164:61,1,100,0|8,0:0|0:0,0:0:0:0:
82,145,22182,6,0,P|86:191|59:234,1,100,2|0,0:3|0:0,0:0:0:0:
53,294,22632,2,0,P|99:335|180:316,1,150,2|8,0:3|0:0,0:0:0:0:
263,232,23382,2,0,L|256:180,2,50,2|2|0,0:3|0:3|0:0,0:0:0:0:
335,328,23982,2,0,P|380:349|429:339,1,100,0|8,0:0|0:0,0:0:0:0:
457,224,24582,6,0,L|451:122,1,100,2|0,0:3|0:0,0:0:0:0:
425,70,25032,2,0,P|347:46|284:75,1,150,2|8,0:3|0:0,0:0:0:0:
208,164,25782,1,2,0:3:0:0:
152,270,26082,2,0,P|101:292|51:288,2,100,0|0|8,0:0|0:0|0:0,0:0:0:0:
83,171,26982,6,0,L|53:73,1,100,4|8,0:0|0:0,0:0:0:0:
172,54,27582,2,0,L|187:155,1,100,2|8,0:3|0:0,0:0:0:0:
203,272,28182,2,0,P|241:305|290:302,1,100,4|8,0:0|0:0,0:0:0:0:
327,257,28632,2,0,P|383:216|459:232,1,150,4|8,0:0|0:3,0:0:0:0:
474,112,29382,6,0,B|428:92|428:92|377:103,1,100,2|8,0:3|0:0,0:0:0:0:
323,125,29832,2,0,B|270:136|270:136|174:115,1,150,0|8,0:0|0:0,0:0:0:0:
56,108,30582,2,0,L|40:57,2,50,2|2|8,0:3|0:3|0:0,0:0:0:0:
83,225,31182,2,0,L|183:246,1,100,2|8,0:3|1:2,0:0:0:0:
262,334,31782,6,0,B|310:342|310:342|358:320,1,100,2|8,0:3|0:0,0:0:0:0:
405,285,32232,2,0,B|416:232|416:232|395:136,1,150,0|8,0:0|0:0,0:0:0:0:
314,49,32982,2,0,L|302:-1,2,50,2|2|8,0:3|0:3|0:0,0:0:0:0:
276,163,33582,2,0,L|297:263,1,100,2|12,0:3|0:0,0:0:0:0:
176,264,34182,6,0,L|187:161,1,100,2|8,0:3|0:0,0:0:0:0:
196,105,34632,2,0,P|252:63|326:79,1,150,0|8,0:0|0:0,0:0:0:0:
390,179,35382,2,0,P|428:214|480:222,2,100,2|8|2,0:3|0:0|0:3,0:0:0:0:
325,78,36282,1,10,0:0:0:0:
216,27,36582,6,0,P|168:13|119:28,1,100,4|10,0:0|0:0,0:0:0:0:
130,146,37182,2,0,P|177:159|226:144,1,100,2|10,0:3|0:0,0:0:0:0:
325,78,37782,2,0,P|371:64|419:78,1,100,4|8,0:0|0:0,0:0:0:0:
459,122,38232,2,0,P|461:192|406:246,1,150,2|8,0:3|0:3,0:0:0:0:
294,286,38982,6,0,L|190:296,1,100,2|0,0:3|0:0,0:0:0:0:
137,277,39432,2,0,P|97:210|109:138,1,150,2|10,0:3|0:0,0:0:0:0:
223,107,40182,2,0,P|269:120|319:111,1,100,2|2,0:3|0:0,0:0:0:0:
378,99,40632,2,0,P|447:89|504:138,1,150,2|10,0:3|0:0,0:0:0:0:
476,255,41382,6,0,P|405:265|349:214,2,150,2|2|10,0:3|0:3|0:0,0:0:0:0:
444,138,42582,2,0,L|458:37,1,100,2|2,0:3|0:0,0:0:0:0:
338,41,43182,2,0,L|347:144,1,100,0|8,0:0|1:2,0:0:0:0:
356,260,43782,6,0,P|319:289|269:287,1,100,2|2,0:3|0:0,0:0:0:0:
208,279,44232,2,0,P|144:250|71:276,1,150,2|10,0:3|0:0,0:0:0:0:
8,174,44982,2,0,L|36:79,1,100,2|2,0:3|0:0,0:0:0:0:
79,35,45432,2,0,P|147:15|212:53,1,150,2|10,0:3|0:0,0:0:0:0:
248,168,46182,6,0,L|277:263,1,100,4|0,0:0|0:0,0:0:0:0:
319,307,46632,2,0,P|387:326|453:288,1,150,2|8,0:3|0:0,0:0:0:0:
479,172,47382,1,8,0:0:0:0:
364,137,47682,1,8,0:3:0:0:
248,168,47982,2,0,B|200:185|200:185|150:172,1,100,2|8,0:3|0:0,0:0:0:0:
101,141,48432,1,8,0:0:0:0:
101,141,48582,6,0,L|73:241,1,100,4|10,0:0|0:0,0:0:0:0:
127,345,49182,2,0,B|173:358|173:358|225:345,1,100,2|8,0:3|0:0,0:0:0:0:
282,240,49782,2,0,P|294:193|332:160,1,100,2|8,0:3|0:0,0:0:0:0:
453,165,50382,1,2,0:3:0:0:
442,284,50682,1,8,0:0:0:0:
340,348,50982,6,0,P|293:337|241:352,1,100,2|8,0:3|0:0,0:0:0:0:
124,346,51582,2,0,P|73:331|47:294,1,100,2|8,0:3|0:0,0:0:0:0:
26,176,52182,2,0,L|8:74,2,100,2|8|2,0:3|0:0|0:3,0:0:0:0:
135,227,53082,1,12,0:0:0:0:
124,346,53382,5,2,0:3:0:0:
234,298,53682,2,0,L|335:311,1,100,8|2,1:2|0:3,0:0:0:0:
448,345,54282,1,10,0:0:0:0:
441,225,54582,2,0,L|427:125,1,100,2|10,0:3|0:0,0:0:0:0:
400,72,55032,2,0,P|334:35|265:58,1,150,0|12,0:0|0:0,0:0:0:0:
149,83,55782,6,0,L|50:99,2,100,2|8|2,0:3|0:0|0:3,0:0:0:0:
220,180,56682,1,8,0:0:0:0:
297,272,56982,2,0,P|339:298|388:290,1,100,2|8,0:3|0:0,0:0:0:0:
407,173,57582,2,0,P|365:147|317:154,1,100,2|8,0:3|0:0,0:0:0:0:
221,227,58182,5,12,0:0:0:0:
106,189,58482,1,8,0:0:0:0:
106,68,58782,1,8,0:0:0:0:
219,30,59082,1,8,0:0:0:0:
292,128,59382,2,0,L|274:179,2,50,2|8|8,0:3|0:3|0:3,0:0:0:0:
323,76,59832,2,0,P|388:42|458:70,1,150,8|8,0:3|0:0,0:0:0:0:
467,187,60582,6,0,L|459:290,1,100,4|8,0:0|0:0,0:0:0:0:
347,330,61182,2,0,L|279:255,1,100,2|8,0:3|0:0,0:0:0:0:
267,136,61782,1,2,0:3:0:0:
309,23,62082,2,0,P|261:14|212:28,1,100,8|2,0:0|0:3,0:0:0:0:
120,105,62682,6,0,L|73:88,2,50,8|0|2,0:0|0:0|0:3,0:0:0:0:
178,210,63282,2,0,L|229:217,2,50,8|0|2,0:0|0:0|0:3,0:0:0:0:
59,230,63882,2,0,L|83:280,1,50,8|0,0:0|0:0,0:0:0:0:
123,317,64182,2,0,P|168:335|219:320,2,100,2|8|2,0:3|0:0|0:3,0:0:0:0:
178,210,65082,1,8,0:0:0:0:
247,112,65382,6,0,L|350:131,1,100,2|8,0:3|0:0,0:0:0:0:
431,214,65982,2,0,P|434:265|399:304,1,100,2|8,0:3|0:0,0:0:0:0:
288,332,66582,1,2,0:3:0:0:
171,302,66882,2,0,P|140:263|144:214,1,100,8|2,0:0|0:3,0:0:0:0:
211,116,67482,6,0,L|257:96,2,50,8|0|4,0:0|0:0|0:0,0:0:0:0:
277,216,68082,2,0,L|231:236,2,50,10|0|4,1:2|0:0|0:0,0:0:0:0:
392,249,68682,1,10,1:2:0:0:
399,129,68982,2,0,P|420:78|457:50,2,100,4|8|8,0:0|0:0|0:0,0:0:0:0:
392,249,69882,1,8,0:0:0:0:
285,306,70182,6,0,L|186:329,1,100,4|8,0:0|0:0,0:0:0:0:
69,308,70782,2,0,B|36:267|36:267|33:218,1,100,2|8,0:3|0:0,0:0:0:0:
59,103,71382,1,2,0:3:0:0:
168,54,71682,2,0,P|214:37|263:54,1,100,8|2,0:0|0:3,0:0:0:0:
338,144,72282,6,0,L|387:125,2,50,8|0|2,0:0|0:0|0:3,0:0:0:0:
276,247,72882,2,0,L|313:289,2,50,8|0|2,0:0|0:0|0:3,0:0:0:0:
155,249,73482,2,0,L|100:230,1,50,8|0,0:0|0:0,0:0:0:0:
76,181,73782,2,0,B|67:132|67:132|90:86,1,100,2|8,0:3|1:2,0:0:0:0:
143,59,74232,1,0,0:0:0:0:
143,59,74382,2,0,L|241:39,1,100,2|8,0:3|0:0,0:0:0:0:
330,119,74982,6,0,L|429:138,1,100,2|8,0:3|0:0,0:0:0:0:
430,258,75582,2,0,L|331:277,1,100,2|8,0:3|0:0,0:0:0:0:
227,336,76182,1,2,0:3:0:0:
141,252,76482,2,0,P|89:231|41:234,2,100,8|2|8,0:0|0:3|0:0,0:0:0:0:
227,336,77382,6,0,P|277:356|324:352,1,100,2|12,0:3|0:0,0:0:0:0:
394,256,77982,2,0,L|416:159,1,100,2|12,0:3|0:0,0:0:0:0:
395,40,78582,1,2,0:3:0:0:
277,17,78882,1,2,0:3:0:0:
170,72,79182,1,8,0:0:0:0:
147,190,79482,1,2,0:3:0:0:
220,284,79782,6,0,L|321:275,1,100,6|10,0:0|0:0,0:0:0:0:
440,278,80382,2,0,B|459:233|459:233|441:185,1,100,2|10,0:3|0:0,0:0:0:0:
415,131,80832,1,0,0:0:0:0:
415,131,80982,2,0,P|368:110|318:117,1,100,2|10,0:3|0:0,0:0:0:0:
236,201,81582,2,0,B|189:224|189:224|138:214,1,100,2|10,0:3|0:0,0:0:0:0:
27,181,82182,5,2,0:3:0:0:
24,61,82482,1,10,0:0:0:0:
139,27,82782,2,0,B|189:9|189:9|233:31,1,100,2|10,0:3|0:0,0:0:0:0:
274,73,83232,2,0,P|338:103|409:77,1,150,0|10,0:0|0:0,0:0:0:0:
483,172,83982,2,0,L|455:268,1,100,2|10,0:3|0:0,0:0:0:0:
350,327,84582,6,0,B|249:312,1,100,2|10,0:3|0:0,0:0:0:0:
131,309,85182,2,0,B|80:294|80:294|60:250,1,100,2|10,0:3|0:0,0:0:0:0:
54,191,85632,2,0,P|64:119|128:76,1,150,0|10,0:0|0:0,0:0:0:0:
242,95,86382,2,0,L|288:75,2,50,10|0|12,0:0|0:0|0:0,0:0:0:0:
147,169,86982,6,0,P|177:207|228:215,1,100,2|8,0:0|0:0,0:0:0:0:
286,213,87432,2,0,P|333:205|374:234,1,100,10|2,0:0|0:3,0:0:0:0:
382,293,87882,2,0,P|313:322|269:267,1,150,4|10,0:0|0:0,0:0:0:0:
235,157,88632,1,0,0:0:0:0:
235,157,88782,2,0,L|203:60,1,100,12|10,0:0|0:0,0:0:0:0:
87,32,89382,5,4,0:0:0:0:
