osu file format v14

[General]
AudioFilename: Dramatic Cycle.mp3
AudioLeadIn: 2000
PreviewTime: 60582
Countdown: 0
SampleSet: Soft
StackLeniency: 0.7
Mode: 0
LetterboxInBreaks: 0
WidescreenStoryboard: 0

[Editor]
DistanceSpacing: 1.5
BeatDivisor: 4
GridSize: 4
TimelineZoom: 3

[Metadata]
Title:Dramatic Cycle
TitleUnicode:ドラマティック*サイクル
Artist:StylipS
ArtistUnicode:StylipS
Creator:kunkakunkakunkakunka
Version:Insane
Source:咲日和
Tags:saki biyori opening tv size oad original animation disc Studio五組 gokumi
BeatmapID:808167
BeatmapSetID:365323

[Difficulty]
HPDrainRate:7
CircleSize:4
OverallDifficulty:7
ApproachRate:9
SliderMultiplier:1.3
SliderTickRate:1

[Events]
//Background and Video events
0,0,"BG4.jpg",0,0
Video,0,"Dramatic Cycle.avi"
//Break Periods
//Storyboard Layer 0 (Background)
//Storyboard Layer 1 (Fail)
//Storyboard Layer 2 (Pass)
//Storyboard Layer 3 (Foreground)
//Storyboard Sound Samples

[TimingPoints]
582,300,4,2,1,30,1,0
582,-125,4,2,1,30,0,0
7782,-111.111111111111,4,2,1,40,0,0
10182,-90.9090909090909,4,2,1,55,0,0
19782,-100,4,2,1,50,0,0
38982,-111.111111111111,4,2,1,40,0,0
47382,-100,4,2,1,50,0,0
58182,-90.9090909090909,4,2,1,53,0,0
60582,-80,4,2,1,60,0,1
60882,-83.3333333333333,4,2,1,55,0,1
68982,-80,4,2,1,60,0,1
70482,-83.3333333333333,4,2,1,55,0,1
79782,-83.3333333333333,4,2,1,55,0,0
90507,-83.3333333333333,4,2,1,5,0,0

[Colours]
Combo1 : 255,128,255
Combo2 : 128,255,128
Combo3 : 128,255,255
Combo4 : 255,128,128
Combo5 : 255,255,128

[HitObjects]
408,104,582,6,0,P|362:128|308:120,1,104
236,101,1032,1,2,0:0:0:0:
163,73,1182,2,0,L|116:51,1,52,2|2,0:0|0:0,0:0:0:0:
64,109,1482,2,0,L|111:131,1,52,2|2,0:0|0:0,0:0:0:0:
163,188,1782,1,2,0:0:0:0:
113,336,2082,2,0,P|166:352|211:336,1,104,2|0,0:0|0:0,0:0:0:0:
311,217,2682,5,2,0:0:0:0:
311,217,2832,1,2,0:0:0:0:
311,217,2982,1,2,0:0:0:0:
418,103,3282,5,2,0:0:0:0:
418,103,3432,1,2,0:0:0:0:
418,103,3582,1,2,0:0:0:0:
463,252,3882,5,2,0:0:0:0:
463,252,4032,1,2,0:0:0:0:
463,252,4182,1,2,0:0:0:0:
311,217,4482,1,2,0:0:0:0:
418,103,4782,1,2,0:0:0:0:
463,252,5082,1,2,0:0:0:0:
318,309,5382,5,2,0:0:0:0:
267,313,5532,1,2,0:0:0:0:
222,286,5682,1,2,0:0:0:0:
203,238,5832,1,2,0:0:0:0:
218,188,5982,2,0,P|230:136|210:87,1,104,2|2,0:0|0:0,0:0:0:0:
72,24,6582,5,2,0:0:0:0:
38,176,6882,1,2,0:0:0:0:
108,315,7182,1,2,0:0:0:0:
260,349,7482,1,2,0:0:0:0:
438,237,7782,6,0,L|321:215,1,116.999996429443,6|0,0:0|0:0,0:0:0:0:
237,236,8232,1,2,0:3:0:0:
237,236,8382,1,2,0:0:0:0:
167,183,8532,2,0,P|142:128|157:73,1,116.999996429443,8|0,0:3|0:0,0:0:0:0:
245,20,8982,6,0,L|306:31,1,58.4999982147217,6|0,0:0|0:0,0:0:0:0:
338,110,9282,2,0,L|395:99,1,58.4999982147217,2|0,0:0|0:0,0:0:0:0:
471,143,9582,2,0,L|482:204,1,58.4999982147217,2|8,0:0|0:0,0:0:0:0:
484,230,9807,1,8,0:0:0:0:
486,259,9882,1,10,0:0:0:0:
475,286,9957,1,8,0:0:0:0:
454,307,10032,1,8,0:0:0:0:
426,315,10107,1,8,0:0:0:0:
398,311,10182,6,0,P|363:300|323:303,1,71.5000021820069,4|0,0:0|0:0,0:0:0:0:
226,335,10482,2,0,P|189:340|149:333,1,71.5000021820069,10|0,0:0|0:0,0:0:0:0:
54,300,10782,1,2,0:3:0:0:
31,195,10932,1,2,0:3:0:0:
54,90,11082,2,0,P|73:53|100:39,1,71.5000021820069,10|0,0:0|0:0,0:0:0:0:
200,75,11382,6,0,P|234:86|273:81,1,71.5000021820069,2|0,0:3|0:0,0:0:0:0:
374,107,11682,2,0,P|411:126|425:153,1,71.5000021820069,10|0,0:0|0:0,0:0:0:0:
417,258,11982,1,2,0:3:0:0:
318,216,12132,1,2,0:3:0:0:
211,207,12282,2,0,L|136:221,1,71.5000021820069,10|0,0:0|0:0,0:0:0:0:
50,161,12582,6,0,L|125:147,1,71.5000021820069,2|0,0:3|0:0,0:0:0:0:
226,127,12882,1,10,0:0:0:0:
293,43,13032,2,0,P|263:25|228:20,1,71.5000021820069,0|2,0:0|0:3,0:0:0:0:
121,40,13332,1,2,0:3:0:0:
120,147,13482,2,0,L|135:223,1,71.5000021820069,10|0,0:0|0:0,0:0:0:0:
147,250,13707,1,0,0:0:0:0:
147,250,13782,6,0,P|174:277|211:283,1,71.5000021820069,2|0,0:3|0:0,0:0:0:0:
308,316,14082,2,0,L|378:304,1,71.5000021820069,10|0,0:0|0:0,0:0:0:0:
458,231,14382,1,2,0:3:0:0:
469,124,14532,1,2,0:3:0:0:
371,168,14682,1,10,0:0:0:0:
354,62,14832,1,10,0:0:0:0:
354,62,14907,1,8,0:0:0:0:
354,62,14982,6,0,P|321:35|289:29,1,71.5000021820069,4|0,0:0|0:0,0:0:0:0:
191,61,15282,2,0,P|159:79|123:79,1,71.5000021820069,10|0,0:0|0:0,0:0:0:0:
16,81,15582,1,2,0:3:0:0:
5,188,15732,1,2,0:3:0:0:
70,273,15882,2,0,P|102:291|138:291,1,71.5000021820069,10|0,0:0|0:0,0:0:0:0:
236,250,16182,6,0,P|254:218|254:182,1,71.5000021820069,2|0,0:3|0:0,0:0:0:0:
287,80,16482,2,0,P|319:62|355:62,1,71.5000021820069,10|0,0:0|0:0,0:0:0:0:
454,97,16782,1,2,0:3:0:0:
483,200,16932,1,2,0:3:0:0:
420,286,17082,2,0,P|388:304|352:304,1,71.5000021820069,10|0,0:0|0:0,0:0:0:0:
236,250,17382,6,0,L|160:240,1,71.5000021820069,2|0,0:3|0:0,0:0:0:0:
241,164,17682,2,0,L|317:174,1,71.5000021820069,10|0,0:0|0:0,0:0:0:0:
408,124,17982,1,2,0:3:0:0:
341,40,18132,1,2,0:3:0:0:
234,31,18282,1,10,0:0:0:0:
133,85,18432,1,8,0:0:0:0:
133,85,18507,1,8,0:0:0:0:
133,85,18582,5,2,0:3:0:0:
164,195,18732,1,2,0:3:0:0:
90,300,18882,1,2,0:3:0:0:
32,169,19032,2,0,P|45:68|134:88,1,214.500006546021,4|0,0:0|0:0,0:0:0:0:
266,144,19782,6,0,P|297:153|338:140,1,65,2|0,0:3|0:0,0:0:0:0:
415,100,20082,1,0,0:0:0:0:
406,197,20232,2,0,L|389:332,1,130,2|0,0:3|0:0,0:0:0:0:
295,350,20682,2,0,L|304:285,1,65,8|0,0:0|0:0,0:0:0:0:
289,189,20982,5,2,0:3:0:0:
289,189,21132,2,0,P|263:170|231:166,1,65,2|0,0:3|0:0,0:0:0:0:
153,225,21432,2,0,P|134:156|154:104,1,130,2|0,0:3|0:0,0:0:0:0:
229,40,21882,2,0,L|295:61,1,65,8|0,0:0|0:0,0:0:0:0:
373,111,22182,6,0,P|392:180|372:232,1,130,2|0,0:3|0:0,0:0:0:0:
274,223,22632,2,0,P|205:204|153:224,1,130,2|0,0:3|0:0,0:0:0:0:
105,309,23082,2,0,L|129:371,1,65,8|0,0:0|0:0,0:0:0:0:
226,368,23382,5,2,0:3:0:0:
226,368,23532,2,0,L|202:306,1,65,2|0,0:3|0:0,0:0:0:0:
174,214,23832,2,0,P|174:142|209:97,1,130,2|0,0:3|0:0,0:0:0:0:
301,66,24282,2,0,L|365:75,1,65,8|0,0:0|0:0,0:0:0:0:
414,160,24582,6,0,P|468:190|511:149,1,130,2|0,0:3|0:0,0:0:0:0:
493,52,25032,2,0,L|364:75,1,130,2|0,0:3|0:0,0:0:0:0:
312,157,25482,2,0,L|247:170,1,65,8|0,0:0|0:0,0:0:0:0:
166,222,25782,5,2,0:3:0:0:
166,222,25932,1,2,0:3:0:0:
90,160,26082,2,0,L|52:105,1,65,0|2,0:0|0:3,0:0:0:0:
101,21,26382,2,0,L|139:76,1,65
233,98,26682,2,0,L|298:85,1,65,8|0,0:0|0:0,0:0:0:0:
393,104,26982,5,4,0:0:0:0:
430,194,27132,1,0,0:0:0:0:
395,285,27282,2,0,L|330:298,1,65,8|0,0:0|0:0,0:0:0:0:
244,343,27582,1,2,0:3:0:0:
150,318,27732,1,2,0:3:0:0:
150,220,27882,2,0,P|155:186|145:154,1,65,8|0,0:0|0:0,0:0:0:0:
93,53,28182,6,0,P|121:39|156:40,1,65,4|0,0:0|0:0,0:0:0:0:
260,88,28482,1,8,0:0:0:0:
339,174,28632,2,0,P|367:187|402:186,1,65,4|0,0:0|0:0,0:0:0:0:
498,121,28932,1,2,0:3:0:0:
419,34,29082,2,0,P|391:21|356:22,1,65,8|0,0:3|0:0,0:0:0:0:
260,88,29382,6,0,L|196:106,1,65,2|0,0:3|0:0,0:0:0:0:
178,201,29682,2,0,L|242:183,1,65,8|0,0:0|0:0,0:0:0:0:
325,230,29982,2,0,L|389:248,1,65,2|2,0:3|0:3,0:0:0:0:
407,343,30282,2,0,L|343:325,1,65,8|0,0:0|0:0,0:0:0:0:
248,340,30582,5,2,0:3:0:0:
248,340,30732,1,0,0:0:0:0:
152,358,30882,1,8,0:0:0:0:
152,358,31032,1,2,0:3:0:0:
58,331,31182,2,0,P|36:302|33:272,1,65,2|0,0:3|0:0,0:0:0:0:
32,156,31482,2,0,L|88:121,1,65,8|0,1:2|0:0,0:0:0:0:
185,126,31782,6,0,L|230:174,1,65,2|0,0:3|0:0,0:0:0:0:
325,154,32082,2,0,L|370:202,1,65,8|0,0:0|0:0,0:0:0:0:
408,112,32382,2,0,L|363:64,1,65,2|2,0:3|0:3,0:0:0:0:
268,84,32682,2,0,L|223:36,1,65,8|0,0:0|0:0,0:0:0:0:
129,12,32982,5,2,0:3:0:0:
129,12,33132,1,2,0:3:0:0:
38,47,33282,1,8,0:0:0:0:
38,47,33432,1,2,0:3:0:0:
6,139,33582,2,0,P|-4:172|2:205,1,65,2|0,0:3|0:0,0:0:0:0:
53,306,33882,2,0,L|117:288,1,65,12|0,0:0|0:0,0:0:0:0:
208,215,34182,6,0,P|221:183|221:153,1,65,2|0,0:3|0:0,0:0:0:0:
188,61,34482,1,8,0:0:0:0:
127,137,34632,2,0,P|114:169|114:199,1,65,0|2,0:0|0:3,0:0:0:0:
121,296,34932,2,0,P|153:309|183:309,1,65,2|8,0:3|0:0,0:0:0:0:
279,292,35232,2,0,P|335:263|401:273,1,130
486,226,35682,6,0,L|512:166,1,65,8|0,0:0|0:0,0:0:0:0:
509,68,35982,2,0,P|483:46|451:39,1,65,2|2,0:3|0:3,0:0:0:0:
347,88,36282,2,0,P|315:100|282:95,1,65,10|0,0:0|0:0,0:0:0:0:
175,54,36582,6,0,P|141:58|114:78,1,65,4|0,0:0|0:0,0:0:0:0:
84,168,36882,2,0,P|94:200|86:233,1,65,10|0,0:0|0:0,0:0:0:0:
72,327,37182,1,2,0:3:0:0:
156,375,37332,1,2,0:3:0:0:
247,340,37482,1,10,0:0:0:0:
258,243,37632,1,0,0:0:0:0:
235,128,37782,6,0,P|258:98|285:87,1,65,4|0,0:0|0:0,0:0:0:0:
395,119,38082,1,8,0:0:0:0:
467,250,38232,1,2,0:3:0:0:
332,186,38382,1,2,0:3:0:0:
479,158,38532,1,2,0:3:0:0:
378,267,38682,1,2,0:3:0:0:
395,119,38832,1,4,0:0:0:0:
467,250,38982,6,0,P|461:312|423:347,1,116.999996429443,2|0,0:3|0:0,0:0:0:0:
334,345,39432,2,0,P|274:325|221:336,1,116.999996429443,2|0,0:3|0:0,0:0:0:0:
119,358,39882,2,0,L|58:349,1,58.4999982147217,10|0,0:0|0:0,0:0:0:0:
30,267,40182,5,2,0:3:0:0:
30,267,40332,2,0,L|16:211,1,58.4999982147217,2|2,0:3|0:0,0:0:0:0:
9,122,40632,2,0,P|43:77|102:72,1,116.999996429443,2|0,0:3|0:0,0:0:0:0:
197,111,41082,2,0,L|258:116,1,58.4999982147217,10|0,0:0|0:0,0:0:0:0:
339,144,41382,6,0,P|396:166|448:149,1,116.999996429443,2|2,0:3|0:0,0:0:0:0:
505,82,41832,2,0,P|448:60|396:77,1,116.999996429443,2|0,0:3|0:0,0:0:0:0:
331,159,42282,2,0,L|307:214,1,58.4999982147217,10|0,0:0|0:0,0:0:0:0:
260,286,42582,5,2,0:3:0:0:
260,286,42732,2,0,L|205:310,1,58.4999982147217,2|2,0:3|0:0,0:0:0:0:
119,322,43032,2,0,P|62:299|43:250,1,116.999996429443,2|0,0:3|0:0,0:0:0:0:
14,149,43482,2,0,L|24:89,1,58.4999982147217,8|0,1:2|0:0,0:0:0:0:
88,31,43782,6,0,P|146:21|202:43,1,116.999996429443,2|2,0:3|0:0,0:0:0:0:
268,95,44232,2,0,L|384:103,1,116.999996429443,2|0,0:3|0:0,0:0:0:0:
416,204,44682,2,0,L|357:200,1,58.4999982147217,10|0,0:0|0:0,0:0:0:0:
265,208,44982,5,2,0:3:0:0:
265,208,45132,2,0,L|206:204,1,58.4999982147217,2|2,0:3|0:0,0:0:0:0:
120,217,45432,2,0,P|94:272|105:325,1,116.999996429443,2|0,0:3|0:0,0:0:0:0:
203,365,45882,2,0,L|262:369,1,58.4999982147217,10|0,0:0|0:0,0:0:0:0:
363,339,46182,6,0,P|388:283|378:231,1,116.999996429443,4|0,0:0|0:0,0:0:0:0:
312,146,46632,2,0,P|366:120|420:131,1,116.999996429443,2|0,0:3|0:0,0:0:0:0:
505,192,47082,1,8,0:0:0:0:
472,292,47232,1,0,0:0:0:0:
472,292,47307,1,8,0:0:0:0:
472,292,47382,6,0,L|413:329,1,65,8|2,0:0|0:3,0:0:0:0:
327,287,47682,2,0,L|263:274,1,65,8|2,0:3|0:3,0:0:0:0:
166,287,47982,2,0,L|102:300,1,65,2|2,0:3|0:3,0:0:0:0:
51,217,48282,2,0,L|53:184,3,32.5,8|8|8|8,0:0|0:0|0:0|0:0,0:0:0:0:
55,152,48582,6,0,P|67:122|92:102,1,65,4|0,0:0|0:0,0:0:0:0:
188,85,48882,2,0,L|255:95,1,65,10|0,0:0|0:0,0:0:0:0:
326,158,49182,1,2,0:3:0:0:
326,158,49332,2,0,P|327:192|313:219,1,65,2|8,0:3|0:0,0:0:0:0:
227,267,49632,1,0,0:0:0:0:
155,201,49782,6,0,P|94:173|35:198,1,130,2|8,0:3|0:0,0:0:0:0:
7,289,50232,1,0,0:0:0:0:
81,352,50382,2,0,P|109:368|142:366,1,65,2|2,0:3|0:3,0:0:0:0:
223,313,50682,2,0,P|251:297|284:299,1,65,8|0,0:0|0:0,0:0:0:0:
376,329,50982,6,0,L|443:353,1,65,2|0,0:3|0:0,0:0:0:0:
508,284,51282,2,0,L|485:221,1,65,8|0,0:0|0:0,0:0:0:0:
453,130,51582,2,0,P|422:77|356:61,1,130,2|8,0:3|0:0,0:0:0:0:
262,72,52032,1,0,0:0:0:0:
175,116,52182,6,0,L|112:132,1,65,2|0,0:3|0:0,0:0:0:0:
169,211,52482,2,0,L|232:195,1,65,8|0,0:0|0:0,0:0:0:0:
286,276,52782,2,0,L|223:292,1,65,2|2,0:3|0:3,0:0:0:0:
127,359,53082,2,0,L|63:337,1,65,12|0,0:0|0:0,0:0:0:0:
35,224,53382,6,0,L|99:246,1,65,2|0,0:3|0:0,0:0:0:0:
207,207,53682,2,0,L|336:174,1,130,8|2,1:2|0:3,0:0:0:0:
425,142,54132,1,2,0:3:0:0:
421,44,54282,1,10,0:0:0:0:
328,18,54432,1,0,0:0:0:0:
273,98,54582,5,2,0:3:0:0:
332,175,54732,1,0,0:0:0:0:
331,272,54882,1,10,0:0:0:0:
254,332,55032,2,0,P|191:358|132:347,1,130,0|2,0:0|0:3,0:0:0:0:
37,278,55482,2,0,L|13:215,1,65,12|0,0:0|0:0,0:0:0:0:
32,101,55782,5,2,0:3:0:0:
86,20,55932,1,0,0:0:0:0:
173,64,56082,1,8,0:0:0:0:
119,145,56232,1,0,0:0:0:0:
141,239,56382,2,0,L|164:303,1,65,2|2,0:3|0:3,0:0:0:0:
258,321,56682,2,0,L|235:257,1,65,8|0,0:0|0:0,0:0:0:0:
307,193,56982,6,0,L|330:257,1,65,2|0,0:3|0:0,0:0:0:0:
424,275,57282,2,0,L|401:211,1,65,8|0,0:0|0:0,0:0:0:0:
374,120,57582,1,2,0:3:0:0:
305,51,57732,1,8,0:0:0:0:
208,41,57882,1,8,0:0:0:0:
139,110,58032,1,8,0:0:0:0:
248,201,58182,6,0,L|320:218,1,71.5000021820069,12|0,0:0|0:0,0:0:0:0:
192,286,58482,2,0,L|120:303,1,71.5000021820069,8|0,0:0|0:0,0:0:0:0:
92,162,58782,6,0,L|62:94,1,71.5000021820069,8|0,0:0|0:0,0:0:0:0:
193,155,59082,2,0,L|249:202,1,71.5000021820069,8|0,0:0|0:0,0:0:0:0:
319,281,59382,5,2,0:3:0:0:
417,237,59532,1,8,0:3:0:0:
406,131,59682,1,8,0:3:0:0:
301,109,59832,1,8,0:3:0:0:
248,201,59982,5,8,0:0:0:0:
194,318,60132,1,8,0:0:0:0:
161,330,60207,1,8,0:0:0:0:
126,326,60282,1,8,0:0:0:0:
97,305,60357,1,8,0:0:0:0:
82,273,60432,1,8,0:0:0:0:
83,238,60507,1,8,0:0:0:0:
102,207,60582,6,0,L|174:170,1,81.25,4|0,0:0|0:0,0:0:0:0:
301,169,60882,2,0,L|370:205,1,77.999997619629,8|0,0:0|0:0,0:0:0:0:
424,308,61182,1,2,0:3:0:0:
319,360,61332,1,2,0:3:0:0:
210,316,61482,1,8,0:0:0:0:
176,204,61632,1,0,0:0:0:0:
102,113,61782,6,0,P|72:92|31:91,1,77.999997619629,2|0,0:3|0:0,0:0:0:0:
3,204,62082,2,0,P|33:225|74:226,1,77.999997619629,8|0,0:0|0:0,0:0:0:0:
183,186,62382,2,0,P|224:174|257:183,1,77.999997619629,2|2,0:3|0:3,0:0:0:0:
346,260,62682,1,8,0:0:0:0:
346,260,62832,1,0,0:0:0:0:
261,340,62982,6,0,P|220:352|187:343,1,77.999997619629,2|0,0:3|0:0,0:0:0:0:
171,226,63282,1,8,0:0:0:0:
171,226,63432,1,0,0:0:0:0:
57,199,63582,2,0,P|24:171|13:139,1,77.999997619629,2|2,0:3|0:3,0:0:0:0:
75,39,63882,1,8,0:0:0:0:
186,75,64032,1,0,0:0:0:0:
298,42,64182,6,0,P|336:31|375:41,1,77.999997619629,2|0,0:3|0:0,0:0:0:0:
444,133,64482,2,0,P|455:171|445:210,1,77.999997619629,8|0,0:0|0:0,0:0:0:0:
377,303,64782,2,0,P|339:314|300:304,1,77.999997619629,2|2,0:3|0:3,0:0:0:0:
232,211,65082,2,0,P|221:173|231:134,1,77.999997619629,8|0,0:0|0:0,0:0:0:0:
133,33,65382,6,0,L|52:23,1,77.999997619629,2|0,0:3|0:0,0:0:0:0:
39,139,65682,2,0,L|62:217,1,77.999997619629,8|0,0:0|0:0,0:0:0:0:
124,314,65982,1,2,0:3:0:0:
237,344,66132,1,2,0:3:0:0:
206,231,66282,1,8,0:0:0:0:
124,314,66432,1,0,0:0:0:0:
237,344,66582,6,0,P|275:332|300:303,1,77.999997619629,2|0,0:3|0:0,0:0:0:0:
313,187,66882,2,0,P|325:149|354:124,1,77.999997619629,8|0,0:0|0:0,0:0:0:0:
450,191,67182,2,0,P|438:229|409:254,1,77.999997619629,2|2,0:3|0:3,0:0:0:0:
299,293,67482,1,8,0:0:0:0:
158,286,67632,1,0,0:0:0:0:
60,184,67782,6,0,P|45:145|55:110,1,77.999997619629,4|0,0:0|0:0,0:0:0:0:
145,4,68082,1,10,1:2:0:0:
199,133,68232,1,0,0:0:0:0:
335,163,68382,2,0,P|375:173|409:160,1,77.999997619629,4|0,0:0|0:0,0:0:0:0:
400,19,68682,2,0,P|360:9|326:22,1,77.999997619629,10|0,1:2|0:0,0:0:0:0:
206,106,68982,6,0,P|164:116|129:102,1,81.25,4|0,0:0|0:0,0:0:0:0:
15,195,69282,2,0,P|4:236|18:271,1,81.25,8|2,0:0|0:3,0:0:0:0:
47,298,69507,1,8,0:0:0:0:
47,298,69582,2,0,L|126:318,1,81.25,8|0,0:0|0:0,0:0:0:0:
267,361,69882,2,0,L|346:341,1,81.25,8|0,0:0|0:0,0:0:0:0:
415,193,70182,6,0,L|336:213,1,81.25,4|0,0:0|0:0,0:0:0:0:
226,254,70482,2,0,L|149:233,1,77.999997619629,8|0,0:0|0:0,0:0:0:0:
36,217,70782,1,2,0:3:0:0:
40,100,70932,1,2,0:3:0:0:
141,41,71082,1,8,0:0:0:0:
252,77,71232,1,0,0:0:0:0:
289,187,71382,6,0,L|312:264,1,77.999997619629,2|0,0:3|0:0,0:0:0:0:
391,347,71682,2,0,P|430:352|466:335,1,77.999997619629,8|0,0:0|0:0,0:0:0:0:
484,220,71982,2,0,L|461:143,1,77.999997619629,2|2,0:3|0:3,0:0:0:0:
388,54,72282,1,8,0:0:0:0:
388,54,72432,1,0,0:0:0:0:
272,38,72582,6,0,P|233:32|195:44,1,77.999997619629,2|0,0:3|0:0,0:0:0:0:
126,137,72882,1,8,0:0:0:0:
126,137,73032,1,0,0:0:0:0:
242,153,73182,2,0,P|281:159|319:147,1,77.999997619629,2|2,0:3|0:3,0:0:0:0:
432,166,73482,1,8,0:0:0:0:
432,166,73632,1,0,0:0:0:0:
448,282,73782,6,0,P|454:321|442:359,1,77.999997619629,2|0,0:3|0:0,0:0:0:0:
303,370,74082,1,8,1:2:0:0:
194,327,74232,1,0,0:0:0:0:
193,210,74382,2,0,P|211:174|243:151,1,77.999997619629,2|2,0:3|0:3,0:0:0:0:
278,138,74607,1,0,0:0:0:0:
313,122,74682,2,0,P|322:81|311:46,1,77.999997619629,8|0,0:0|0:0,0:0:0:0:
175,84,74982,6,0,L|97:104,1,77.999997619629,2|0,0:3|0:0,0:0:0:0:
53,211,75282,2,0,P|55:254|71:286,1,77.999997619629,8|0,0:0|0:0,0:0:0:0:
173,340,75582,1,2,0:3:0:0:
250,252,75732,1,2,0:3:0:0:
134,233,75882,1,8,0:0:0:0:
173,340,76032,1,0,0:0:0:0:
250,252,76182,6,0,P|260:211|254:174,1,77.999997619629,2|0,0:3|0:0,0:0:0:0:
257,58,76482,2,0,P|290:32|327:23,1,77.999997619629,8|0,0:0|0:0,0:0:0:0:
434,65,76782,2,0,P|459:98|468:135,1,77.999997619629,2|2,0:3|0:3,0:0:0:0:
435,239,77082,2,0,P|401:264|364:273,1,77.999997619629,8|0,0:0|0:0,0:0:0:0:
250,252,77382,5,2,0:3:0:0:
250,252,77532,1,0,0:0:0:0:
163,141,77682,2,0,L|85:155,1,77.999997619629,12|0,0:0|0:0,0:0:0:0:
16,276,77982,1,2,0:3:0:0:
16,276,78132,1,2,0:3:0:0:
120,369,78282,2,0,L|198:355,1,77.999997619629,12|0,0:0|0:0,0:0:0:0:
314,344,78582,5,2,0:3:0:0:
430,354,78732,1,0,0:0:0:0:
377,250,78882,1,2,0:3:0:0:
261,240,79032,1,0,0:0:0:0:
166,170,79182,5,8,0:0:0:0:
50,180,79332,1,2,0:3:0:0:
103,76,79482,1,2,0:3:0:0:
219,66,79632,1,8,0:3:0:0:
346,124,79782,6,0,L|425:118,1,77.999997619629,6|0,0:0|0:0,0:0:0:0:
470,226,80082,2,0,L|391:232,1,77.999997619629,10|0,0:0|0:0,0:0:0:0:
280,196,80382,2,0,P|256:168|248:128,1,77.999997619629,2|2,0:3|0:3,0:0:0:0:
163,48,80682,2,0,P|126:45|89:63,1,77.999997619629,10|0,0:0|0:0,0:0:0:0:
47,172,80982,5,2,0:3:0:0:
47,172,81132,1,0,0:0:0:0:
100,276,81282,1,10,0:0:0:0:
100,276,81432,1,0,0:0:0:0:
208,320,81582,2,0,P|249:327|286:321,1,77.999997619629,2|2,0:3|0:3,0:0:0:0:
326,211,81882,2,0,P|285:204|248:210,1,77.999997619629,10|0,0:0|0:0,0:0:0:0:
132,204,82182,6,0,L|56:176,1,77.999997619629,2|0,0:3|0:0,0:0:0:0:
56,60,82482,2,0,L|132:32,1,77.999997619629,10|0,0:0|0:0,0:0:0:0:
245,19,82782,2,0,P|313:49|322:127,1,155.999995239258,2|10,0:3|0:0,0:0:0:0:
274,230,83232,1,0,0:0:0:0:
331,331,83382,6,0,P|364:354|407:360,1,77.999997619629,2|0,0:3|0:0,0:0:0:0:
409,242,83682,2,0,P|447:230|478:199,1,77.999997619629,10|0,0:0|0:0,0:0:0:0:
388,125,83982,1,2,0:3:0:0:
349,5,84132,1,2,0:3:0:0:
223,5,84282,1,10,0:0:0:0:
185,125,84432,1,2,0:3:0:0:
223,259,84582,6,0,L|251:335,1,77.999997619629,2|0,0:3|0:0,0:0:0:0:
321,239,84882,2,0,L|293:163,1,77.999997619629,10|0,0:0|0:0,0:0:0:0:
185,125,85182,2,0,P|147:113|107:116,1,77.999997619629,2|2,0:3|0:3,0:0:0:0:
24,195,85482,1,10,0:0:0:0:
77,299,85632,2,0,P|158:316|215:275,1,155.999995239258
257,167,86082,6,0,P|275:131|305:105,1,77.999997619629,10|0,0:0|0:0,0:0:0:0:
411,61,86382,1,10,0:0:0:0:
450,171,86532,1,0,0:0:0:0:
370,304,86682,2,0,L|291:316,1,77.999997619629,12|0,0:0|0:0,0:0:0:0:
183,356,86982,6,0,L|104:344,1,77.999997619629,2|0,0:0|0:0,0:0:0:0:
14,270,87282,1,8,0:0:0:0:
36,155,87432,2,0,P|94:102|166:114,1,155.999995239258,10|2,0:0|0:3,0:0:0:0:
262,179,87882,6,0,P|296:198|336:195,1,77.999997619629,4|8,0:0|0:0,0:0:0:0:
371,182,88107,1,8,0:0:0:0:
371,182,88182,1,2,0:3:0:0:
323,74,88332,2,0,P|289:55|249:58,1,77.999997619629,10|0,0:0|0:0,0:0:0:0:
146,109,88632,1,0,0:0:0:0:
87,236,88782,6,0,P|91:274|117:305,1,77.999997619629,12|0,0:0|0:0,0:0:0:0:
254,277,89082,2,0,P|289:260|328:266,1,77.999997619629,10|0,0:0|0:0,0:0:0:0:
449,334,89382,1,4,0:0:0:0:
256,192,89457,12,0,90507,0:0:0:0:
