osu file format v14

[General]
AudioFilename: Dramatic Cycle.mp3
AudioLeadIn: 2000
PreviewTime: 60582
Countdown: 0
SampleSet: Soft
StackLeniency: 0.7
Mode: 0
LetterboxInBreaks: 0
WidescreenStoryboard: 0

[Editor]
DistanceSpacing: 1.6
BeatDivisor: 4
GridSize: 4
TimelineZoom: 3.299999

[Metadata]
Title:Dramatic Cycle
TitleUnicode:ドラマティック*サイクル
Artist:StylipS
ArtistUnicode:StylipS
Creator:kunkakunkakunkakunka
Version:Haitenai
Source:咲日和
Tags:saki biyori opening tv size oad original animation disc Studio五組 gokumi
BeatmapID:801849
BeatmapSetID:365323

[Difficulty]
HPDrainRate:6
CircleSize:4
OverallDifficulty:8
ApproachRate:9.3
SliderMultiplier:1.4
SliderTickRate:1

[Events]
//Background and Video events
0,0,"BG5.jpg",0,0
Video,0,"Dramatic Cycle.avi"
//Break Periods
//Storyboard Layer 0 (Background)
//Storyboard Layer 1 (Fail)
//Storyboard Layer 2 (Pass)
//Storyboard Layer 3 (Foreground)
//Storyboard Sound Samples

[TimingPoints]
582,300,4,2,1,30,1,0
582,-125,4,2,1,30,0,0
7782,-100,4,2,1,40,0,0
10182,-90.9090909090909,4,2,1,55,0,0
19782,-100,4,2,1,50,0,0
37482,-83.3333333333333,4,2,1,53,0,0
37932,-100,4,2,1,50,0,0
38682,-83.3333333333333,4,2,1,53,0,0
39282,-111.111111111111,4,2,1,40,0,0
47382,-100,4,2,1,50,0,0
53082,-90.9090909090909,4,2,1,50,0,0
53682,-83.3333333333333,4,2,1,55,0,0
53982,-100,4,2,1,50,0,0
58182,-90.9090909090909,4,2,1,53,0,0
60582,-76.9230769230769,4,2,1,60,0,1
60882,-83.3333333333333,4,2,1,55,0,1
68982,-76.9230769230769,4,2,1,60,0,1
70482,-83.3333333333333,4,2,1,55,0,1
79482,-76.9230769230769,4,2,1,60,0,1
79782,-76.9230769230769,4,2,1,60,0,0
79932,-83.3333333333333,4,2,1,55,0,0
86382,-76.9230769230769,4,2,1,58,0,0
86832,-83.3333333333333,4,2,1,55,0,0
90507,-83.3333333333333,4,2,1,5,0,0

[Colours]
Combo1 : 255,128,255
Combo2 : 128,255,128
Combo3 : 128,255,255
Combo4 : 255,128,128
Combo5 : 255,255,128

[HitObjects]
494,253,582,6,0,P|450:281|392:273,1,112
305,257,1032,1,2,0:0:0:0:
217,274,1182,2,0,L|170:303,1,56,2|2,0:0|0:0,0:0:0:0:
80,296,1482,2,0,L|33:325,1,56,2|2,0:0|0:0,0:0:0:0:
9,238,1782,1,2,0:0:0:0:
25,37,2082,2,0,P|69:9|126:16,1,112,2|0,0:0|0:0,0:0:0:0:
290,89,2682,5,2,0:0:0:0:
343,106,2832,1,2,0:0:0:0:
396,89,2982,1,2,0:0:0:0:
235,169,3282,5,2,0:0:0:0:
275,209,3432,1,2,0:0:0:0:
329,222,3582,1,2,0:0:0:0:
152,192,3882,5,2,0:0:0:0:
140,247,4032,1,2,0:0:0:0:
156,300,4182,1,2,0:0:0:0:
325,358,4482,1,2,0:0:0:0:
291,182,4782,1,2,0:0:0:0:
156,300,5082,1,2,0:0:0:0:
41,162,5382,5,2,0:0:0:0:
37,106,5532,1,2,0:0:0:0:
75,66,5682,1,2,0:0:0:0:
131,63,5832,1,2,0:0:0:0:
171,101,5982,1,2,0:0:0:0:
153,279,6282,1,2,0:0:0:0:
318,348,6582,5,2,0:0:0:0:
295,170,6882,1,2,0:0:0:0:
460,240,7182,1,2,0:0:0:0:
428,64,7482,1,2,0:0:0:0:
318,348,7782,6,0,L|178:316,1,140,6|0,0:0|0:0,0:0:0:0:
64,218,8232,1,2,0:3:0:0:
143,87,8382,1,2,0:0:0:0:
143,87,8532,2,0,P|198:56|269:77,1,140,8|0,0:3|0:0,0:0:0:0:
351,189,8982,5,6,0:0:0:0:
281,261,9132,1,0,0:0:0:0:
183,233,9282,1,2,0:0:0:0:
208,330,9432,1,0,0:0:0:0:
351,189,9582,1,2,0:0:0:0:
158,136,9732,1,8,0:0:0:0:
129,149,9807,1,8,0:0:0:0:
106,170,9882,1,10,0:0:0:0:
91,197,9957,1,8,0:0:0:0:
84,228,10032,1,8,0:0:0:0:
87,259,10107,1,8,0:0:0:0:
100,288,10182,6,0,L|142:353,1,77.0000023498536,4|0,0:0|0:0,0:0:0:0:
265,353,10482,2,0,L|307:288,1,77.0000023498536,10|0,0:0|0:0,0:0:0:0:
361,177,10782,1,2,0:3:0:0:
326,58,10932,1,2,0:3:0:0:
212,104,11082,2,0,P|169:112|131:101,1,77.0000023498536,10|0,0:0|0:0,0:0:0:0:
18,72,11382,5,2,0:3:0:0:
38,193,11532,1,0,0:0:0:0:
159,215,11682,1,10,0:0:0:0:
179,336,11832,1,0,0:0:0:0:
375,284,11982,2,0,L|434:232,1,77.0000023498536,2|2,0:3|0:3,0:0:0:0:
384,86,12282,2,0,L|325:138,1,77.0000023498536,10|0,0:0|0:0,0:0:0:0:
211,239,12582,6,0,P|176:254|137:243,1,77.0000023498536,2|0,0:3|0:0,0:0:0:0:
53,156,12882,1,10,0:0:0:0:
173,60,13032,2,0,L|251:74,1,77.0000023498536,0|2,0:0|0:3,0:0:0:0:
358,132,13332,1,2,0:3:0:0:
421,272,13482,2,0,L|343:286,1,77.0000023498536,10|0,0:0|0:0,0:0:0:0:
319,315,13707,1,0,0:0:0:0:
319,315,13782,5,2,0:3:0:0:
218,244,13932,1,0,0:0:0:0:
240,122,14082,1,10,0:0:0:0:
164,24,14232,1,0,0:0:0:0:
43,48,14382,1,2,0:3:0:0:
21,170,14532,1,2,0:3:0:0:
97,268,14682,1,10,0:0:0:0:
218,244,14832,1,8,0:0:0:0:
218,244,14907,1,8,0:0:0:0:
218,244,14982,6,0,L|296:254,1,77.0000023498536,4|0,0:0|0:0,0:0:0:0:
417,239,15282,2,0,P|439:212|446:169,1,77.0000023498536,10|0,0:0|0:0,0:0:0:0:
465,49,15582,1,2,0:3:0:0:
351,0,15732,1,2,0:3:0:0:
235,42,15882,2,0,L|173:90,1,77.0000023498536,10|0,0:0|0:0,0:0:0:0:
89,180,16182,5,2,0:3:0:0:
118,299,16332,1,0,0:0:0:0:
219,228,16482,1,10,0:0:0:0:
248,347,16632,1,0,0:0:0:0:
326,196,16782,2,0,P|309:159|280:136,1,77.0000023498536,2|2,0:3|0:3,0:0:0:0:
128,213,17082,2,0,L|98:285,1,77.0000023498536,10|0,0:0|0:0,0:0:0:0:
101,125,17382,5,2,0:3:0:0:
194,45,17532,1,0,0:0:0:0:
301,105,17682,1,10,0:0:0:0:
422,84,17832,1,0,0:0:0:0:
406,206,17982,1,2,0:3:0:0:
285,227,18132,1,2,0:3:0:0:
178,167,18282,1,10,0:0:0:0:
194,45,18432,1,8,0:0:0:0:
194,45,18507,1,8,0:0:0:0:
194,45,18582,5,2,0:3:0:0:
221,196,18732,1,2,0:3:0:0:
244,348,18882,1,2,0:3:0:0:
406,206,19032,2,0,P|311:142|220:196,1,231.000007049561,4|0,0:0|0:0,0:0:0:0:
94,201,19782,6,0,L|121:134,1,70,2|0,0:3|0:0,0:0:0:0:
174,37,20082,1,0,0:0:0:0:
271,94,20232,2,0,P|337:118|402:94,1,140,2|0,0:3|0:0,0:0:0:0:
490,202,20682,2,0,L|480:273,1,70,8|0,0:0|0:0,0:0:0:0:
379,324,20982,5,2,0:3:0:0:
379,324,21132,1,2,0:3:0:0:
268,340,21282,1,0,0:0:0:0:
268,340,21432,1,2,0:3:0:0:
195,254,21582,2,0,P|225:231|261:229,1,70
356,130,21882,2,0,P|379:100|381:64,1,70,8|0,0:0|0:0,0:0:0:0:
274,34,22182,6,0,L|199:41,1,70,2|0,0:3|0:0,0:0:0:0:
104,90,22482,1,0,0:0:0:0:
72,197,22632,2,0,P|88:286|117:334,1,140,2|0,0:3|0:0,0:0:0:0:
250,357,23082,2,0,L|325:350,1,70,8|0,0:0|0:0,0:0:0:0:
429,322,23382,5,2,0:3:0:0:
429,322,23532,1,2,0:3:0:0:
461,214,23682,1,0,0:0:0:0:
461,214,23832,1,2,0:3:0:0:
418,110,23982,2,0,L|394:41,1,70
310,155,24282,2,0,L|286:224,1,70,8|0,0:0|0:0,0:0:0:0:
241,323,24582,6,0,P|210:339|171:337,1,70,2|0,0:3|0:0,0:0:0:0:
70,297,24882,1,0,0:0:0:0:
43,188,25032,2,0,P|68:126|124:80,1,140,2|0,0:3|0:0,0:0:0:0:
258,39,25482,2,0,L|334:47,1,70,8|0,0:0|0:0,0:0:0:0:
415,116,25782,5,2,0:3:0:0:
415,116,25932,1,2,0:3:0:0:
419,227,26082,2,0,L|404:300,1,70,0|2,0:0|0:3,0:0:0:0:
298,332,26382,2,0,L|312:263,1,70
229,187,26682,2,0,L|214:260,1,70,8|0,0:0|0:0,0:0:0:0:
117,356,26982,5,4,0:0:0:0:
50,265,27132,1,0,0:0:0:0:
96,162,27282,1,8,0:0:0:0:
69,53,27432,1,0,0:0:0:0:
178,28,27582,1,2,0:3:0:0:
206,135,27732,1,2,0:3:0:0:
287,212,27882,1,8,0:0:0:0:
267,322,28032,1,0,0:0:0:0:
106,253,28182,6,0,L|182:231,1,70,4|0,0:0|0:0,0:0:0:0:
336,300,28482,1,8,0:0:0:0:
410,141,28632,2,0,P|402:104|382:74,1,70,4|0,0:0|0:0,0:0:0:0:
243,75,28932,1,2,0:3:0:0:
117,136,29082,1,8,0:3:0:0:
232,214,29232,1,0,0:0:0:0:
243,75,29382,6,0,P|223:44|193:26,1,70,2|0,0:3|0:0,0:0:0:0:
82,33,29682,2,0,L|17:59,1,70,8|0,0:0|0:0,0:0:0:0:
15,171,29982,1,2,0:3:0:0:
35,281,30132,1,2,0:3:0:0:
122,350,30282,2,0,P|154:362|194:358,1,70,8|0,0:0|0:0,0:0:0:0:
285,302,30582,5,2,0:3:0:0:
285,302,30732,1,2,0:3:0:0:
267,191,30882,1,8,0:0:0:0:
267,191,31032,1,2,0:3:0:0:
334,101,31182,2,0,P|369:86|402:92,1,70,2|0,0:3|0:0,0:0:0:0:
423,251,31482,2,0,P|387:265|354:259,1,70,8|0,1:2|0:0,0:0:0:0:
267,191,31782,6,0,L|192:194,1,70,2|0,0:3|0:0,0:0:0:0:
90,155,32082,2,0,P|80:193|90:223,1,70,8|0,0:0|0:0,0:0:0:0:
153,314,32382,1,2,0:3:0:0:
262,339,32532,1,2,0:3:0:0:
371,314,32682,2,0,P|403:302|425:273,1,70,8|0,0:0|0:0,0:0:0:0:
440,163,32982,5,2,0:3:0:0:
440,163,33132,1,2,0:3:0:0:
421,52,33282,1,8,0:0:0:0:
421,52,33432,1,2,0:3:0:0:
335,124,33582,2,0,P|301:140|267:136,1,70,2|0,0:3|0:0,0:0:0:0:
114,179,33882,2,0,L|66:231,1,70,12|0,0:0|0:0,0:0:0:0:
192,330,34182,6,0,L|261:338,1,70,2|0,0:3|0:0,0:0:0:0:
371,314,34482,1,8,0:0:0:0:
324,210,34632,2,0,L|255:202,1,70,0|2,0:0|0:3,0:0:0:0:
335,124,34932,2,0,L|404:132,1,70,2|8,0:3|0:0,0:0:0:0:
348,35,35232,2,0,L|279:27,1,70,0|2,0:0|0:3,0:0:0:0:
167,14,35532,5,0,0:0:0:0:
68,67,35682,1,8,0:0:0:0:
52,177,35832,1,0,0:0:0:0:
105,276,35982,2,0,P|135:291|175:288,1,70,2|2,0:3|0:3,0:0:0:0:
287,210,36282,2,0,P|317:195|357:198,1,70,10|0,0:0|0:0,0:0:0:0:
477,299,36582,6,0,L|420:340,1,70,4|0,0:0|0:0,0:0:0:0:
310,315,36882,1,10,0:0:0:0:
335,205,37032,2,0,L|348:135,1,70,0|2,0:0|0:3,0:0:0:0:
373,27,37332,1,2,0:3:0:0:
266,60,37482,1,10,0:0:0:0:
347,136,37632,1,0,0:0:0:0:
400,295,37782,6,0,L|323:334,1,83.9999974365235,4|0,0:0|0:0,0:0:0:0:
170,298,38082,1,8,0:0:0:0:
93,117,38232,1,2,0:3:0:0:
50,307,38382,1,2,0:3:0:0:
195,181,38532,1,8,0:3:0:0:
3,198,38682,1,8,0:3:0:0:
170,298,38832,1,4,0:0:0:0:
336,357,38982,6,0,L|501:331,1,167.999994873047,2|0,0:3|0:0,0:0:0:0:
504,230,39432,1,2,0:3:0:0:
435,157,39582,2,0,L|339:172,1,94.499997116089
300,220,39882,2,0,P|272:239|242:244,1,62.9999980773926,10|0,0:0|0:0,0:0:0:0:
147,272,40182,5,2,0:3:0:0:
91,189,40332,1,2,0:3:0:0:
152,111,40482,1,2,0:0:0:0:
245,145,40632,1,2,0:3:0:0:
243,244,40782,2,0,L|239:312,1,62.9999980773926
358,348,41082,2,0,B|389:352|389:352|422:337,1,62.9999980773926,10|0,0:0|0:0,0:0:0:0:
453,244,41382,6,0,L|457:181,1,62.9999980773926,2|0,0:3|0:0,0:0:0:0:
374,124,41682,1,2,0:0:0:0:
295,187,41832,2,0,L|231:198,1,62.9999980773926,2|0,0:3|0:0,0:0:0:0:
130,199,42132,1,0,0:0:0:0:
80,83,42282,2,0,P|108:71|144:73,1,62.9999980773926,10|0,0:0|0:0,0:0:0:0:
236,106,42582,5,2,0:3:0:0:
295,187,42732,1,2,0:3:0:0:
391,155,42882,1,2,0:0:0:0:
391,54,43032,1,2,0:3:0:0:
295,24,43182,2,0,L|240:64,1,62.9999980773926
133,121,43482,2,0,P|101:128|68:120,1,62.9999980773926,8|0,1:2|0:0,0:0:0:0:
20,35,43782,6,0,L|13:162,1,125.999996154785,2|2,0:3|0:0,0:0:0:0:
38,259,44232,1,2,0:3:0:0:
129,302,44382,2,0,P|176:315|232:295,1,94.499997116089
268,263,44682,2,0,P|286:239|316:223,1,62.9999980773926,10|0,0:0|0:0,0:0:0:0:
406,181,44982,5,2,0:3:0:0:
498,140,45132,1,2,0:3:0:0:
488,39,45282,1,2,0:0:0:0:
390,18,45432,1,2,0:3:0:0:
338,104,45582,2,0,L|354:168,1,62.9999980773926
331,289,45882,2,0,L|272:316,1,62.9999980773926,10|0,1:2|0:0,0:0:0:0:
159,181,46182,6,0,P|98:164|37:181,1,125.999996154785,4|0,0:0|0:0,0:0:0:0:
98,291,46632,2,0,L|160:303,1,62.9999980773926,2|0,0:3|0:0,0:0:0:0:
253,218,46932,1,0,0:0:0:0:
244,92,47082,2,0,P|268:73|304:72,1,62.9999980773926,8|0,0:0|0:0,0:0:0:0:
350,70,47307,1,8,0:0:0:0:
350,70,47382,5,8,0:0:0:0:
483,111,47532,1,2,0:3:0:0:
350,155,47682,1,8,0:3:0:0:
468,230,47832,1,2,0:3:0:0:
328,235,47982,1,2,0:3:0:0:
384,363,48132,1,2,0:3:0:0:
247,259,48282,2,0,L|211:254,1,35,8|8,0:0|0:0,0:0:0:0:
95,316,48432,2,0,L|131:321,1,35,8|8,0:0|0:0,0:0:0:0:
243,363,48582,6,0,L|314:349,1,70,4|0,0:0|0:0,0:0:0:0:
416,309,48882,2,0,L|444:245,1,70,10|0,0:0|0:0,0:0:0:0:
483,139,49182,1,2,0:3:0:0:
483,139,49332,2,0,P|463:108|426:87,1,70,2|8,0:3|0:0,0:0:0:0:
333,45,49632,1,0,0:0:0:0:
272,139,49782,6,0,P|236:149|203:139,1,70,2|0,0:3|0:0,0:0:0:0:
134,53,50082,1,8,0:0:0:0:
83,153,50232,1,0,0:0:0:0:
97,264,50382,2,0,P|104:302|90:334,1,70,2|2,0:3|0:3,0:0:0:0:
10,254,50682,2,0,P|2:215|16:183,1,70,8|0,0:0|0:0,0:0:0:0:
82,98,50982,6,0,L|156:102,1,70,2|0,0:3|0:0,0:0:0:0:
196,204,51282,2,0,L|176:280,1,70,8|0,0:0|0:0,0:0:0:0:
258,350,51582,2,0,P|290:368|331:367,2,70,2|2|8,0:3|0:3|0:0,0:0:0:0:
274,239,52032,1,0,0:0:0:0:
289,128,52182,6,0,P|296:90|282:57,1,70,2|0,0:3|0:0,0:0:0:0:
385,10,52482,2,0,P|421:11|451:28,1,70,8|0,0:0|0:0,0:0:0:0:
458,139,52782,2,0,L|456:212,1,70,2|2,0:3|0:3,0:0:0:0:
322,344,53082,2,0,L|245:362,1,77.0000023498536,12|0,0:0|0:0,0:0:0:0:
123,222,53382,6,0,L|201:203,1,77.0000023498536,2|0,0:3|0:0,0:0:0:0:
385,10,53682,2,0,L|221:47,1,167.999994873047,8|2,1:2|0:3,0:0:0:0:
71,70,54132,1,2,0:3:0:0:
30,174,54282,1,10,0:0:0:0:
62,281,54432,1,0,0:0:0:0:
140,201,54582,5,2,0:3:0:0:
250,180,54732,1,0,0:0:0:0:
329,259,54882,1,10,0:0:0:0:
219,280,55032,1,0,0:0:0:0:
140,201,55182,2,0,P|132:169|143:134,1,70,2|2,0:3|0:3,0:0:0:0:
257,19,55482,2,0,L|328:29,1,70,12|0,0:0|0:0,0:0:0:0:
425,88,55782,5,2,0:3:0:0:
426,199,55932,1,0,0:0:0:0:
316,177,56082,1,8,0:0:0:0:
317,288,56232,1,0,0:0:0:0:
225,352,56382,2,0,P|190:366|151:360,1,70,2|2,0:3|0:3,0:0:0:0:
97,267,56682,2,0,P|80:232|48:210,1,70,8|0,0:0|0:0,0:0:0:0:
1,115,56982,5,2,0:3:0:0:
1,115,57132,1,0,0:0:0:0:
58,17,57282,1,8,0:0:0:0:
58,17,57432,1,0,0:0:0:0:
171,17,57582,1,2,0:3:0:0:
229,115,57732,1,8,0:0:0:0:
171,213,57882,1,8,0:0:0:0:
57,213,58032,1,8,0:0:0:0:
229,115,58182,6,0,L|308:104,1,77.0000023498536,12|0,0:0|0:0,0:0:0:0:
199,292,58482,2,0,L|120:303,1,77.0000023498536,8|0,0:0|0:0,0:0:0:0:
68,93,58782,6,0,L|57:14,1,77.0000023498536,8|0,0:0|0:0,0:0:0:0:
232,143,59082,2,0,L|243:222,1,77.0000023498536,8|0,0:0|0:0,0:0:0:0:
319,315,59382,5,2,0:3:0:0:
440,348,59532,1,8,0:3:0:0:
506,244,59682,1,8,0:3:0:0:
430,148,59832,1,8,0:3:0:0:
313,193,59982,5,8,0:0:0:0:
208,128,60132,1,8,0:0:0:0:
193,93,60207,1,8,0:0:0:0:
202,55,60282,1,8,0:0:0:0:
229,30,60357,1,8,0:0:0:0:
266,23,60432,2,0,L|307:15,1,38.5000011749268,8|8,0:0|0:0,0:0:0:0:
368,94,60582,6,0,L|462:107,1,90.9999958343508,4|0,0:0|0:0,0:0:0:0:
452,241,60882,2,0,L|364:229,1,83.9999974365235,8|0,0:0|0:0,0:0:0:0:
247,170,61182,1,2,0:3:0:0:
148,261,61332,1,2,0:3:0:0:
47,172,61482,1,8,0:0:0:0:
20,303,61632,1,0,0:0:0:0:
145,350,61782,6,0,P|187:345|217:315,1,83.9999974365235,2|0,0:3|0:0,0:0:0:0:
208,182,62082,2,0,P|240:152|278:144,1,83.9999974365235,8|0,0:0|0:0,0:0:0:0:
412,137,62382,2,0,P|434:99|432:59,1,83.9999974365235,2|2,0:3|0:3,0:0:0:0:
298,66,62682,1,8,0:0:0:0:
350,189,62832,1,0,0:0:0:0:
299,313,62982,6,0,L|214:333,1,83.9999974365235,2|0,0:3|0:0,0:0:0:0:
82,336,63282,1,8,0:0:0:0:
30,213,63432,1,0,0:0:0:0:
81,89,63582,2,0,L|166:69,1,83.9999974365235,2|2,0:3|0:3,0:0:0:0:
298,66,63882,1,8,0:0:0:0:
350,189,64032,1,0,0:0:0:0:
473,243,64182,6,0,P|489:199|478:157,1,83.9999974365235,2|0,0:3|0:0,0:0:0:0:
387,68,64482,2,0,P|346:79|305:68,1,83.9999974365235,8|0,0:0|0:0,0:0:0:0:
172,63,64782,2,0,P|128:59|91:77,1,83.9999974365235,2|2,0:3|0:3,0:0:0:0:
30,196,65082,1,8,0:0:0:0:
163,213,65232,1,2,0:3:0:0:
163,213,65307,1,0,0:0:0:0:
163,213,65382,6,0,L|250:225,1,83.9999974365235,2|0,0:3|0:0,0:0:0:0:
325,333,65682,2,0,L|238:345,1,83.9999974365235,8|0,0:0|0:0,0:0:0:0:
106,345,65982,1,2,0:3:0:0:
17,246,66132,1,2,0:3:0:0:
83,129,66282,1,8,0:0:0:0:
214,157,66432,1,0,0:0:0:0:
228,290,66582,6,0,P|267:309|307:308,1,83.9999974365235,2|0,0:3|0:0,0:0:0:0:
421,238,66882,2,0,P|382:219|342:220,1,83.9999974365235,8|0,0:0|0:0,0:0:0:0:
228,290,67182,1,2,0:3:0:0:
99,251,67332,1,2,0:3:0:0:
85,211,67407,1,2,0:3:0:0:
99,171,67482,1,8,0:0:0:0:
231,67,67632,1,0,0:0:0:0:
308,216,67782,6,0,P|343:244|384:249,1,83.9999974365235,4|0,0:0|0:0,0:0:0:0:
478,111,68082,1,10,1:2:0:0:
337,19,68232,1,0,0:0:0:0:
171,45,68382,2,0,L|90:74,1,83.9999974365235,4|0,0:0|0:0,0:0:0:0:
2,217,68682,1,10,1:2:0:0:
83,364,68832,1,0,0:0:0:0:
265,350,68982,6,0,P|307:333|356:342,1,90.9999958343508,4|0,0:0|0:0,0:0:0:0:
472,202,69282,2,0,P|476:155|455:112,1,90.9999958343508,8|2,0:0|0:3,0:0:0:0:
426,82,69507,1,8,0:0:0:0:
380,85,69582,2,0,P|333:90|296:69,1,90.9999958343508,8|0,0:0|0:0,0:0:0:0:
116,36,69882,2,0,P|73:56|53:94,1,90.9999958343508,8|0,0:0|0:0,0:0:0:0:
224,200,70182,6,0,L|316:208,1,90.9999958343508,4|0,0:0|0:0,0:0:0:0:
348,341,70482,2,0,L|262:350,1,83.9999974365235,8|0,0:0|0:0,0:0:0:0:
135,362,70782,1,2,0:3:0:0:
32,275,70932,1,2,0:3:0:0:
44,141,71082,1,8,0:0:0:0:
147,54,71232,1,0,0:0:0:0:
273,100,71382,6,0,P|317:110|356:95,1,83.9999974365235,2|0,0:3|0:0,0:0:0:0:
485,119,71682,2,0,P|504:162|496:199,1,83.9999974365235,8|0,0:0|0:0,0:0:0:0:
427,312,71982,2,0,L|352:357,1,83.9999974365235,2|2,0:3|0:3,0:0:0:0:
219,350,72282,1,8,0:0:0:0:
175,223,72432,1,0,0:0:0:0:
215,94,72582,6,0,P|186:62|142:54,1,83.9999974365235,2|0,0:3|0:0,0:0:0:0:
37,131,72882,1,8,0:0:0:0:
47,264,73032,1,0,0:0:0:0:
175,223,73182,2,0,P|215:209|258:222,1,83.9999974365235,2|2,0:3|0:3,0:0:0:0:
349,315,73482,1,8,0:0:0:0:
219,350,73632,1,0,0:0:0:0:
112,268,73782,6,0,P|98:228|111:185,1,83.9999974365235,2|0,0:3|0:0,0:0:0:0:
298,61,74082,1,8,1:2:0:0:
423,109,74232,1,0,0:0:0:0:
390,239,74382,2,0,L|307:253,1,83.9999974365235,2|2,0:3|0:3,0:0:0:0:
187,316,74682,1,8,0:0:0:0:
111,205,74832,1,0,0:0:0:0:
111,205,74907,1,0,0:0:0:0:
111,205,74982,6,0,L|97:122,1,83.9999974365235,2|0,0:3|0:0,0:0:0:0:
213,191,75282,2,0,L|199:274,1,83.9999974365235,8|0,0:0|0:0,0:0:0:0:
289,374,75582,1,2,0:3:0:0:
422,355,75732,1,2,0:3:0:0:
487,237,75882,1,8,0:0:0:0:
468,104,76032,1,0,0:0:0:0:
344,156,76182,6,0,P|303:166|262:155,1,83.9999974365235,2|0,0:3|0:0,0:0:0:0:
130,128,76482,2,0,P|84:130|53:151,1,83.9999974365235,8|0,0:0|0:0,0:0:0:0:
96,277,76782,2,0,P|142:275|173:254,1,83.9999974365235,2|2,0:3|0:3,0:0:0:0:
263,155,77082,2,0,P|265:109|286:78,1,83.9999974365235,8|0,0:0|0:0,0:0:0:0:
402,9,77382,5,2,0:3:0:0:
484,114,77532,1,0,0:0:0:0:
292,77,77682,2,0,P|252:72|210:94,1,83.9999974365235,12|0,0:0|0:0,0:0:0:0:
110,177,77982,1,2,0:3:0:0:
28,282,78132,1,2,0:3:0:0:
220,245,78282,2,0,P|260:240|302:262,1,83.9999974365235,12|0,0:0|0:0,0:0:0:0:
471,281,78582,5,2,0:3:0:0:
484,114,78732,1,0,0:0:0:0:
338,30,78882,1,2,0:3:0:0:
224,153,79032,1,0,0:0:0:0:
107,274,79182,5,8,0:0:0:0:
18,131,79332,1,2,0:3:0:0:
135,10,79482,1,2,0:3:0:0:
224,153,79632,1,8,0:3:0:0:
310,345,79782,6,0,L|401:321,1,90.9999958343508,6|0,0:0|0:0,0:0:0:0:
282,243,80082,2,0,L|197:221,1,83.9999974365235,10|0,0:0|0:0,0:0:0:0:
103,128,80382,1,2,0:3:0:0:
195,30,80532,1,2,0:3:0:0:
330,29,80682,1,10,0:0:0:0:
422,127,80832,1,0,0:0:0:0:
388,257,80982,6,0,L|420:344,1,83.9999974365235,2|0,0:3|0:0,0:0:0:0:
475,214,81282,2,0,L|443:127,1,83.9999974365235,10|0,0:0|0:0,0:0:0:0:
349,42,81582,1,2,0:3:0:0:
317,172,81732,1,2,0:3:0:0:
196,231,81882,1,10,0:0:0:0:
228,361,82032,1,0,0:0:0:0:
388,257,82182,6,0,L|305:244,1,83.9999974365235,2|0,0:3|0:0,0:0:0:0:
183,302,82482,1,10,0:0:0:0:
55,259,82632,1,0,0:0:0:0:
47,124,82782,2,0,P|62:85|52:38,1,83.9999974365235,2|2,0:3|0:3,0:0:0:0:
186,11,83082,2,0,P|222:32|270:30,1,83.9999974365235,10|0,0:0|0:0,0:0:0:0:
397,22,83382,5,2,0:3:0:0:
397,22,83532,1,0,0:0:0:0:
486,121,83682,1,10,0:0:0:0:
486,121,83832,1,0,0:0:0:0:
442,248,83982,1,2,0:3:0:0:
312,283,84132,1,2,0:3:0:0:
185,239,84282,1,10,0:0:0:0:
55,274,84432,1,2,0:3:0:0:
162,84,84582,6,0,P|204:77|248:95,1,83.9999974365235,2|0,0:3|0:0,0:0:0:0:
366,144,84882,1,10,0:0:0:0:
255,220,85032,1,0,0:0:0:0:
369,290,85182,2,0,P|376:332|358:376,1,83.9999974365235,2|2,0:3|0:3,0:0:0:0:
228,358,85482,2,0,P|189:343|147:347,1,83.9999974365235,10|0,0:0|0:0,0:0:0:0:
27,285,85782,5,2,0:3:0:0:
27,285,85932,1,0,0:0:0:0:
16,151,86082,1,10,0:0:0:0:
16,151,86232,1,0,0:0:0:0:
112,42,86382,1,10,0:0:0:0:
255,20,86532,1,0,0:0:0:0:
400,132,86682,2,0,L|370:221,1,90.9999958343508,12|0,0:0|0:0,0:0:0:0:
256,292,86982,5,2,0:0:0:0:
378,347,87132,1,0,0:0:0:0:
468,248,87282,1,8,0:0:0:0:
400,132,87432,1,10,0:0:0:0:
269,160,87582,1,2,0:3:0:0:
256,292,87732,1,2,0:3:0:0:
468,248,87882,5,6,0:0:0:0:
495,116,88032,1,8,0:0:0:0:
481,75,88107,1,8,0:0:0:0:
447,47,88182,1,2,0:3:0:0:
313,58,88332,2,0,L|229:68,1,83.9999974365235,10|0,0:0|0:0,0:0:0:0:
72,127,88632,1,0,0:0:0:0:
138,326,88782,6,0,P|177:336|222:323,1,83.9999974365235,12|0,0:0|0:0,0:0:0:0:
349,160,89082,2,0,P|309:149|264:162,1,83.9999974365235,10|0,0:0|0:0,0:0:0:0:
32,251,89382,1,4,0:0:0:0:
256,192,89457,12,0,90507,0:0:0:0:
