osu file format v14

[General]
AudioFilename: Dramatic Cycle.mp3
AudioLeadIn: 2000
PreviewTime: 60582
Countdown: 0
SampleSet: Soft
StackLeniency: 0.7
Mode: 0
LetterboxInBreaks: 0
WidescreenStoryboard: 0

[Editor]
DistanceSpacing: 1.3
BeatDivisor: 4
GridSize: 4
TimelineZoom: 1.9

[Metadata]
Title:Dramatic Cycle
TitleUnicode:ドラマティック*サイクル
Artist:StylipS
ArtistUnicode:StylipS
Creator:kunkakunkakunkakunka
Version:Easy
Source:咲日和
Tags:saki biyori opening tv size oad original animation disc Studio五組 gokumi
BeatmapID:803427
BeatmapSetID:365323

[Difficulty]
HPDrainRate:2
CircleSize:3
OverallDifficulty:3
ApproachRate:3
SliderMultiplier:0.8
SliderTickRate:1

[Events]
//Background and Video events
0,0,"BG.jpg",0,0
Video,0,"Dramatic Cycle.avi"
//Break Periods
//Storyboard Layer 0 (Background)
//Storyboard Layer 1 (Fail)
//Storyboard Layer 2 (Pass)
//Storyboard Layer 3 (Foreground)
//Storyboard Sound Samples

[TimingPoints]
582,300,4,2,1,30,1,0
582,-125,4,2,1,30,0,0
7782,-125,4,2,1,40,0,0
10182,-125,4,2,1,55,0,0
19782,-125,4,2,1,50,0,0
38982,-125,4,2,1,40,0,0
47382,-125,4,2,1,50,0,0
58182,-125,4,2,1,53,0,0
60582,-125,4,2,1,55,0,1
68982,-125,4,2,1,60,0,1
70482,-125,4,2,1,55,0,1
79782,-125,4,2,1,55,0,0

[Colours]
Combo1 : 255,128,255
Combo2 : 128,255,128
Combo3 : 128,255,255
Combo4 : 255,128,128
Combo5 : 255,255,128

[HitObjects]
443,277,582,6,0,P|384:254|322:275,1,128,0|2,0:0|0:0,0:0:0:0:
247,302,1482,1,2,0:0:0:0:
164,293,1782,2,0,L|100:279,1,64,2|2,0:0|0:0,0:0:0:0:
46,35,2982,6,0,L|174:61,1,128,2|2,0:0|0:0,0:0:0:0:
253,75,3882,1,2,0:0:0:0:
335,61,4182,2,0,L|400:49,2,64,2|2|2,0:0|0:0|0:0,0:0:0:0:
188,139,5382,6,0,P|171:198|189:260,1,128,2|2,0:0|0:0,0:0:0:0:
240,326,6282,1,2,0:0:0:0:
308,278,6582,2,0,P|367:261|429:279,1,128,2|2,0:0|0:0,0:0:0:0:
501,237,7482,1,2,0:0:0:0:
507,154,7782,6,0,P|500:95|457:43,1,128,6|2,0:0|0:0,0:0:0:0:
292,32,8982,2,0,L|229:46,1,64,6|2,0:0|0:0,0:0:0:0:
148,27,9582,1,2,0:0:0:0:
88,182,10182,6,0,P|147:203|208:182,1,128,4|2,0:0|0:3,0:0:0:0:
276,137,11082,1,10,0:0:0:0:
346,92,11382,2,0,P|405:71|466:92,1,128,2|2,0:3|0:3,0:0:0:0:
470,174,12282,1,10,0:0:0:0:
459,256,12582,6,0,P|472:302|515:328,2,96,2|0|10,0:3|0:0|0:0,0:0:0:0:
376,245,13782,2,0,P|349:283|304:297,2,96,2|0|10,0:3|0:0|0:0,0:0:0:0:
384,162,14982,6,0,P|342:115|278:113,1,128,4|2,0:0|0:3,0:0:0:0:
228,177,15882,1,10,0:0:0:0:
233,260,16182,2,0,P|191:307|127:309,1,128,2|2,0:3|0:3,0:0:0:0:
55,271,17082,1,10,0:0:0:0:
26,193,17382,6,0,B|15:164|22:130|22:130|54:117|69:86|69:86|106:79|137:89,1,192,2|10,0:3|0:0,0:0:0:0:
215,91,18582,2,0,P|266:82|292:45,1,96,2|4,0:3|0:0,0:0:0:0:
294,257,19782,6,0,P|278:302|294:347,1,96,2|2,0:3|0:3,0:0:0:0:
409,301,20682,1,8,0:0:0:0:
441,224,20982,2,0,P|455:178|441:134,1,96,2|2,0:3|0:3,0:0:0:0:
338,62,21882,1,8,0:0:0:0:
264,100,22182,6,0,P|219:116|174:97,1,96,2|2,0:3|0:3,0:0:0:0:
71,167,23082,1,8,0:0:0:0:
29,239,23382,2,0,P|19:286|42:326,1,96,2|2,0:3|0:3,0:0:0:0:
161,363,24282,1,8,0:0:0:0:
221,305,24582,6,0,P|230:257|207:217,1,96,2|2,0:3|0:3,0:0:0:0:
175,97,25482,1,8,0:0:0:0:
241,46,25782,2,0,P|299:23|360:46,1,128,2|0,0:3|0:0,0:0:0:0:
422,97,26682,1,8,0:0:0:0:
415,179,26982,6,0,B|402:243|402:243|396:243|396:243|383:304,1,128,4|8,0:0|0:0,0:0:0:0:
227,353,28182,2,0,P|176:365|140:344,2,96,4|4|8,0:0|0:0|0:3,0:0:0:0:
269,281,29382,6,0,L|249:220,2,64,2|8|2,0:3|0:0|0:3,0:0:0:0:
352,285,30282,1,8,0:0:0:0:
435,286,30582,2,0,L|454:346,2,64,2|8|2,0:3|0:0|0:3,0:0:0:0:
436,119,31782,6,0,L|455:59,2,64,2|8|2,0:3|0:0|0:3,0:0:0:0:
353,129,32682,1,8,0:0:0:0:
270,138,32982,2,0,L|251:198,2,64,2|8|2,0:3|0:0|0:3,0:0:0:0:
151,21,34182,6,0,B|100:-7|61:37,2,96,2|0|8,0:3|0:0|0:0,0:0:0:0:
232,40,35382,2,0,L|360:61,1,128,2|8,0:3|0:0,0:0:0:0:
408,219,36582,6,0,P|416:279|373:326,1,128,4|2,0:0|0:3,0:0:0:0:
294,354,37482,1,10,0:0:0:0:
222,312,37782,2,0,P|169:282|105:297,1,128,4|2,0:0|0:3,0:0:0:0:
54,138,38982,6,0,B|84:122|116:138|116:138|147:154|179:138,1,128,2|0,0:3|0:0,0:0:0:0:
249,97,39882,1,10,0:0:0:0:
321,138,40182,2,0,B|351:153|382:138|382:138|413:122|444:138,1,128,2|0,0:3|0:0,0:0:0:0:
501,198,41082,1,10,0:0:0:0:
485,279,41382,6,0,P|485:329|512:366,2,96,2|2|10,0:3|0:3|0:0,0:0:0:0:
421,225,42582,2,0,B|358:214|358:214|299:238|299:238|235:225,1,192,0|8,0:0|1:2,0:0:0:0:
184,160,43782,6,0,B|169:128|184:97|184:97|200:65|184:34,1,128,2|0,0:3|0:0,0:0:0:0:
109,2,44682,1,10,0:0:0:0:
33,36,44982,2,0,B|18:68|33:99|33:99|49:131|33:162,1,128,2|0,0:3|0:0,0:0:0:0:
23,242,45882,1,10,0:0:0:0:
104,257,46182,6,0,B|100:312|45:322,2,96,4|2|8,0:0|0:3|0:0,0:0:0:0:
118,174,47382,2,0,B|181:151|181:151|240:174|240:174|298:151,1,192,8|8,0:0|0:0,0:0:0:0:
369,108,48582,6,0,P|426:83|478:117,1,128,4|2,0:0|0:3,0:0:0:0:
498,197,49482,1,8,0:0:0:0:
471,275,49782,2,0,P|413:299|361:265,1,128,2|2,0:3|0:3,0:0:0:0:
339,186,50682,1,8,0:0:0:0:
272,136,50982,6,0,P|214:124|160:161,1,128,2|2,0:3|0:3,0:0:0:0:
131,239,51882,1,8,0:0:0:0:
174,309,52182,2,0,P|115:320|61:283,1,128,2|2,0:3|0:3,0:0:0:0:
48,201,53082,2,0,L|45:134,1,64,12|2,0:0|0:3,0:0:0:0:
77,60,53682,5,8,1:2:0:0:
236,13,54282,1,10,0:0:0:0:
317,31,54582,2,0,P|372:39|414:18,2,96,2|0|12,0:3|0:0|0:0,0:0:0:0:
275,103,55782,6,0,L|212:94,2,64,2|8|2,0:3|0:0|0:3,0:0:0:0:
307,179,56682,1,8,0:0:0:0:
387,200,56982,2,0,L|450:191,2,64,2|8|2,0:3|0:0|0:3,0:0:0:0:
328,259,57882,1,8,0:0:0:0:
256,192,58182,12,4,60582,0:0:0:0:
387,49,61782,6,0,P|429:97|416:158,1,128,2|2,0:3|0:3,0:0:0:0:
383,231,62682,1,8,0:0:0:0:
403,311,62982,6,0,B|445:329|450:352|450:352|463:333|509:331,2,128,2|2|2,0:3|0:3|0:3,0:0:0:0:
322,289,64482,2,0,B|264:328,2,64,8|2|8,0:0|0:3|0:0,0:0:0:0:
382,230,65382,6,0,P|326:204|265:228,1,128,2|2,0:3|0:3,0:0:0:0:
196,270,66282,1,8,0:0:0:0:
135,213,66582,2,0,B|112:155|112:155|135:93,1,128,2|2,0:3|0:3,0:0:0:0:
195,36,67482,1,8,0:0:0:0:
266,79,67782,6,0,L|334:92,1,64,4|10,0:0|1:2,0:0:0:0:
297,168,68382,2,0,L|365:181,1,64,4|10,0:0|1:2,0:0:0:0:
433,218,68982,2,0,P|444:187|438:154,2,64,4|8|8,0:0|0:0|0:0,0:0:0:0:
376,279,69882,1,8,0:0:0:0:
303,319,70182,6,0,P|241:335|174:337,1,128,4|2,0:0|0:3,0:0:0:0:
96,355,71082,1,8,0:0:0:0:
39,294,71382,2,0,B|14:238|14:238|28:170,1,128,2|2,0:3|0:3,0:0:0:0:
64,98,72282,1,8,0:0:0:0:
138,60,72582,6,0,B|182:45|190:23|190:23|201:44|246:49,2,128,2|2|2,0:3|0:3|0:3,0:0:0:0:
103,223,74382,2,0,L|129:284,1,64,2|8,0:3|0:0,0:0:0:0:
190,337,74982,6,0,P|249:356|312:339,1,128,2|2,0:3|0:3,0:0:0:0:
394,337,75882,1,8,0:0:0:0:
447,273,76182,2,0,B|469:214|469:214|461:150,1,128,2|2,0:3|0:3,0:0:0:0:
477,67,77082,1,8,0:0:0:0:
397,41,77382,6,0,L|337:16,1,64,2|12,0:3|0:0,0:0:0:0:
294,87,77982,2,0,L|229:101,1,64,2|12,0:3|0:0,0:0:0:0:
148,87,78582,2,0,P|155:55|178:31,2,64,2|2|8,0:3|0:3|0:0,0:0:0:0:
140,170,79482,1,2,0:3:0:0:
166,249,79782,6,0,P|209:289|275:290,1,128,6|2,0:0|0:3,0:0:0:0:
333,230,80682,1,10,0:0:0:0:
387,167,80982,2,0,P|442:144|502:167,1,128,2|2,0:3|0:3,0:0:0:0:
510,250,81882,1,10,0:0:0:0:
510,333,82182,6,0,P|455:356|395:333,2,128,2|2|2,0:3|0:3|0:3,0:0:0:0:
502,167,83982,1,2,0:3:0:0:
387,46,84582,6,0,P|325:47|291:99,1,128,2|2,0:3|0:3,0:0:0:0:
247,169,85482,1,10,0:0:0:0:
200,99,85782,2,0,P|165:47|104:47,1,128,2|10,0:3|0:0,0:0:0:0:
43,103,86682,1,12,0:0:0:0:
58,184,86982,6,0,P|85:217|141:223,1,96,2|10,0:0|0:0,0:0:0:0:
247,169,87882,2,0,P|274:136|330:130,1,96,4|10,0:0|0:0,0:0:0:0:
423,205,88782,2,0,L|490:194,1,64,12|10,0:0|0:0,0:0:0:0:
510,115,89382,5,4,0:0:0:0:
