osu file format v14

[General]
AudioFilename: Choose me Darling (TV size).mp3
AudioLeadIn: 2000
PreviewTime: 59922
Countdown: 0
SampleSet: Normal
StackLeniency: 0.7
Mode: 0
LetterboxInBreaks: 0
WidescreenStoryboard: 0

[Editor]
DistanceSpacing: 1
BeatDivisor: 4
GridSize: 4
TimelineZoom: 1

[Metadata]
Title:Choose me Darling (TV ver.)
TitleUnicode:Choose me♡ダーリン (TV ver.)
Artist:StylipS
ArtistUnicode:StylipS
Creator:Peachtrees
Version:Normal
Source:この中に1人、妹がいる!
Tags:opening noto arisa ogura yui ishihara kaori matsunaga maho Kono Naka ni Hitori, Imouto ga Iru!
BeatmapID:757657
BeatmapSetID:342820

[Difficulty]
HPDrainRate:4
CircleSize:3.5
OverallDifficulty:4
ApproachRate:5
SliderMultiplier:1.2
SliderTickRate:1

[Events]
//Background and Video events
0,0,"klklkl.jpg",0,0
//Break Periods
//Storyboard Layer 0 (Background)
//Storyboard Layer 1 (Fail)
//Storyboard Layer 2 (Pass)
//Storyboard Layer 3 (Foreground)
//Storyboard Sound Samples

[TimingPoints]
822,400,4,1,0,40,1,0
7222,-100,4,1,0,47,0,0
10422,-100,4,1,0,60,0,0
12822,-100,4,1,0,50,0,0
13622,-100,4,1,0,60,0,0
20022,-100,4,2,0,33,0,0
26422,-100,4,2,0,40,0,0
29622,-100,4,1,0,57,0,0
32822,-100,4,1,0,47,0,0
37622,-100,4,1,0,54,0,0
39222,-100,4,1,0,50,0,0
45622,-100,4,2,0,37,0,0
50422,-100,4,1,0,40,0,0
52022,-100,4,1,0,50,0,0
56822,-100,4,1,0,57,0,0
60022,-100,4,1,0,54,0,1
85622,-100,4,1,0,60,0,0
88722,-100,4,1,0,5,0,0

[Colours]
Combo1 : 255,255,128
Combo2 : 192,192,192
Combo3 : 170,85,0
Combo4 : 128,128,128

[HitObjects]
182,97,822,6,0,L|252:90,1,60,4|0,0:0|0:0,0:0:0:0:
274,41,1222,2,0,L|404:53,1,120,8|2,0:0|2:0,0:0:0:0:
512,64,2022,2,0,P|514:122|480:171,1,120,8|2,0:0|2:0,0:0:0:0:
387,244,2822,2,0,L|317:237,1,60,8|0,0:0|0:0,0:0:0:0:
298,290,3222,2,0,B|245:298|245:298|164:282,1,120,2|8,2:0|0:0,0:0:0:0:
121,272,3822,1,0,0:0:0:0:
121,272,4022,6,0,P|79:221|81:155,1,120,2|8,2:0|0:0,0:0:0:0:
145,71,4822,2,0,L|275:81,1,120,2|8,2:0|0:0,0:0:0:0:
304,35,5422,1,0,0:0:0:0:
304,35,5622,2,0,L|426:60,1,120,2|8,2:0|0:0,0:0:0:0:
493,155,6422,2,0,P|490:198|471:225,1,60,2|0,2:0|0:0,0:0:0:0:
505,268,6822,2,0,P|480:303|450:317,1,60,8|0,0:0|0:0,0:0:0:0:
411,334,7222,5,4,0:0:0:0:
291,323,7622,1,8,0:0:0:0:
227,223,8022,2,0,L|93:231,1,120,2|8,2:0|0:0,0:0:0:0:
63,188,8622,1,0,0:0:0:0:
63,188,8822,2,0,P|133:179|168:147,1,120,2|8,2:0|0:0,0:0:0:0:
206,32,9622,2,0,L|340:40,1,120,2|8,2:0|0:0,0:0:0:0:
350,93,10222,1,0,0:0:0:0:
350,93,10422,6,0,L|452:85,1,90,12|0,0:0|0:0,0:0:0:0:
483,164,11022,2,0,P|452:187|437:252,1,90,12|0,0:0|0:0,0:0:0:0:
347,252,11622,2,0,P|352:298|384:338,1,90,8|4,0:0|0:0,0:0:0:0:
109,371,12822,2,0,L|47:364,2,60,8|8|2,3:0|3:0|3:0,0:0:0:0:
166,353,13422,1,0,0:0:0:0:
166,353,13622,6,0,P|187:306|172:231,1,120,4|8,0:0|0:0,0:0:0:0:
102,145,14422,2,0,P|91:86|109:42,2,90,2|2|2,2:0|2:0|2:0,0:0:0:0:
160,158,15222,2,0,B|208:145|208:145|281:156,1,120,2|8,2:0|0:0,0:0:0:0:
387,107,16022,2,0,L|304:58,2,90,2|2|2,2:0|2:0|2:0,0:0:0:0:
435,142,16822,6,0,P|441:188|405:252,1,120,2|8,2:0|0:0,0:0:0:0:
433,304,17422,1,0,0:0:0:0:
433,304,17622,2,0,P|404:340|334:360,1,120,2|8,2:0|0:0,0:0:0:0:
250,276,18422,2,0,B|203:290|203:290|124:276,1,120,2|8,2:0|0:0,0:0:0:0:
55,185,19222,1,2,2:0:0:0:
43,126,19422,1,0,0:0:0:0:
32,66,19622,2,0,P|86:43|144:55,1,120,8|4,0:0|1:0,0:0:0:0:
250,114,20422,6,0,L|320:108,1,60,8|0,1:0|0:0,0:0:0:0:
365,131,20822,2,0,P|349:161|362:238,2,90,2|0|2,0:0|0:0|0:0,0:0:0:0:
418,102,21622,1,2,0:0:0:0:
487,199,22022,2,0,P|483:238|464:269,1,60,8|0,1:0|0:0,0:0:0:0:
479,316,22422,2,0,B|431:330|431:330|358:318,1,120,2|8,0:0|1:0,0:0:0:0:
322,273,23022,1,0,0:0:0:0:
322,273,23222,6,0,L|198:283,1,120,2|8,0:0|1:0,0:0:0:0:
82,291,24022,2,0,P|44:239|45:183,1,120,2|8,0:0|1:0,0:0:0:0:
111,85,24822,1,2,0:0:0:0:
210,150,25222,1,8,1:0:0:0:
281,53,25622,2,0,L|352:68,1,60,2|2,0:0|0:0,0:0:0:0:
396,45,26022,2,0,L|460:73,1,60,8|0,1:0|1:0,0:0:0:0:
500,102,26422,6,0,P|501:164|453:221,1,120,2|8,0:0|1:0,0:0:0:0:
409,204,27022,1,0,0:0:0:0:
409,204,27222,2,0,L|426:330,1,120,2|8,0:0|1:0,0:0:0:0:
312,365,28022,2,0,P|262:361|206:322,1,120,2|8,0:0|1:0,0:0:0:0:
150,344,28622,1,0,0:0:0:0:
150,344,28822,2,0,P|117:305|105:238,1,120,2|8,0:0|1:0,0:0:0:0:
175,140,29622,6,0,B|223:154|223:154|307:147,1,120,2|2,0:0|0:0,0:0:0:0:
353,44,30422,2,0,B|305:30|305:30|221:37,1,120,2|2,0:0|0:0,0:0:0:0:
115,44,31222,2,0,P|87:64|69:91,1,60,2|0,0:0|0:0,0:0:0:0:
23,119,31622,2,0,P|17:152|23:184,1,60,8|0,0:0|0:0,0:0:0:0:
41,234,32022,2,0,B|90:242|90:242|173:227,1,120,2|8,2:0|0:0,0:0:0:0:
240,317,32822,5,4,0:0:0:0:
359,322,33222,2,0,P|386:298|399:264,1,60,8|0,0:0|0:0,0:0:0:0:
408,217,33622,2,0,P|428:242|484:262,2,90,2|2|2,2:0|2:0|2:0,0:0:0:0:
411,157,34422,1,2,2:0:0:0:
334,64,34822,2,0,L|264:68,1,60,8|0,0:0|0:0,0:0:0:0:
234,112,35222,2,0,P|259:147|256:208,2,90,2|2|2,2:0|2:0|2:0,0:0:0:0:
178,89,36022,5,2,2:0:0:0:
74,149,36422,2,0,P|69:188|74:212,1,60,8|0,0:0|0:0,0:0:0:0:
29,249,36822,2,0,P|57:311|120:338,1,120,2|8,2:0|0:0,0:0:0:0:
206,278,37622,2,0,L|298:287,1,90,2|2,0:0|0:0,0:0:0:0:
352,216,38222,2,0,L|441:209,1,90,2|2,0:0|0:0,0:0:0:0:
472,124,38822,2,0,L|405:119,1,60,2|0,0:0|0:0,0:0:0:0:
375,71,39222,5,4,0:0:0:0:
258,100,39622,2,0,L|191:115,1,60,8|0,0:0|0:0,0:0:0:0:
139,103,40022,2,0,P|169:64|171:14,2,90,2|0|2,2:0|0:0|2:0,0:0:0:0:
81,119,40822,1,2,2:0:0:0:
12,217,41222,2,0,P|17:251|39:280,1,60,8|0,0:0|0:0,0:0:0:0:
77,309,41622,2,0,B|128:318|128:318|221:301,1,120,2|8,2:0|0:0,0:0:0:0:
236,261,42222,1,0,0:0:0:0:
236,261,42422,6,0,P|286:291|358:286,1,120,4|8,0:0|0:0,0:0:0:0:
319,173,43222,2,0,P|378:173|429:143,1,120,2|8,2:0|0:0,0:0:0:0:
347,55,44022,2,0,B|296:64|296:64|203:47,1,120,2|8,2:0|0:0,0:0:0:0:
110,31,44822,2,0,P|100:59|102:92,1,60,2|2,2:0|2:0,0:0:0:0:
44,107,45222,2,0,P|47:136|62:165,1,60,8|0,0:0|0:0,0:0:0:0:
28,214,45622,6,0,P|62:271|121:294,1,120,4|8,0:0|1:0,0:0:0:0:
214,234,46422,2,0,P|242:285|295:312,1,120,2|8,0:0|1:0,0:0:0:0:
402,259,47222,2,0,P|408:306|436:342,2,90,2|2|2,0:0|0:0|0:0,0:0:0:0:
445,217,48022,2,0,L|430:80,1,120,2|8,0:0|1:0,0:0:0:0:
331,32,48822,6,0,L|317:151,1,120,2|8,0:0|1:0,0:0:0:0:
206,195,49622,1,2,0:0:0:0:
114,117,50022,1,8,1:0:0:0:
16,186,50422,2,0,L|24:246,1,60,2|0,2:0|0:0,0:0:0:0:
72,280,50822,2,0,P|55:316|56:373,2,90,8|2|2,0:0|2:0|2:0,0:0:0:0:
123,248,51622,1,8,0:0:0:0:
233,295,52022,6,0,L|298:288,1,60,4|0,0:0|0:0,0:0:0:0:
310,230,52422,1,8,0:0:0:0:
310,230,52622,2,0,L|433:240,1,120,2|2,2:0|2:0,0:0:0:0:
479,206,53222,1,8,0:0:0:0:
479,206,53422,2,0,P|493:149|469:85,1,120,2|2,2:0|2:0,0:0:0:0:
432,49,54022,1,8,0:0:0:0:
432,49,54222,2,0,B|378:63|378:63|309:54,1,120,2|2,2:0|2:0,0:0:0:0:
254,50,54822,1,8,0:0:0:0:
135,33,55222,6,0,P|138:92|172:139,1,120,4|8,1:0|0:0,0:0:0:0:
66,195,56022,2,0,P|105:241|167:260,1,120,2|8,2:0|0:0,0:0:0:0:
200,304,56622,1,0,0:0:0:0:
200,304,56822,2,0,L|319:294,1,120,4|8,0:0|0:0,0:0:0:0:
438,314,57622,1,2,2:0:0:0:
402,199,58022,1,8,0:0:0:0:
493,118,58422,2,0,B|466:74|388:49|323:84|292:138|292:138|254:107|203:107|180:126,1,360,4|8,0:0|0:0,0:0:0:0:
48,84,60022,6,0,P|3:136|0:198,1,120,4|8,0:0|0:0,0:0:0:0:
46,220,60622,2,0,P|55:278|96:321,1,120,2|2,2:0|2:0,0:0:0:0:
155,330,61222,1,8,0:0:0:0:
254,263,61622,2,0,L|378:284,1,120,2|8,2:0|0:0,0:0:0:0:
431,292,62222,1,0,0:0:0:0:
431,292,62422,2,0,P|459:243|453:174,1,120,2|8,2:0|0:0,0:0:0:0:
395,77,63222,6,0,L|271:98,1,120,2|8,2:0|0:0,0:0:0:0:
237,51,63822,2,0,P|179:71|114:59,1,120,2|2,2:0|2:0,0:0:0:0:
68,35,64422,1,8,0:0:0:0:
10,140,64822,2,0,B|13:192|13:192|55:262,1,120,2|8,2:0|0:0,0:0:0:0:
169,249,65622,2,0,L|220:299,1,60,2|2,2:0|2:0,0:0:0:0:
264,260,66022,2,0,L|332:297,1,60,8|0,0:0|0:0,0:0:0:0:
370,314,66422,6,0,P|414:309|464:244,1,120,2|8,2:0|0:0,0:0:0:0:
482,136,67222,1,2,2:0:0:0:
411,38,67622,1,8,0:0:0:0:
295,71,68022,2,0,B|245:80|245:80|173:66,1,120,2|8,2:0|0:0,0:0:0:0:
100,159,68822,2,0,P|136:205|193:220,1,120,2|8,2:0|0:0,0:0:0:0:
242,184,69422,1,0,0:0:0:0:
242,184,69622,6,0,P|284:225|342:232,1,120,2|8,2:0|0:0,0:0:0:0:
459,200,70422,1,2,2:0:0:0:
452,319,70822,1,8,0:0:0:0:
336,352,71222,2,0,P|299:353|262:338,1,60,4|0,0:0|0:0,0:0:0:0:
240,300,71622,1,8,0:0:0:0:
240,300,71822,2,0,L|120:312,1,120,2|0,2:0|0:0,0:0:0:0:
61,321,72422,1,8,0:0:0:0:
4,217,72822,6,0,P|42:173|103:159,1,120,4|8,0:0|0:0,0:0:0:0:
142,116,73422,2,0,L|261:129,1,120,2|2,2:0|2:0,0:0:0:0:
321,136,74022,1,8,0:0:0:0:
432,91,74422,2,0,P|441:128|412:214,1,120,2|8,2:0|0:0,0:0:0:0:
454,254,75022,1,0,0:0:0:0:
454,254,75222,2,0,P|436:291|354:323,1,120,2|8,2:0|0:0,0:0:0:0:
263,263,76022,6,0,L|136:274,1,120,2|8,2:0|0:0,0:0:0:0:
139,213,76622,2,0,P|73:223|25:203,1,120,2|2,2:0|2:0,0:0:0:0:
0,148,77222,1,8,0:0:0:0:
12,28,77622,2,0,P|67:7|125:18,1,120,2|8,2:0|0:0,0:0:0:0:
166,62,78222,2,0,P|221:40|279:52,1,120,2|2,2:0|2:0,0:0:0:0:
319,95,78822,1,8,0:0:0:0:
436,108,79222,5,4,0:0:0:0:
455,226,79622,2,0,B|411:249|411:249|325:234,1,120,8|2,0:0|2:0,0:0:0:0:
307,286,80222,2,0,L|236:280,1,60,0|8,0:0|0:0,0:0:0:0:
161,364,80822,2,0,L|220:358,2,60,2|0|8,2:0|0:0|0:0,0:0:0:0:
46,328,81622,2,0,P|40:263|74:208,1,120,2|8,2:0|0:0,0:0:0:0:
29,168,82222,6,0,P|70:117|133:102,1,120,2|2,2:0|2:0,0:0:0:0:
174,114,82822,1,8,0:0:0:0:
262,33,83222,2,0,L|388:41,1,120,2|8,2:0|0:0,0:0:0:0:
441,47,83822,1,0,0:0:0:0:
441,47,84022,2,0,P|461:78|459:161,1,120,2|8,2:0|0:0,0:0:0:0:
402,177,84622,2,0,P|409:235|382:288,1,120,2|0,2:0|0:0,0:0:0:0:
326,309,85222,1,8,0:0:0:0:
209,280,85622,6,0,P|205:312|212:344,2,60,4|2|8,0:0|2:0|0:0,0:0:0:0:
230,223,86222,1,0,0:0:0:0:
73,133,86822,2,0,P|47:152|29:180,2,60,8|2|8,0:0|2:0|0:0,0:0:0:0:
128,111,87422,1,0,0:0:0:0:
289,31,88022,2,0,L|375:44,1,60,8|2,0:0|2:0,0:0:0:0:
388,84,88422,1,8,0:0:0:0:
447,80,88622,1,4,0:0:0:0:
