osu file format v14

[General]
AudioFilename: Choose me Darling (TV size).mp3
AudioLeadIn: 2000
PreviewTime: 59922
Countdown: 0
SampleSet: Normal
StackLeniency: 0.7
Mode: 0
LetterboxInBreaks: 0
WidescreenStoryboard: 0

[Editor]
DistanceSpacing: 1.3
BeatDivisor: 4
GridSize: 4
TimelineZoom: 1.7

[Metadata]
Title:Choose me Darling (TV ver.)
TitleUnicode:Choose me♡ダーリン (TV ver.)
Artist:StylipS
ArtistUnicode:StylipS
Creator:Peachtrees
Version:Insane
Source:この中に1人、妹がいる!
Tags:opening noto arisa ogura yui ishihara kaori matsunaga maho Kono Naka ni Hitori, Imouto ga Iru!
BeatmapID:757656
BeatmapSetID:342820

[Difficulty]
HPDrainRate:6
CircleSize:4
OverallDifficulty:7
ApproachRate:8.5
SliderMultiplier:1.8
SliderTickRate:2

[Events]
//Background and Video events
0,0,"klklkl.jpg",0,0
//Break Periods
//Storyboard Layer 0 (Background)
//Storyboard Layer 1 (Fail)
//Storyboard Layer 2 (Pass)
//Storyboard Layer 3 (Foreground)
//Storyboard Sound Samples

[TimingPoints]
822,400,4,1,0,40,1,0
7222,-100,4,1,0,47,0,0
10422,-100,4,1,0,60,0,0
12822,-100,4,1,0,50,0,0
13622,-100,4,1,0,60,0,0
20022,-100,4,2,0,33,0,0
26422,-100,4,2,0,43,0,0
29622,-100,4,1,0,57,0,0
32822,-100,4,1,0,47,0,0
37622,-100,4,1,0,54,0,0
39222,-100,4,1,0,50,0,0
45622,-133.333333333333,4,2,0,37,0,0
50422,-100,4,1,0,40,0,0
52022,-100,4,1,0,50,0,0
56822,-100,4,1,0,57,0,0
60022,-100,4,1,0,54,0,1
85622,-100,4,1,0,60,0,0

[Colours]
Combo1 : 255,255,128
Combo2 : 192,192,192
Combo3 : 170,85,0
Combo4 : 128,128,128

[HitObjects]
341,115,822,6,0,P|331:52|307:27,1,90,4|0,0:0|0:0,0:0:0:0:
196,33,1222,2,0,P|171:70|170:114,1,90,8|0,0:0|0:0,0:0:0:0:
131,145,1522,2,0,P|165:201|229:222,1,135,2|0,2:0|0:0,0:0:0:0:
341,115,2022,1,8,0:0:0:0:
434,213,2222,1,0,0:0:0:0:
434,213,2322,6,0,B|441:269|441:269|408:354,1,135,2|0,2:0|0:0,0:0:0:0:
291,368,2822,2,0,P|266:325|264:280,1,90,8|0,0:0|0:0,0:0:0:0:
295,247,3122,2,0,P|255:278|174:269,1,135,2|0,2:0|0:0,0:0:0:0:
131,145,3622,1,8,0:0:0:0:
60,246,3822,1,0,0:0:0:0:
74,85,4022,6,0,P|112:63|156:65,1,90,2|0,2:0|0:0,0:0:0:0:
189,207,4422,2,0,P|150:228|106:226,1,90,8|0,0:0|0:0,0:0:0:0:
60,246,4722,2,0,B|52:302|52:302|86:387,1,135,2|0,2:0|0:0,0:0:0:0:
190,312,5222,1,8,0:0:0:0:
298,374,5422,1,0,0:0:0:0:
298,374,5522,6,0,P|357:362|398:304,1,135,2|0,2:0|0:0,0:0:0:0:
278,198,6022,2,0,L|167:209,1,90,8|0,0:0|0:0,0:0:0:0:
173,164,6322,2,0,P|116:178|48:149,1,135,2|0,2:0|0:0,0:0:0:0:
126,36,6822,1,8,0:0:0:0:
170,41,6922,1,0,0:0:0:0:
214,45,7022,1,2,2:0:0:0:
258,48,7122,1,0,0:0:0:0:
289,80,7222,6,0,P|341:81|379:60,1,90,4|0,0:0|0:0,0:0:0:0:
395,184,7622,2,0,P|349:220|299:218,1,90,8|0,0:0|0:0,0:0:0:0:
278,198,7922,2,0,B|272:256|272:256|292:330,1,135,2|0,2:0|0:0,0:0:0:0:
422,307,8422,2,0,P|434:267|429:220,1,90,8|0,0:0|0:0,0:0:0:0:
395,184,8722,6,0,P|375:137|398:55,1,135,2|0,2:0|0:0,0:0:0:0:
304,0,9222,2,0,P|306:57|281:89,1,90,8|0,0:0|0:0,0:0:0:0:
243,83,9522,2,0,P|197:103|106:77,1,135,2|0,2:0|0:0,0:0:0:0:
21,14,10022,1,8,0:0:0:0:
51,165,10222,1,0,0:0:0:0:
179,22,10422,5,12,0:0:0:0:
128,273,10722,1,0,0:0:0:0:
324,51,11022,1,12,0:0:0:0:
278,304,11322,1,0,0:0:0:0:
118,95,11622,1,8,0:0:0:0:
131,358,11922,1,4,0:0:0:0:
324,51,12822,5,8,3:0:0:0:
324,51,12922,1,8,3:0:0:0:
369,159,13122,1,8,3:0:0:0:
369,159,13222,1,2,0:3:0:0:
440,64,13422,1,0,0:0:0:0:
426,233,13622,6,0,P|356:251|277:177,1,180,4|8,0:0|0:0,0:0:0:0:
324,51,14222,1,0,0:0:0:0:
214,121,14422,2,0,P|171:121|128:98,1,90,2|0,2:0|0:0,0:0:0:0:
96,63,14722,2,0,L|53:78,1,45,2|8,2:0|0:0,0:0:0:0:
15,212,15022,1,2,2:0:0:0:
24,260,15122,1,0,0:0:0:0:
39,306,15222,6,0,B|142:312,1,90,2|0,2:0|0:0,0:0:0:0:
256,199,15622,2,0,B|153:205,1,90,8|0,0:0|0:0,0:0:0:0:
210,350,16022,2,0,P|253:350|297:324,1,90,2|0,2:0|0:0,0:0:0:0:
318,286,16322,2,0,L|362:288,1,45,2|8,2:0|0:0,0:0:0:0:
400,114,16622,1,2,2:0:0:0:
380,159,16722,1,0,0:0:0:0:
342,192,16822,6,0,P|300:206|256:199,1,90,2|0,2:0|0:0,0:0:0:0:
223,236,17122,2,0,P|155:226|103:166,1,135,2|0,2:0|0:0,0:0:0:0:
142,22,17622,1,2,2:0:0:0:
203,131,17822,1,0,0:0:0:0:
48,123,18022,2,0,P|28:162|28:207,1,90,8|0,0:0|0:0,0:0:0:0:
86,330,18422,5,2,2:0:0:0:
130,326,18522,1,0,0:0:0:0:
175,323,18622,1,2,3:0:0:0:
220,319,18722,1,0,0:0:0:0:
263,345,18822,5,2,2:0:0:0:
311,341,18922,1,0,0:0:0:0:
355,337,19022,1,2,3:0:0:0:
400,334,19122,1,0,0:0:0:0:
437,301,19222,5,2,2:0:0:0:
457,138,19422,1,0,0:0:0:0:
345,203,19622,1,2,2:0:0:0:
300,210,19722,1,0,0:0:0:0:
257,198,19822,1,2,3:0:0:0:
223,170,19922,1,0,0:0:0:0:
202,130,20022,5,4,1:0:0:0:
235,37,20222,1,0,0:0:0:0:
129,95,20422,2,0,P|121:138|141:183,1,90,8|0,1:0|0:0,0:0:0:0:
46,222,20822,2,0,P|27:256|24:306,1,90,2|0,0:0|0:0,0:0:0:0:
48,349,21122,2,0,L|103:347,1,45,0|8,0:0|1:0,0:0:0:0:
162,263,21422,1,2,0:0:0:0:
213,374,21622,5,2,0:0:0:0:
300,306,21822,2,0,P|337:336|388:342,2,90,0|8|0,0:0|1:0|0:0,0:0:0:0:
381,236,22422,2,0,P|428:232|469:202,1,90,2|0,0:0|0:0,0:0:0:0:
484,164,22722,2,0,L|477:116,1,45,0|8,0:0|1:0,0:0:0:0:
399,27,23022,1,2,0:0:0:0:
306,124,23222,6,0,P|226:136|134:89,1,180,2|8,0:0|1:0,0:0:0:0:
44,278,24022,2,0,P|132:288|210:248,1,180,2|8,2:0|1:0,0:0:0:0:
309,30,24822,6,0,P|265:38|230:66,1,90,2|0,0:0|0:0,0:0:0:0:
298,216,25222,2,0,P|342:208|377:180,1,90,8|0,1:0|0:0,0:0:0:0:
394,57,25622,1,2,0:0:0:0:
461,188,25822,1,2,0:0:0:0:
306,124,26022,1,8,1:0:0:0:
479,84,26222,1,0,1:0:0:0:
443,291,26422,6,0,P|409:309|341:300,1,90,2|0,0:0|0:0,0:0:0:0:
298,216,26822,2,0,L|187:216,1,90,8|0,1:0|0:0,0:0:0:0:
123,289,27222,1,2,0:0:0:0:
40,187,27422,1,0,0:0:0:0:
60,339,27622,2,0,P|95:365|160:362,1,90,8|0,1:0|0:0,0:0:0:0:
189,239,28022,5,2,0:0:0:0:
266,362,28222,1,0,0:0:0:0:
382,234,28422,2,0,P|342:214|298:216,1,90,8|0,1:0|0:0,0:0:0:0:
448,336,28822,1,2,0:0:0:0:
484,174,29022,1,0,0:0:0:0:
325,298,29222,1,8,1:0:0:0:
466,255,29422,1,0,0:0:0:0:
266,362,29622,6,0,B|215:340|215:340|113:352,1,135,2|0,0:0|0:0,0:0:0:0:
60,339,30022,2,0,P|43:293|64:208,1,135,2|0,0:0|0:0,0:0:0:0:
16,149,30422,2,0,P|34:103|108:55,1,135,2|0,0:0|0:0,0:0:0:0:
179,35,30822,2,0,L|327:66,1,135,2|0,0:0|0:0,0:0:0:0:
360,123,31222,6,0,P|409:126|447:106,2,90,2|0|8,0:0|0:0|0:0,0:0:0:0:
268,165,31822,1,0,0:0:0:0:
268,165,31922,2,0,P|307:209|389:223,1,135,2|2,2:0|2:0,0:0:0:0:
493,188,32422,1,8,0:0:0:0:
424,345,32622,1,2,2:0:0:0:
424,345,32722,1,0,0:0:0:0:
424,345,32822,6,0,L|324:354,1,90,4|0,0:0|0:0,0:0:0:0:
194,253,33222,2,0,L|283:261,1,90,8|0,0:0|0:0,0:0:0:0:
144,333,33622,2,0,P|111:299|121:193,1,135,2|2,2:0|2:0,0:0:0:0:
136,174,34022,1,8,0:0:0:0:
241,130,34222,1,0,0:0:0:0:
281,255,34422,6,0,P|237:262|193:253,1,90,2|0,2:0|0:0,0:0:0:0:
143,77,34822,1,8,0:0:0:0:
136,174,35022,1,0,0:0:0:0:
212,11,35222,2,0,P|273:14|342:69,1,135,2|2,2:0|2:0,0:0:0:0:
352,100,35622,2,0,L|442:93,1,90,8|0,0:0|0:0,0:0:0:0:
512,252,36022,5,2,2:0:0:0:
473,174,36222,1,0,0:0:0:0:
369,272,36422,1,8,0:0:0:0:
270,172,36622,1,2,2:0:0:0:
270,172,36722,1,0,0:0:0:0:
270,172,36822,2,0,L|121:174,1,135,2|0,2:0|0:0,0:0:0:0:
85,173,37222,1,8,0:0:0:0:
6,254,37422,1,2,2:0:0:0:
6,254,37522,1,0,0:0:0:0:
6,254,37622,6,0,P|49:283|87:285,1,90,2|0,0:0|0:0,0:0:0:0:
126,351,37922,2,0,P|177:355|212:339,1,90,2|0,0:0|0:0,0:0:0:0:
280,377,38222,2,0,P|328:359|353:330,1,90,2|0,0:0|0:0,0:0:0:0:
430,343,38522,2,0,P|459:300|463:262,1,90,2|0,0:0|0:0,0:0:0:0:
451,215,38822,1,2,0:0:0:0:
389,106,39022,1,0,0:0:0:0:
270,172,39222,6,0,P|212:165|183:144,1,90,4|0,0:0|0:0,0:0:0:0:
168,17,39622,1,8,0:0:0:0:
251,91,39822,1,0,0:0:0:0:
98,98,40022,2,0,P|86:140|131:235,1,135,2|0,2:0|0:0,0:0:0:0:
162,242,40422,2,0,L|149:343,1,90,8|0,0:0|0:0,0:0:0:0:
280,377,40822,5,2,2:0:0:0:
319,295,41022,2,0,P|275:285|233:299,2,90,0|8|0,0:0|0:0|0:0,0:0:0:0:
402,263,41622,2,0,P|362:220|268:206,1,135,2|0,2:0|0:0,0:0:0:0:
240,209,42022,1,8,0:0:0:0:
150,331,42222,1,0,0:0:0:0:
44,225,42422,6,0,B|24:158|24:158|51:48,1,180,4|8,0:0|0:0,0:0:0:0:
153,114,43022,1,0,0:0:0:0:
153,114,43222,2,0,P|213:113|240:99,1,90,2|0,2:0|0:0,0:0:0:0:
325,223,43622,2,0,P|280:225|239:208,1,90,8|0,0:0|0:0,0:0:0:0:
378,151,44022,6,0,P|412:214|338:314,1,180,2|8,2:0|0:0,0:0:0:0:
210,320,44622,1,0,0:0:0:0:
325,223,44822,1,2,2:0:0:0:
288,312,45022,1,2,2:0:0:0:
291,145,45222,1,8,0:0:0:0:
132,331,45422,1,2,2:0:0:0:
132,331,45522,1,0,0:0:0:0:
132,331,45622,6,0,B|69:341|69:341|-2:321,1,135.000005149842,4|8,0:0|1:0,0:0:0:0:
5,194,46222,1,0,0:0:0:0:
5,194,46422,2,0,P|37:237|116:247,1,135.000005149842,2|8,0:0|1:0,0:0:0:0:
153,120,47222,6,0,P|124:94|51:88,2,101.250003862381,2|2|2,0:0|0:0|0:0,0:0:0:0:
196,189,48022,2,0,B|251:197|251:197|335:180,1,135.000005149842,2|8,0:0|1:0,0:0:0:0:
306,64,48822,6,0,P|362:98|429:98,1,135.000005149842,2|8,0:0|1:0,0:0:0:0:
495,173,49422,1,0,0:0:0:0:
495,173,49622,2,0,B|497:231|497:231|466:315,1,135.000005149842,2|8,2:0|0:0,0:0:0:0:
280,288,50422,5,2,2:0:0:0:
328,181,50622,1,0,0:0:0:0:
312,359,50822,2,0,P|280:365|224:341,1,90,8|0,0:0|0:0,0:0:0:0:
179,352,51122,2,0,P|159:298|188:209,1,135,2|0,2:0|0:0,0:0:0:0:
141,129,51622,2,0,P|101:156|76:200,1,90,8|2,0:0|2:0,0:0:0:0:
76,240,51922,1,0,0:0:0:0:
76,240,52022,5,4,0:0:0:0:
55,86,52222,2,0,P|90:60|134:51,1,90,0|8,0:0|0:0,0:0:0:0:
223,8,52622,2,0,P|289:20|377:102,1,180,2|2,2:0|2:0,0:0:0:0:
328,181,53222,1,8,0:0:0:0:
463,103,53422,6,0,P|481:165|453:280,1,180,2|2,2:0|2:0,0:0:0:0:
328,181,54022,1,8,0:0:0:0:
276,329,54222,2,0,B|208:340|208:340|80:305,1,180,2|2,2:0|2:0,0:0:0:0:
33,179,54822,2,0,P|73:215|124:221,1,90,8|2,0:0|2:0,0:0:0:0:
137,182,55122,1,0,0:0:0:0:
137,182,55222,6,0,P|188:197|237:181,1,90,4|0,1:0|0:0,0:0:0:0:
283,60,55622,2,0,P|231:44|182:60,1,90,8|0,0:0|0:0,0:0:0:0:
327,180,56022,1,2,2:0:0:0:
364,58,56222,1,0,0:0:0:0:
235,124,56422,1,8,0:0:0:0:
446,59,56622,1,0,0:0:0:0:
424,241,56822,6,0,P|387:283|298:289,1,135,4|0,0:0|0:0,0:0:0:0:
284,335,57222,2,0,L|194:325,1,90,8|0,0:0|0:0,0:0:0:0:
55,236,57622,2,0,P|142:241|183:210,1,135,2|0,2:0|0:0,0:0:0:0:
228,210,58022,2,0,P|242:157|230:113,1,90,8|0,0:0|0:0,0:0:0:0:
256,192,58422,12,0,59622,0:0:0:0:
209,168,60022,5,4,0:0:0:0:
287,78,60222,1,0,0:0:0:0:
301,220,60422,1,8,0:0:0:0:
172,90,60622,2,0,P|136:125|175:246,1,180,2|0,2:0|0:0,0:0:0:0:
301,220,61222,1,8,0:0:0:0:
209,168,61422,1,0,0:0:0:0:
184,322,61622,6,0,B|252:348|252:348|362:329,1,180,2|8,2:0|0:0,0:0:0:0:
402,167,62222,1,0,0:0:0:0:
491,325,62422,1,2,2:0:0:0:
301,220,62622,1,2,2:0:0:0:
480,124,62822,1,8,0:0:0:0:
397,271,63022,1,0,0:0:0:0:
209,168,63222,6,0,P|237:133|278:117,1,90,2|0,2:0|0:0,0:0:0:0:
300,325,63622,1,8,0:0:0:0:
300,325,63822,2,0,B|236:340|236:340|121:310,1,180,2|0,2:0|0:0,0:0:0:0:
46,153,64422,1,8,0:0:0:0:
43,287,64622,1,0,0:0:0:0:
121,111,64822,6,0,P|164:73|294:108,1,180,2|8,2:0|0:0,0:0:0:0:
376,196,65422,1,0,0:0:0:0:
424,28,65622,1,2,2:0:0:0:
277,89,65822,1,0,0:0:0:0:
301,220,66022,1,8,0:0:0:0:
350,57,66222,1,0,0:0:0:0:
228,246,66422,6,0,P|245:275|302:299,1,90,2|0,2:0|0:0,0:0:0:0:
376,196,66822,2,0,P|359:167|302:143,1,90,8|0,0:0|0:0,0:0:0:0:
154,270,67222,1,2,2:0:0:0:
117,109,67422,1,2,2:0:0:0:
117,109,67522,1,0,0:0:0:0:
117,109,67622,1,8,0:0:0:0:
78,297,67822,1,0,0:0:0:0:
228,246,68022,6,0,P|249:207|247:162,1,90,2|0,2:0|0:0,0:0:0:0:
58,213,68422,2,0,P|56:258|78:297,1,90,8|0,0:0|0:0,0:0:0:0:
203,362,68822,1,2,2:0:0:0:
139,194,69022,1,2,2:0:0:0:
139,194,69122,1,0,0:0:0:0:
139,194,69222,1,8,0:0:0:0:
100,376,69422,1,0,0:0:0:0:
228,246,69622,6,0,L|324:256,1,90,2|0,2:0|0:0,0:0:0:0:
405,140,70022,2,0,P|354:140|312:165,1,90,8|0,0:0|0:0,0:0:0:0:
307,350,70422,1,2,2:0:0:0:
351,360,70522,1,0,0:0:0:0:
395,352,70622,1,2,3:0:0:0:
433,329,70722,1,0,0:0:0:0:
459,292,70822,1,2,2:0:0:0:
469,249,70922,1,0,0:0:0:0:
463,205,71022,1,2,3:0:0:0:
439,166,71122,1,0,0:0:0:0:
404,139,71222,5,4,0:0:0:0:
279,173,71422,2,0,P|223:165|192:139,1,90,0|8,0:0|0:0,0:0:0:0:
267,75,71822,2,0,B|273:136|273:136|226:248,1,180,2|0,2:0|0:0,0:0:0:0:
22,228,72422,1,2,2:0:0:0:
44,189,72522,1,0,0:0:0:0:
82,165,72622,1,2,3:0:0:0:
126,162,72722,1,0,0:0:0:0:
165,183,72822,6,0,P|145:237|104:266,1,90,4|0,0:0|0:0,0:0:0:0:
22,100,73222,1,8,0:0:0:0:
22,100,73422,2,0,B|96:77|96:77|203:100,1,180,2|0,2:0|0:0,0:0:0:0:
186,265,74022,2,0,P|142:266|105:240,1,90,8|0,0:0|0:0,0:0:0:0:
196,98,74422,5,2,2:0:0:0:
165,183,74622,1,0,0:0:0:0:
276,54,74822,1,8,0:0:0:0:
264,237,75022,1,0,0:0:0:0:
359,18,75222,2,0,P|409:39|432:74,1,90,2|2,2:0|2:0,0:0:0:0:
342,212,75622,1,8,0:0:0:0:
276,54,75822,1,0,0:0:0:0:
264,237,76022,6,0,P|285:276|323:297,1,90,2|0,2:0|0:0,0:0:0:0:
420,187,76422,1,8,0:0:0:0:
395,352,76622,2,0,B|329:376|329:376|201:355,1,180,2|0,2:0|0:0,0:0:0:0:
101,289,77222,2,0,L|188:264,1,90,8|0,0:0|0:0,0:0:0:0:
342,212,77622,5,2,2:0:0:0:
276,54,77822,1,0,0:0:0:0:
232,158,78022,1,8,0:0:0:0:
361,47,78222,2,0,P|429:101|420:187,1,180,2|0,2:0|0:0,0:0:0:0:
157,231,78822,1,2,2:0:0:0:
137,191,78922,1,0,0:0:0:0:
134,147,79022,1,2,3:0:0:0:
149,105,79122,1,0,0:0:0:0:
181,72,79222,5,4,0:0:0:0:
232,158,79422,1,0,0:0:0:0:
276,54,79622,1,8,0:0:0:0:
340,209,79822,1,0,0:0:0:0:
134,147,80022,1,2,2:0:0:0:
309,132,80222,1,0,0:0:0:0:
157,231,80422,1,8,0:0:0:0:
276,54,80622,1,0,0:0:0:0:
372,288,80822,6,0,L|406:375,2,90,2|0|8,2:0|0:0|0:0,0:0:0:0:
309,132,81422,1,0,0:0:0:0:
249,220,81622,1,2,2:0:0:0:
371,48,81822,1,0,0:0:0:0:
340,210,82022,1,8,0:0:0:0:
180,58,82222,6,0,P|89:74|37:148,1,180,2|0,2:0|0:0,0:0:0:0:
105,283,82822,2,0,P|141:301|200:294,1,90,8|0,0:0|0:0,0:0:0:0:
211,139,83222,1,2,2:0:0:0:
284,300,83422,1,0,0:0:0:0:
309,132,83622,1,8,0:0:0:0:
249,220,83822,1,0,0:0:0:0:
179,58,84022,6,0,P|141:80|123:120,2,90,2|0|8,2:0|0:0|0:0,0:0:0:0:
148,200,84622,2,0,P|65:180|44:97,1,180,2|0,2:0|0:0,0:0:0:0:
309,132,85222,1,8,0:0:0:0:
284,300,85422,1,0,0:0:0:0:
260,66,85622,5,12,0:0:0:0:
404,276,85822,1,2,2:0:0:0:
211,139,86022,1,8,0:0:0:0:
452,118,86222,1,0,0:0:0:0:
377,354,86822,5,8,0:0:0:0:
426,197,87022,1,2,2:0:0:0:
167,326,87222,1,8,0:0:0:0:
356,94,87422,1,0,0:0:0:0:
377,354,88022,5,8,0:0:0:0:
260,66,88222,1,2,2:0:0:0:
162,211,88422,1,8,0:0:0:0:
452,118,88622,1,4,0:0:0:0:
