osu file format v14

[General]
AudioFilename: Choose me Darling (TV size).mp3
AudioLeadIn: 2000
PreviewTime: 59922
Countdown: 0
SampleSet: Normal
StackLeniency: 0.7
Mode: 0
LetterboxInBreaks: 0
WidescreenStoryboard: 0

[Editor]
DistanceSpacing: 1.1
BeatDivisor: 4
GridSize: 4
TimelineZoom: 1.6

[Metadata]
Title:Choose me Darling (TV ver.)
TitleUnicode:Choose me♡ダーリン (TV ver.)
Artist:StylipS
ArtistUnicode:StylipS
Creator:Peachtrees
Version:Hard
Source: この中に1人、妹がいる!
Tags:opening noto arisa ogura yui ishihara kaori matsunaga maho Kono Naka ni Hitori, Imouto ga Iru!
BeatmapID:757655
BeatmapSetID:342820

[Difficulty]
HPDrainRate:5
CircleSize:4
OverallDifficulty:6
ApproachRate:7
SliderMultiplier:1.6
SliderTickRate:2

[Events]
//Background and Video events
0,0,"klklkl.jpg",0,0
//Break Periods
//Storyboard Layer 0 (Background)
//Storyboard Layer 1 (Fail)
//Storyboard Layer 2 (Pass)
//Storyboard Layer 3 (Foreground)
//Storyboard Sound Samples

[TimingPoints]
822,400,4,1,0,40,1,0
7222,-100,4,1,0,47,0,0
10422,-100,4,1,0,60,0,0
12822,-100,4,1,0,50,0,0
13622,-100,4,1,0,60,0,0
20022,-100,4,2,0,33,0,0
26422,-100,4,2,0,43,0,0
29622,-100,4,1,0,57,0,0
32822,-100,4,1,0,47,0,0
37622,-100,4,1,0,54,0,0
39222,-100,4,1,0,50,0,0
45622,-125,4,2,0,37,0,0
50422,-100,4,1,0,40,0,0
52022,-100,4,1,0,50,0,0
56822,-100,4,1,0,57,0,0
60022,-100,4,1,0,54,0,1
85622,-100,4,1,0,60,0,0

[Colours]
Combo1 : 255,255,128
Combo2 : 192,192,192
Combo3 : 170,85,0
Combo4 : 128,128,128

[HitObjects]
43,190,822,6,0,P|82:196|122:190,1,80,4|0,0:0|0:0,0:0:0:0:
179,123,1222,2,0,L|259:130,1,80,8|0,0:0|0:0,0:0:0:0:
276,170,1522,2,0,L|402:158,1,120,2|0,2:0|0:0,0:0:0:0:
471,114,2022,1,8,0:0:0:0:
469,201,2222,1,0,0:0:0:0:
469,201,2322,6,0,P|448:266|385:298,1,120,2|0,2:0|0:0,0:0:0:0:
339,349,2822,2,0,P|288:338|261:312,1,80,8|0,0:0|0:0,0:0:0:0:
224,327,3122,2,0,P|197:269|206:200,1,120,2|0,2:0|0:0,0:0:0:0:
276,170,3622,1,8,0:0:0:0:
298,84,3822,1,0,0:0:0:0:
236,20,4022,6,0,L|150:27,1,80,2|0,2:0|0:0,0:0:0:0:
95,90,4422,2,0,P|54:95|20:121,1,80,8|0,0:0|0:0,0:0:0:0:
15,160,4722,2,0,P|62:195|129:189,1,120,2|0,2:0|0:0,0:0:0:0:
190,138,5222,1,8,0:0:0:0:
276,170,5422,1,0,0:0:0:0:
276,170,5522,6,0,B|287:216|287:216|269:300,1,120,2|0,2:0|0:0,0:0:0:0:
322,359,6022,2,0,P|369:358|412:333,1,80,8|0,0:0|0:0,0:0:0:0:
441,353,6322,2,0,P|466:300|446:222,1,120,2|0,2:0|0:0,0:0:0:0:
399,174,6822,2,0,L|418:137,3,40,8|0|2|0,0:0|0:0|2:0|0:0,0:0:0:0:
375,123,7222,6,0,L|385:43,1,80,4|0,0:0|0:0,0:0:0:0:
306,2,7622,2,0,L|271:91,1,80,8|0,0:0|0:0,0:0:0:0:
233,70,7922,2,0,P|193:108|110:102,1,120,2|0,2:0|0:0,0:0:0:0:
50,149,8422,2,0,P|84:188|115:199,1,80,8|0,0:0|0:0,0:0:0:0:
130,236,8722,6,0,L|258:222,1,120,2|0,2:0|0:0,0:0:0:0:
336,235,9222,1,8,0:0:0:0:
399,174,9422,1,0,0:0:0:0:
399,174,9522,2,0,P|423:224|396:298,1,120,2|0,2:0|0:0,0:0:0:0:
335,334,10022,2,0,L|255:324,1,80,8|0,0:0|0:0,0:0:0:0:
172,354,10422,6,0,P|128:354|57:304,1,120,12|0,0:0|0:0,0:0:0:0:
91,176,11022,2,0,P|100:234|139:279,1,120,12|0,0:0|0:0,0:0:0:0:
279,242,11622,2,0,P|235:242|164:192,1,120,8|4,0:0|0:0,0:0:0:0:
303,31,12822,5,8,0:3:0:0:
303,31,12922,1,8,0:3:0:0:
355,101,13122,1,8,0:3:0:0:
355,101,13222,1,2,0:3:0:0:
425,48,13422,1,0,0:0:0:0:
477,118,13622,6,0,B|486:186|486:186|437:276,1,160,4|8,0:0|0:0,0:0:0:0:
371,318,14222,1,0,0:0:0:0:
295,272,14422,2,0,P|229:274|186:307,1,120,2|2,2:0|2:0,0:0:0:0:
169,345,14822,1,8,0:0:0:0:
89,306,15022,1,2,2:0:0:0:
89,306,15122,1,0,0:0:0:0:
89,306,15222,6,0,P|104:253|139:220,1,80,2|0,2:0|0:0,0:0:0:0:
66,164,15622,2,0,P|112:133|160:131,1,80,8|0,0:0|0:0,0:0:0:0:
167,47,16022,2,0,L|286:74,1,120,2|2,2:0|2:0,0:0:0:0:
324,89,16422,1,8,0:0:0:0:
384,153,16622,1,2,2:0:0:0:
384,153,16722,1,0,0:0:0:0:
384,153,16822,6,0,P|407:111|391:34,2,120,2|0|0,2:0|0:0|0:0,0:0:0:0:
297,169,17622,2,0,P|299:215|316:246,1,80,2|0,2:0|0:0,0:0:0:0:
390,289,18022,1,8,0:0:0:0:
338,360,18222,1,0,0:0:0:0:
261,316,18422,6,0,L|214:330,3,40,2|0|2|0,2:0|0:0|3:0|0:0,0:0:0:0:
188,299,18822,2,0,L|148:323,3,40,2|0|2|0,2:0|0:0|3:0|0:0,0:0:0:0:
110,315,19222,1,2,2:0:0:0:
61,241,19422,1,0,0:0:0:0:
112,169,19622,2,0,L|157:177,3,40,2|0|2|0,2:0|0:0|3:0|0:0,0:0:0:0:
180,208,20022,6,0,L|265:198,1,80,4|0,1:0|0:0,0:0:0:0:
321,135,20422,1,8,1:0:0:0:
408,130,20622,1,0,0:0:0:0:
476,185,20822,2,0,P|476:237|437:300,2,120,2|0|2,0:0|0:0|0:0,0:0:0:0:
408,130,21622,6,0,P|408:81|424:51,1,80,2|0,0:0|0:0,0:0:0:0:
348,5,22022,2,0,L|247:18,1,80,8|0,1:0|0:0,0:0:0:0:
202,73,22422,2,0,B|154:55|154:55|71:62,1,120,2|0,0:0|0:0,0:0:0:0:
42,72,22822,1,8,1:0:0:0:
90,145,23022,1,2,0:0:0:0:
30,209,23222,6,0,P|34:260|116:325,1,160,2|8,0:0|1:0,0:0:0:0:
263,230,24022,2,0,P|297:267|402:268,1,160,2|8,0:0|1:0,0:0:0:0:
452,101,24822,6,0,L|372:96,1,80,2|0,0:0|0:0,0:0:0:0:
308,35,25222,2,0,L|220:51,1,80,8|0,1:0|0:0,0:0:0:0:
148,13,25622,1,2,0:0:0:0:
87,76,25822,1,2,0:0:0:0:
127,154,26022,1,8,1:0:0:0:
66,217,26222,1,0,1:0:0:0:
104,296,26422,6,0,P|160:304|194:289,1,80,2|0,0:0|0:0,0:0:0:0:
247,354,26822,2,0,P|299:332|321:302,1,80,8|0,1:0|0:0,0:0:0:0:
357,237,27222,1,2,0:0:0:0:
433,280,27422,1,0,0:0:0:0:
477,203,27622,2,0,L|466:123,1,80,8|0,1:0|0:0,0:0:0:0:
393,73,28022,6,0,L|382:152,1,80,2|0,0:0|0:0,0:0:0:0:
357,237,28422,1,8,1:0:0:0:
273,265,28622,1,0,0:0:0:0:
199,216,28822,2,0,P|155:216|113:239,1,80,2|0,0:0|0:0,0:0:0:0:
138,317,29222,2,0,P|174:332|214:331,1,80,8|0,1:0|0:0,0:0:0:0:
273,265,29622,6,0,B|281:211|281:211|262:131,1,120,6|0,0:0|0:0,0:0:0:0:
248,106,30022,2,0,P|299:85|365:106,1,120,2|0,0:0|0:0,0:0:0:0:
393,73,30422,2,0,P|446:88|485:145,1,120,2|0,0:0|0:0,0:0:0:0:
468,181,30822,2,0,B|452:244|452:244|460:298,1,120,2|0,0:0|0:0,0:0:0:0:
470,342,31222,5,2,0:0:0:0:
391,381,31422,1,0,0:0:0:0:
310,344,31622,2,0,P|268:346|228:371,1,80,8|0,0:0|0:0,0:0:0:0:
200,337,31922,2,0,P|166:353|77:336,1,120,2|2,2:0|2:0,0:0:0:0:
38,268,32422,1,8,0:0:0:0:
73,187,32622,1,2,2:0:0:0:
73,187,32722,1,0,0:0:0:0:
73,187,32822,6,0,P|111:175|151:179,1,80,4|0,0:0|0:0,0:0:0:0:
221,232,33222,2,0,P|260:236|298:224,1,80,8|0,0:0|0:0,0:0:0:0:
347,150,33622,2,0,L|479:174,1,120,2|2,2:0|2:0,0:0:0:0:
508,178,34022,1,8,0:0:0:0:
494,264,34222,1,0,0:0:0:0:
406,261,34422,5,2,2:0:0:0:
355,332,34622,2,0,P|393:347|449:338,2,80,0|8|0,0:0|0:0|0:0,0:0:0:0:
272,302,35222,2,0,L|140:326,1,120,2|2,2:0|2:0,0:0:0:0:
110,333,35622,1,8,0:0:0:0:
41,277,35822,1,0,0:0:0:0:
53,189,36022,6,0,P|90:173|131:174,1,80,2|0,2:0|0:0,0:0:0:0:
206,216,36422,1,8,0:0:0:0:
279,168,36622,1,2,2:0:0:0:
279,168,36722,1,0,0:0:0:0:
279,168,36822,2,0,P|316:184|397:172,1,120,2|0,2:0|0:0,0:0:0:0:
425,143,37222,1,8,0:0:0:0:
480,219,37422,1,2,2:0:0:0:
480,219,37522,1,0,0:0:0:0:
480,219,37622,6,0,L|467:300,1,80,2|0,0:0|0:0,0:0:0:0:
423,291,37922,2,0,L|375:354,1,80,2|0,0:0|0:0,0:0:0:0:
333,338,38222,2,0,P|294:353|229:350,1,80,2|0,0:0|0:0,0:0:0:0:
220,329,38522,2,0,P|178:325|121:294,1,80,2|0,0:0|0:0,0:0:0:0:
108,283,38822,1,2,0:0:0:0:
94,196,39022,1,0,0:0:0:0:
125,113,39222,6,0,P|161:97|201:94,1,80,4|0,0:0|0:0,0:0:0:0:
274,145,39622,1,8,0:0:0:0:
358,121,39822,1,0,0:0:0:0:
430,173,40022,2,0,B|438:229|438:229|418:311,2,120,2|0|0,2:0|0:0|0:0,0:0:0:0:
358,121,40822,6,0,L|347:206,1,80,2|0,2:0|0:0,0:0:0:0:
279,256,41222,1,8,0:0:0:0:
191,258,41422,1,0,0:0:0:0:
118,208,41622,2,0,P|105:154|128:90,1,120,2|0,2:0|0:0,0:0:0:0:
154,61,42022,2,0,L|229:89,1,80,8|0,0:0|0:0,0:0:0:0:
302,40,42422,6,0,P|379:32|454:91,1,160,4|8,0:0|0:0,0:0:0:0:
473,160,43022,1,0,0:0:0:0:
424,233,43222,2,0,P|428:274|453:313,1,80,2|0,2:0|0:0,0:0:0:0:
381,365,43622,2,0,P|347:343|326:309,1,80,8|0,0:0|0:0,0:0:0:0:
264,247,44022,6,0,B|210:278|210:278|109:265,1,160,2|8,2:0|0:0,0:0:0:0:
63,192,44622,1,0,0:0:0:0:
120,124,44822,2,0,P|161:125|207:150,2,80,2|2|8,2:0|2:0|0:0,0:0:0:0:
74,50,45422,1,2,2:0:0:0:
74,50,45522,1,0,0:0:0:0:
74,50,45622,6,0,P|143:40|207:56,1,128,4|8,0:0|1:0,0:0:0:0:
262,104,46222,1,0,0:0:0:0:
326,153,46422,2,0,P|388:162|450:147,1,128,2|8,0:0|1:0,0:0:0:0:
493,278,47222,6,0,B|470:309|470:309|413:329,2,96,2|2|2,0:0|0:0|0:0,0:0:0:0:
417,234,48022,2,0,L|280:248,1,128,2|8,0:0|1:0,0:0:0:0:
197,353,48822,6,0,L|69:339,1,128,2|8,0:0|1:0,0:0:0:0:
44,253,49422,1,0,0:0:0:0:
44,253,49622,2,0,P|109:263|161:231,1,128,2|8,0:0|1:0,0:0:0:0:
215,102,50422,5,2,2:0:0:0:
291,58,50622,1,0,0:0:0:0:
378,65,50822,2,0,P|391:113|373:160,1,80,8|0,0:0|0:0,0:0:0:0:
346,163,51122,2,0,L|371:291,1,120,2|0,2:0|0:0,0:0:0:0:
311,347,51622,1,8,0:0:0:0:
223,358,51822,1,0,0:0:0:0:
145,315,52022,5,4,0:0:0:0:
119,230,52222,2,0,P|165:230|201:252,1,80,0|8,0:0|0:0,0:0:0:0:
145,315,52622,2,0,P|58:292|31:227,1,160,2|2,2:0|2:0,0:0:0:0:
70,153,53222,1,8,0:0:0:0:
34,72,53422,6,0,B|90:51|90:51|205:72,1,160,2|2,2:0|2:0,0:0:0:0:
270,34,54022,1,8,0:0:0:0:
257,121,54222,2,0,P|303:162|397:160,1,160,2|2,2:0|2:0,0:0:0:0:
464,217,54822,2,0,L|449:301,1,80,8|0,0:0|0:0,0:0:0:0:
389,359,55222,5,4,1:0:0:0:
389,359,55422,1,0,0:0:0:0:
319,305,55622,1,8,0:0:0:0:
319,305,55822,1,0,0:0:0:0:
247,356,56022,2,0,L|167:345,1,80,2|0,2:0|0:0,0:0:0:0:
159,257,56422,2,0,L|71:218,1,80,8|0,0:0|0:0,0:0:0:0:
64,138,56822,6,0,P|97:114|194:121,1,120,4|0,0:0|0:0,0:0:0:0:
206,87,57222,2,0,P|251:107|274:149,1,80,8|0,0:0|0:0,0:0:0:0:
266,211,57622,2,0,L|387:214,1,120,2|0,2:0|0:0,0:0:0:0:
398,252,58022,2,0,L|481:241,1,80,8|0,0:0|0:0,0:0:0:0:
256,192,58422,12,0,59622,0:0:0:0:
77,148,60022,6,0,P|60:223|104:294,1,160,4|8,0:0|0:0,0:0:0:0:
174,242,60622,2,0,B|224:266|224:266|335:260,1,160,2|0,2:0|0:0,0:0:0:0:
402,213,61222,1,8,0:0:0:0:
413,125,61422,1,0,0:0:0:0:
363,52,61622,6,0,P|280:35|198:59,1,160,2|8,2:0|0:0,0:0:0:0:
161,127,62222,1,0,0:0:0:0:
99,63,62422,1,2,2:0:0:0:
77,148,62622,1,2,2:0:0:0:
53,232,62822,2,0,L|64:312,1,80,8|0,0:0|0:0,0:0:0:0:
141,353,63222,6,0,L|152:273,1,80,2|0,2:0|0:0,0:0:0:0:
219,216,63622,1,8,0:0:0:0:
284,274,63822,2,0,P|331:298|425:263,1,160,2|0,2:0|0:0,0:0:0:0:
455,179,64422,1,8,0:0:0:0:
444,91,64622,1,0,0:0:0:0:
371,43,64822,6,0,B|315:74|315:74|206:58,1,160,2|8,2:0|0:0,0:0:0:0:
133,46,65422,1,0,0:0:0:0:
50,76,65622,2,0,P|51:129|68:162,1,80,2|2,2:0|2:0,0:0:0:0:
22,231,66022,2,0,P|58:269|93:281,1,80,8|0,0:0|0:0,0:0:0:0:
138,347,66422,6,0,L|305:327,1,160,2|8,2:0|0:0,0:0:0:0:
339,250,67022,1,0,0:0:0:0:
420,283,67222,1,2,2:0:0:0:
463,206,67422,1,2,2:0:0:0:
463,206,67522,1,0,0:0:0:0:
463,206,67622,2,0,P|475:156|469:125,1,80,8|0,0:0|0:0,0:0:0:0:
420,55,68022,6,0,L|332:68,1,80,2|0,2:0|0:0,0:0:0:0:
261,106,68422,2,0,L|181:94,1,80,8|0,0:0|0:0,0:0:0:0:
104,51,68822,1,2,2:0:0:0:
27,94,69022,1,2,2:0:0:0:
27,94,69122,1,0,0:0:0:0:
27,94,69222,2,0,P|22:138|44:183,1,80,8|0,0:0|0:0,0:0:0:0:
122,174,69622,6,0,P|98:211|99:261,1,80,2|0,2:0|0:0,0:0:0:0:
151,315,70022,2,0,L|230:306,1,80,8|0,0:0|0:0,0:0:0:0:
304,259,70422,2,0,L|351:280,3,40,2|0|2|0,2:0|0:0|3:0|0:0,0:0:0:0:
377,251,70822,2,0,L|414:285,3,40,2|0|2|0,2:0|0:0|3:0|0:0,0:0:0:0:
450,275,71222,5,4,0:0:0:0:
506,207,71422,2,0,P|510:164|494:125,1,80,0|8,0:0|0:0,0:0:0:0:
441,61,71822,2,0,L|277:73,1,160,2|0,2:0|0:0,0:0:0:0:
208,122,72422,2,0,L|150:112,3,40,2|0|2|0,2:0|0:0|3:0|0:0,0:0:0:0:
126,126,72822,6,0,P|115:171|136:225,1,80,4|0,0:0|0:0,0:0:0:0:
56,261,73222,1,8,0:0:0:0:
56,261,73422,2,0,P|104:322|192:329,1,160,2|0,2:0|0:0,0:0:0:0:
243,269,74022,1,8,0:0:0:0:
330,281,74222,1,0,0:0:0:0:
417,292,74422,6,0,L|431:205,1,80,2|0,0:2|0:0,0:0:0:0:
501,161,74822,2,0,P|496:112|474:76,1,80,8|0,0:0|0:0,0:0:0:0:
412,30,75222,1,2,0:2:0:0:
332,68,75422,1,2,2:0:0:0:
251,32,75622,1,8,0:0:0:0:
208,109,75822,1,0,0:0:0:0:
120,112,76022,6,0,P|110:176|133:212,2,80,2|0|8,0:2|0:0|0:0,0:0:0:0:
31,150,76622,2,0,P|36:201|130:279,1,160,2|0,2:0|0:0,0:0:0:0:
167,341,77222,1,8,0:0:0:0:
255,341,77422,1,0,0:0:0:0:
309,272,77622,6,0,B|363:307|363:307|466:292,1,160,2|8,2:0|0:0,0:0:0:0:
473,197,78222,2,0,P|397:215|326:164,1,160,2|0,2:0|0:0,0:0:0:0:
299,91,78822,2,0,L|239:100,3,40,2|0|2|0,2:0|0:0|3:0|0:0,0:0:0:0:
222,120,79222,6,0,L|126:110,1,80,4|0,0:0|0:0,0:0:0:0:
71,164,79622,1,8,0:0:0:0:
71,164,79822,1,0,0:0:0:0:
106,244,80022,2,0,L|185:236,1,80,2|0,2:0|0:0,0:0:0:0:
230,313,80422,1,8,0:0:0:0:
314,336,80622,1,0,0:0:0:0:
393,298,80822,6,0,P|413:250|408:216,1,80,2|0,2:0|0:0,0:0:0:0:
455,146,81222,2,0,P|444:107|416:79,1,80,8|0,0:0|0:0,0:0:0:0:
338,39,81622,1,2,2:0:0:0:
256,71,81822,1,0,0:0:0:0:
173,39,82022,1,8,0:0:0:0:
95,80,82222,6,0,B|71:137|71:137|106:241,1,160,2|0,2:0|0:0,0:0:0:0:
43,295,82822,2,0,L|109:346,1,80,8|0,0:0|0:0,0:0:0:0:
191,365,83222,1,2,2:0:0:0:
274,337,83422,1,0,0:0:0:0:
302,254,83622,2,0,P|359:259|391:280,1,80,8|0,0:0|0:0,0:0:0:0:
423,193,84022,6,0,P|459:236|467:274,2,80,2|0|8,2:0|0:0|0:0,0:0:0:0:
390,110,84622,2,0,B|324:134|324:134|216:116,1,160,2|0,2:0|0:0,0:0:0:0:
173,56,85222,2,0,L|79:74,1,80,8|0,0:0|0:0,0:0:0:0:
23,123,85622,5,12,0:0:0:0:
44,208,85822,1,2,2:0:0:0:
122,246,86022,1,8,0:0:0:0:
207,225,86222,1,0,0:0:0:0:
489,123,86822,5,8,0:0:0:0:
468,208,87022,1,2,2:0:0:0:
390,246,87222,1,8,0:0:0:0:
305,225,87422,1,0,0:0:0:0:
255,118,88022,5,8,0:0:0:0:
305,225,88222,1,2,2:0:0:0:
207,225,88422,1,8,0:0:0:0:
255,323,88622,1,4,0:0:0:0:
