osu file format v14

[General]
AudioFilename: Choose me Darling (TV size).mp3
AudioLeadIn: 2000
PreviewTime: 59922
Countdown: 0
SampleSet: Normal
StackLeniency: 0.7
Mode: 0
LetterboxInBreaks: 0
WidescreenStoryboard: 0

[Editor]
DistanceSpacing: 1.2
BeatDivisor: 4
GridSize: 4
TimelineZoom: 1

[Metadata]
Title:Choose me Darling (TV ver.)
TitleUnicode:Choose me♡ダーリン (TV ver.)
Artist:StylipS
ArtistUnicode:StylipS
Creator:Peachtrees
Version:Easy
Source:この中に1人、妹がいる!
Tags:opening noto arisa ogura yui ishihara kaori matsunaga maho Kono Naka ni Hitori, Imouto ga Iru!
BeatmapID:757654
BeatmapSetID:342820

[Difficulty]
HPDrainRate:2
CircleSize:2.5
OverallDifficulty:2
ApproachRate:3
SliderMultiplier:0.8
SliderTickRate:1

[Events]
//Background and Video events
0,0,"klklkl.jpg",0,0
//Break Periods
//Storyboard Layer 0 (Background)
//Storyboard Layer 1 (Fail)
//Storyboard Layer 2 (Pass)
//Storyboard Layer 3 (Foreground)
//Storyboard Sound Samples

[TimingPoints]
822,400,4,1,0,40,1,0
7222,-100,4,1,0,47,0,0
10422,-100,4,1,0,60,0,0
12822,-100,4,1,0,50,0,0
13622,-100,4,1,0,60,0,0
20022,-100,4,2,0,33,0,0
26422,-100,4,2,0,40,0,0
29622,-100,4,1,0,57,0,0
32822,-100,4,1,0,47,0,0
37622,-100,4,1,0,54,0,0
39222,-100,4,1,0,50,0,0
45622,-100,4,2,0,37,0,0
50422,-100,4,1,0,40,0,0
52022,-100,4,1,0,50,0,0
56822,-100,4,1,0,57,0,0
60022,-100,4,1,0,54,0,1
85622,-100,4,1,0,60,0,0
88722,-100,4,1,0,5,0,0

[Colours]
Combo1 : 255,255,128
Combo2 : 192,192,192
Combo3 : 170,85,0
Combo4 : 128,128,128

[HitObjects]
293,63,822,6,0,P|387:40|457:71,1,160,4|2,0:0|2:0,0:0:0:0:
504,137,2022,1,8,0:0:0:0:
477,230,2422,2,0,B|434:238|434:238|349:223,2,120,2|0|8,2:0|0:0|0:0,0:0:0:0:
478,326,4022,6,0,P|440:342|386:338,1,80,2|8,2:0|0:0,0:0:0:0:
309,368,4822,2,0,P|270:352|235:311,1,80,2|8,2:0|0:0,0:0:0:0:
218,232,5622,1,2,2:0:0:0:
126,204,6022,1,8,0:0:0:0:
46,258,6422,2,0,B|51:337,1,80,2|8,2:0|0:0,0:0:0:0:
138,378,7222,6,0,B|143:298,1,80,4|8,0:0|0:0,0:0:0:0:
126,204,8022,1,2,2:0:0:0:
181,125,8422,1,8,0:0:0:0:
148,34,8822,2,0,P|113:30|36:79,2,120,2|0|8,2:0|0:0|0:0,0:0:0:0:
244,34,10422,6,0,P|312:46|323:244,1,300,12|4,0:0|0:0,0:0:0:0:
154,361,12822,2,0,L|67:344,1,80,8|2,3:0|3:0,0:0:0:0:
17,269,13622,5,4,0:0:0:0:
15,173,14022,1,8,0:0:0:0:
75,98,14422,2,0,P|112:85|152:89,1,80,2|8,2:0|0:0,0:0:0:0:
227,149,15222,2,0,L|311:142,1,80,2|8,2:0|0:0,0:0:0:0:
380,203,16022,2,0,L|459:209,1,80,2|8,2:0|0:0,0:0:0:0:
484,302,16822,6,0,P|458:335|338:345,1,160,2|2,2:0|2:0,0:0:0:0:
256,319,18022,1,8,0:0:0:0:
164,349,18422,2,0,P|86:353|28:302,1,160,2|2,2:0|2:0,0:0:0:0:
4,208,19622,1,8,0:0:0:0:
49,123,20022,6,0,L|131:127,1,80,4|8,1:0|1:0,0:0:0:0:
215,83,20822,1,2,0:0:0:0:
310,82,21222,1,8,1:0:0:0:
396,124,21622,2,0,P|398:166|372:214,1,80,2|8,0:0|1:0,0:0:0:0:
432,283,22422,2,0,P|409:318|360:342,1,80,2|8,0:0|1:0,0:0:0:0:
282,351,23222,6,0,B|225:335|225:335|108:354,1,160,2|2,0:0|0:0,0:0:0:0:
59,170,24822,2,0,L|137:184,1,80,2|8,0:0|1:0,0:0:0:0:
218,132,25622,1,2,0:0:0:0:
313,128,26022,1,8,1:0:0:0:
392,181,26422,6,0,P|397:259|358:327,1,160,2|2,0:0|0:0,0:0:0:0:
271,288,27622,1,8,1:0:0:0:
183,328,28022,2,0,B|122:346|122:346|13:324,1,160,2|2,0:0|0:0,0:0:0:0:
0,234,29222,1,8,1:0:0:0:
37,145,29622,6,0,P|73:136|131:145,1,80,2|2,0:0|0:0,0:0:0:0:
194,193,30422,1,2,0:0:0:0:
289,195,30822,1,2,0:0:0:0:
366,137,31222,2,0,B|374:93|374:93|352:16,2,120,2|2|8,0:0|2:0|0:0,0:0:0:0:
289,195,32822,6,0,P|287:235|308:282,1,80,4|8,0:0|0:0,0:0:0:0:
391,302,33622,2,0,P|404:264|402:225,1,80,2|8,2:0|0:0,0:0:0:0:
366,137,34422,1,2,2:0:0:0:
289,195,34822,1,8,0:0:0:0:
214,133,35222,2,0,L|122:140,1,80,2|8,2:0|0:0,0:0:0:0:
63,204,36022,5,2,2:0:0:0:
58,299,36422,1,8,0:0:0:0:
124,367,36822,2,0,P|158:371|207:361,1,80,2|8,2:0|0:0,0:0:0:0:
286,316,37622,2,0,B|317:345|317:345|405:365,2,120,2|2|2,0:0|0:0|0:0,0:0:0:0:
296,220,39222,5,4,0:0:0:0:
375,166,39622,1,8,0:0:0:0:
470,172,40022,2,0,P|465:132|442:98,1,80,2|8,2:0|0:0,0:0:0:0:
369,38,40822,2,0,L|282:46,1,80,2|8,2:0|0:0,0:0:0:0:
224,115,41622,1,2,2:0:0:0:
129,99,42022,1,8,0:0:0:0:
34,81,42422,6,0,P|6:154|32:228,1,160,4|2,0:0|2:0,0:0:0:0:
127,210,43622,1,8,0:0:0:0:
111,304,44022,2,0,B|168:329|168:329|274:316,1,160,2|2,2:0|2:0,0:0:0:0:
359,297,45222,1,8,0:0:0:0:
433,236,45622,6,0,P|452:274|451:319,2,80,4|8|2,0:0|1:0|0:0,0:0:0:0:
356,177,46822,1,8,1:0:0:0:
350,81,47222,2,0,P|410:78|460:109,2,120,2|2|8,0:0|2:0|1:0,0:0:0:0:
270,132,48822,6,0,B|214:109|214:109|114:117,1,160,2|2,0:0|0:0,0:0:0:0:
69,203,50022,1,8,1:0:0:0:
118,285,50422,2,0,P|177:308|242:296,2,120,2|0|8,2:0|0:0|0:0,0:0:0:0:
69,203,52022,5,4,0:0:0:0:
70,107,52422,1,8,0:0:0:0:
135,36,52822,2,0,L|219:46,1,80,2|8,2:0|0:0,0:0:0:0:
277,118,53622,2,0,L|356:108,1,80,2|8,2:0|0:0,0:0:0:0:
440,156,54422,1,2,2:0:0:0:
370,221,54822,1,8,0:0:0:0:
454,269,55222,6,0,P|424:340|350:366,1,160,4|2,1:0|2:0,0:0:0:0:
256,349,56422,1,8,0:0:0:0:
161,367,56822,2,0,P|116:366|80:348,1,80,4|8,0:0|0:0,0:0:0:0:
92,255,57622,2,0,P|55:228|36:192,1,80,2|8,2:0|0:0,0:0:0:0:
80,111,58422,2,0,B|154:137|154:137|314:106,1,240,4|0,0:0|0:0,0:0:0:0:
382,172,60022,6,0,P|419:171|468:187,1,80,4|8,0:0|0:0,0:0:0:0:
471,278,60822,2,0,P|432:289|392:288,1,80,2|8,2:0|0:0,0:0:0:0:
321,353,61622,1,2,2:0:0:0:
225,353,62022,1,8,0:0:0:0:
143,302,62422,2,0,L|146:222,1,80,2|8,2:0|0:0,0:0:0:0:
112,131,63222,6,0,P|78:158|0:163,2,120,2|2|8,2:0|2:0|0:0,0:0:0:0:
194,82,64822,2,0,P|239:127|337:138,1,160,2|2,2:0|2:0,0:0:0:0:
423,111,66022,1,8,0:0:0:0:
488,180,66422,6,0,L|474:263,1,80,2|8,2:0|0:0,0:0:0:0:
379,272,67222,2,0,L|341:356,1,80,2|8,2:0|0:0,0:0:0:0:
253,371,68022,1,2,2:0:0:0:
181,307,68422,1,8,0:0:0:0:
88,334,68822,2,0,P|62:285|63:252,1,80,2|8,2:0|0:0,0:0:0:0:
134,199,69622,6,0,P|106:170|95:132,2,80,2|8|2,2:0|0:0|2:0,0:0:0:0:
229,213,70822,1,8,0:0:0:0:
294,142,71222,2,0,P|295:95|250:26,2,120,4|2|8,0:0|2:0|0:0,0:0:0:0:
229,213,72822,6,0,L|246:299,1,80,4|8,0:0|0:0,0:0:0:0:
315,356,73622,1,2,2:0:0:0:
411,356,74022,1,8,0:0:0:0:
475,284,74422,2,0,P|488:204|452:121,1,160,2|2,2:0|2:0,0:0:0:0:
397,59,75622,1,8,0:0:0:0:
310,100,76022,6,0,P|269:106|197:78,2,120,2|2|8,2:0|2:0|0:0,0:0:0:0:
310,196,77622,2,0,P|256:221|197:217,2,120,2|2|8,2:0|2:0|0:0,0:0:0:0:
363,275,79222,6,0,P|347:307|295:335,1,80,4|8,0:0|0:0,0:0:0:0:
218,357,80022,1,2,2:0:0:0:
125,331,80422,1,8,0:0:0:0:
85,243,80822,2,0,L|92:158,1,80,2|8,2:0|0:0,0:0:0:0:
182,130,81622,6,0,B|157:100|157:100|150:12,2,120,2|2|8,2:0|2:0|0:0,0:0:0:0:
267,174,83222,1,2,2:0:0:0:
362,173,83622,1,8,0:0:0:0:
441,119,84022,2,0,P|457:158|397:263,1,160,2|2,2:0|2:0,0:0:0:0:
332,315,85222,1,8,0:0:0:0:
238,291,85622,6,0,B|190:278|190:278|107:285,1,120,12|0,0:0|0:0,0:0:0:0:
32,169,86822,2,0,B|102:174|102:174|150:161,1,120,8|0,0:0|0:0,0:0:0:0:
277,95,88022,2,0,P|340:100|386:134,1,120,8|4,0:0|0:0,0:0:0:0:
