osu file format v12

[General]
AudioFilename: Choose me Darling (TV size).mp3
AudioLeadIn: 2000
PreviewTime: 59810
Countdown: 0
SampleSet: Normal
StackLeniency: 0.7
Mode: 0
LetterboxInBreaks: 0

[Editor]
DistanceSpacing: 1.1
BeatDivisor: 4
GridSize: 4

[Metadata]
Title:Choose me Darling (TV Size)
TitleUnicode:Choose me♡ダーリン (TV Size)
Artist:StylipS
ArtistUnicode:StylipS
Creator:P A N
Version:Normal
Source:Kono Naka ni Hitori, Imouto ga Iru!
Tags:asprikaq opening
BeatmapID:231444
BeatmapSetID:83699

[Difficulty]
HPDrainRate:4
CircleSize:3
OverallDifficulty:4
ApproachRate:5
SliderMultiplier:0.999999999999999
SliderTickRate:1

[Events]
//Background and Video events
0,0,"BGC.jpg",0,0
Video,-410,"video.avi"
//Break Periods
//Storyboard Layer 0 (Background)
//Storyboard Layer 1 (Fail)
//Storyboard Layer 2 (Pass)
//Storyboard Layer 3 (Foreground)
//Storyboard Sound Samples
//Background Colour Transformations
3,100,255,255,255

[TimingPoints]
822,400,4,1,1,50,1,0
1222,-100,4,2,2,50,0,0
1622,-100,4,1,1,50,0,0
2822,-100,4,2,2,50,0,0
3222,-100,4,1,1,50,0,0
6022,-100,4,2,2,50,0,0
6422,-100,4,1,1,50,0,0
13622,-100,4,1,1,50,0,1
13722,-100,4,1,1,50,0,0
24422,-100,4,2,2,50,0,0
24822,-100,4,1,1,50,0,0
29622,-100,4,1,1,50,0,0
42822,-100,4,2,2,50,0,0
42922,-100,4,2,2,50,0,0
43222,-100,4,1,1,50,0,0
44422,-100,4,2,2,50,0,0
44822,-100,4,1,1,50,0,0
45622,-100,4,1,1,40,0,0
46822,-100,4,2,2,40,0,0
47222,-100,4,1,1,40,0,0
49222,-100,4,2,2,40,0,0
49622,-100,4,1,1,40,0,0
56922,-100,4,1,1,15,0,0
57922,-100,4,1,1,40,0,0
58522,-100,4,1,1,15,0,0
59622,-100,4,1,1,40,0,0
60022,-100,4,1,1,60,0,1
62022,-100,4,2,2,60,0,1
62422,-100,4,1,1,60,0,1
65222,-100,4,2,2,60,0,1
65622,-100,4,1,1,60,0,1
72722,-100,4,1,1,60,0,0
72822,-100,4,1,1,60,0,1
85622,-100,4,1,1,50,0,0

[Colours]
Combo1 : 128,255,0
Combo2 : 0,128,255
Combo3 : 255,0,255

[HitObjects]
160,80,822,2,0,P|256:52|360:92,1,200,4|0,0:0|0:0,0:0:0:0:
372,192,2022,1,8,0:0:0:0:
348,300,2422,2,0,P|255:330|159:302,1,200
52,272,3622,1,8,0:0:0:0:
48,164,4022,6,0,P|68:112|116:84,1,99.9999999999999,0|8,0:0|0:0,0:0:0:0:
208,124,4822,2,0,P|256:136|320:116,1,99.9999999999999,0|8,0:0|0:0,0:0:0:0:
412,96,5622,2,0,B|444:144|432:180|392:180|392:180|416:212|404:244|368:244|368:244|388:284|368:316|312:316,1,300,0|8,0:0|0:0,0:0:0:0:
220,324,7222,6,0,P|176:296|160:232,1,99.9999999999999,4|8,0:0|0:0,0:0:0:0:
68,192,8022,1,0,0:0:0:0:
160,128,8422,2,0,P|177:86|221:58,1,99.9999999999999,8|0,0:0|0:0,0:0:0:0:
312,116,9222,2,0,P|360:128|416:108,1,99.9999999999999,8|0,0:0|0:0,0:0:0:0:
464,116,9822,2,0,L|468:60,2,50,0|8|0,0:0|0:0|0:0,0:0:0:0:
460,172,10422,6,0,L|456:256,1,74.9999999999999
376,264,11022,2,0,L|380:176,1,74.9999999999999
300,204,11622,2,0,L|296:292,1,74.9999999999999,0|0,0:0|0:0,0:0:0:0:
56,280,12822,6,0,P|40:228|52:168,2,99.9999999999999,0|0|4,0:0|0:0|0:0,0:0:0:0:
152,332,14022,1,8,0:0:0:0:
164,224,14422,2,0,P|160:172|180:128,1,99.9999999999999,0|8,0:0|0:0,0:0:0:0:
256,52,15222,5,0,0:0:0:0:
334,128,15622,1,8,0:0:0:0:
388,224,16022,2,0,P|340:240|276:220,1,99.9999999999999,0|8,0:0|0:0,0:0:0:0:
184,224,16822,2,0,L|152:124,1,99.9999999999999,0|8,0:0|0:0,0:0:0:0:
248,72,17622,2,0,L|280:176,1,99.9999999999999,0|8,0:0|0:0,0:0:0:0:
376,120,18422,2,0,L|348:24,2,99.9999999999999,4|8|0,0:0|0:0|0:0,0:0:0:0:
440,212,19622,1,8,0:0:0:0:
420,320,20022,6,0,P|372:332|316:316,1,99.9999999999999,4|8,0:0|0:0,0:0:0:0:
256,240,20822,1,0,0:0:0:0:
184,320,21222,2,0,L|184:376,2,50,8|0|0,0:0|0:0|0:0,0:0:0:0:
108,240,22022,2,0,P|92:196|112:140,1,99.9999999999999,8|0,0:0|0:0,0:0:0:0:
184,68,22822,2,0,L|184:12,2,50,8|0|0,0:0|0:0|0:0,0:0:0:0:
256,148,23622,5,8,0:0:0:0:
328,68,24022,2,0,P|364:148|324:252,1,200
256,332,25222,2,0,P|208:344|156:332,1,99.9999999999999,8|0,0:0|0:0,0:0:0:0:
64,276,26022,2,0,P|64:228|96:180,1,99.9999999999999,8|0,0:0|0:0,0:0:0:0:
108,76,26822,6,0,P|160:88|188:128,1,99.9999999999999,8|0,0:0|0:0,0:0:0:0:
256,208,27622,1,8,0:0:0:0:
325,123,28022,2,0,P|352:88|404:76,1,99.9999999999999,0|8,0:0|0:0,0:0:0:0:
412,188,28822,2,0,P|428:236|412:292,1,99.9999999999999,0|8,0:0|0:0,0:0:0:0:
312,324,29622,5,4,0:0:0:0:
312,216,30022,1,8,0:0:0:0:
200,180,30422,1,0,0:0:0:0:
136,268,30822,1,8,0:0:0:0:
204,356,31222,5,0,0:0:0:0:
152,372,31422,1,0,0:0:0:0:
96,364,31622,2,0,P|28:312|20:232,1,150,8|0,0:0|0:0,0:0:0:0:
40,200,32422,2,0,L|72:156,1,50,8|0,0:0|0:0,0:0:0:0:
104,116,32822,6,0,P|152:88|208:96,1,99.9999999999999,4|8,0:0|0:0,0:0:0:0:
180,200,33622,1,0,0:0:0:0:
256,280,34022,1,8,0:0:0:0:
332,200,34422,1,0,0:0:0:0:
317,90,34822,2,0,P|360:88|408:116,1,99.9999999999999,8|0,0:0|0:0,0:0:0:0:
440,220,35622,6,0,L|508:220,2,50,8|0|0,0:0|0:0|0:0,0:0:0:0:
400,324,36422,2,0,L|292:324,1,99.9999999999999,8|0,0:0|0:0,0:0:0:0:
188,324,37222,1,8,0:0:0:0:
92,276,37622,6,0,L|52:204,1,74.9999999999999
116,156,38222,2,0,L|156:224,1,74.9999999999999
216,168,38822,2,0,L|180:108,2,50,0|0|4,0:0|0:0|0:0,0:0:0:0:
256,272,39622,6,8,P|352:308|448:256,1,200
344,200,40822,1,0,0:0:0:0:
436,132,41222,2,8,P|351:93|255:129,1,200
152,96,42422,6,0,B|124:192|124:192|160:296,1,200,4|0,0:0|0:0,0:0:0:0:
256,336,43622,1,8,0:0:0:0:
355,286,44022,2,0,B|388:192|388:192|360:96,1,200
256,60,45222,1,8,0:0:0:0:
168,128,45622,6,0,P|120:156|104:212,1,99.9999999999999,4|8,0:0|0:0,0:0:0:0:
32,276,46422,2,0,P|116:308|200:228,1,200,0|0,0:0|0:0,0:0:0:0:
256,152,47622,2,0,L|256:92,2,50,8|0|0,0:0|0:0|0:0,0:0:0:0:
368,152,48422,1,8,0:0:0:0:
316,245,48822,6,0,P|396:308|480:276,1,200
412,188,50022,2,0,P|428:140|404:88,1,99.9999999999999,8|0,0:0|0:0,0:0:0:0:
356,112,50622,1,0,0:0:0:0:
304,124,50822,2,0,P|236:148|156:120,1,150,8|0,0:0|0:0,0:0:0:0:
112,112,51622,2,0,L|56:216,1,99.9999999999999,8|4,0:0|0:0,0:0:0:0:
108,300,52422,5,8,0:0:0:0:
208,260,52822,1,0,0:0:0:0:
304,208,53222,1,8,0:0:0:0:
376,124,53622,1,0,0:0:0:0:
404,76,53822,2,0,L|400:16,2,50,0|8|0,0:0|0:0|0:0,0:0:0:0:
464,168,54622,5,0,0:0:0:0:
472,224,54822,2,0,L|488:336,1,99.9999999999999,8|4,0:0|0:0,0:0:0:0:
380,344,55622,2,0,L|364:244,1,99.9999999999999,8|0,0:0|0:0,0:0:0:0:
256,236,56422,1,8,0:0:0:0:
196,328,56822,6,0,P|116:212|216:96,1,300,4|0,0:0|0:0,0:0:0:0:
312,100,58422,2,8,P|395:212|315:328,1,300,4|0,0:0|0:0,0:0:0:0:
208,316,60022,5,4,0:0:0:0:
120,248,60422,1,8,0:0:0:0:
120,136,60822,1,0,0:0:0:0:
208,68,61222,1,8,0:0:0:0:
320,68,61622,2,0,B|372:84|420:69|420:69|468:52|520:68,1,200
472,168,62822,6,0,L|488:272,1,99.9999999999999,8|0,0:0|0:0,0:0:0:0:
408,340,63622,2,0,L|388:224,1,99.9999999999999,8|0,0:0|0:0,0:0:0:0:
284,268,64422,1,8,0:0:0:0:
212,352,64822,2,0,P|172:264|224:168,1,200
296,100,66022,6,0,P|348:92|400:100,2,99.9999999999999,8|0|8,0:0|0:0|0:0,0:0:0:0:
188,80,67222,2,0,P|136:88|100:148,1,99.9999999999999,0|8,0:0|0:0,0:0:0:0:
24,192,68022,1,0,0:0:0:0:
108,264,68422,2,0,P|139:299|191:307,1,99.9999999999999,8|0,0:0|0:0,0:0:0:0:
256,220,69222,1,8,0:0:0:0:
324,308,69622,6,0,P|376:300|406:265,2,99.9999999999999,0|8|0,0:0|0:0|0:0,0:0:0:0:
256,220,70822,2,0,L|200:220,2,50,8|0|4,0:0|0:0|0:0,0:0:0:0:
292,180,71422,2,0,L|352:180,2,50,0|8|0,0:0|0:0|0:0,0:0:0:0:
324,76,72222,2,0,P|256:52|180:84,1,150,0|4,0:0|0:0,0:0:0:0:
84,36,73222,6,0,P|68:88|92:140,1,99.9999999999999,8|0,0:0|0:0,0:0:0:0:
32,228,74022,2,0,P|80:248|136:236,1,99.9999999999999,8|0,0:0|0:0,0:0:0:0:
208,316,74822,2,0,L|208:372,2,50,8|0|0,0:0|0:0|0:0,0:0:0:0:
256,216,75622,1,8,0:0:0:0:
356,264,76022,6,0,P|368:216|348:160,1,99.9999999999999,0|8,0:0|0:0,0:0:0:0:
256,116,76822,1,0,0:0:0:0:
160,168,77222,2,0,P|146:216|158:264,2,99.9999999999999,8|0|8,0:0|0:0|0:0,0:0:0:0:
184,68,78422,1,0,0:0:0:0:
292,52,78822,1,8,0:0:0:0:
348,148,79222,5,4,0:0:0:0:
264,224,79622,1,8,0:0:0:0:
264,224,80022,2,0,L|288:328,1,99.9999999999999,0|8,0:0|0:0,0:0:0:0:
180,300,80822,2,0,L|156:200,1,99.9999999999999,0|8,0:0|0:0,0:0:0:0:
48,184,81622,2,0,L|76:288,2,99.9999999999999,0|8|4,0:0|0:0|0:0,0:0:0:0:
124,104,82822,6,0,P|172:92|220:104,1,99.9999999999999,8|0,0:0|0:0,0:0:0:0:
320,56,83622,1,8,0:0:0:0:
428,32,84022,2,0,P|428:116|360:164,1,150
432,256,85022,2,0,P|380:268|324:252,1,99.9999999999999
280,256,85622,6,0,L|228:300,3,50,0|0|0|0,0:0|0:0|0:0|0:0,0:0:0:0:
100,204,86822,2,0,L|52:224,3,50,0|0|0|0,0:0|0:0|0:0|0:0,0:0:0:0:
96,64,88022,2,0,L|32:60,3,50,0|0|0|4,0:0|0:0|0:0|0:0,0:0:0:0:
