osu file format v12

[General]
AudioFilename: Choose me Darling (TV size).mp3
AudioLeadIn: 2000
PreviewTime: 59810
Countdown: 0
SampleSet: Normal
StackLeniency: 0.7
Mode: 0
LetterboxInBreaks: 0

[Editor]
Bookmarks: 85610,88810
DistanceSpacing: 1
BeatDivisor: 4
GridSize: 4

[Metadata]
Title:Choose me Darling (TV Size)
TitleUnicode:Choose me♡ダーリン (TV Size)
Artist:StylipS
ArtistUnicode:StylipS
Creator:P A N
Version:Easy
Source:Kono Naka ni Hitori, Imouto ga Iru!
Tags:asprikaq opening
BeatmapID:231304
BeatmapSetID:83699

[Difficulty]
HPDrainRate:2
CircleSize:3
OverallDifficulty:2
ApproachRate:3
SliderMultiplier:0.7
SliderTickRate:1

[Events]
//Background and Video events
0,0,"BGC.jpg",0,0
Video,-410,"video.avi"
//Break Periods
//Storyboard Layer 0 (Background)
//Storyboard Layer 1 (Fail)
//Storyboard Layer 2 (Pass)
//Storyboard Layer 3 (Foreground)
//Storyboard Sound Samples
//Background Colour Transformations
3,100,255,255,255

[TimingPoints]
822,400,4,1,1,50,1,0
1222,-100,4,2,2,50,0,0
1622,-100,4,1,1,50,0,0
2822,-100,4,2,2,50,0,0
3222,-100,4,1,1,50,0,0
4422,-100,4,2,2,50,0,0
4822,-100,4,1,1,50,0,0
13622,-100,4,1,1,40,0,1
13722,-100,4,1,1,40,0,0
14822,-100,4,2,2,40,0,0
15222,-100,4,1,1,40,0,0
16422,-100,4,2,2,40,0,0
16822,-100,4,1,1,40,0,0
18822,-100,4,2,2,40,0,0
19222,-100,4,1,1,40,0,0
24422,-100,4,2,2,40,0,0
24822,-100,4,1,1,40,0,0
26022,-100,4,2,2,40,0,0
26422,-100,4,1,1,40,0,0
27622,-100,4,2,2,40,0,0
28022,-100,4,1,1,40,0,0
30022,-100,4,2,2,50,0,0
30422,-100,4,1,1,50,0,0
31622,-100,4,2,2,50,0,0
31922,-100,4,1,1,50,0,0
42822,-100,4,2,2,50,0,0
43222,-100,4,1,1,50,0,0
44422,-100,4,2,2,50,0,0
44822,-100,4,1,1,50,0,0
46022,-100,4,2,2,40,0,0
46422,-100,4,1,1,40,0,0
47622,-100,4,2,2,40,0,0
48022,-100,4,1,1,40,0,0
49222,-100,4,2,2,40,0,0
49622,-100,4,1,1,40,0,0
51622,-100,4,2,2,40,0,0
52022,-100,4,1,1,40,0,0
55622,-100,4,2,2,40,0,0
56022,-100,4,1,1,50,0,0
60022,-100,4,1,1,60,0,1
62022,-100,4,2,2,65,0,1
62422,-100,4,1,1,60,0,1
71622,-100,4,2,2,60,0,1
72022,-100,4,1,1,60,0,1
72722,-100,4,1,1,60,0,0
72822,-100,4,1,1,60,0,1
73222,-100,4,2,2,60,0,1
73622,-100,4,1,1,60,0,1
78022,-100,4,2,2,70,0,1
78422,-100,4,1,1,50,0,1
85622,-100,4,1,0,50,0,0

[Colours]
Combo1 : 128,255,0
Combo2 : 0,128,255
Combo3 : 255,0,255

[HitObjects]
192,256,822,6,0,P|256:280|324:252,1,140,4|0,0:0|0:0,0:0:0:0:
348,192,2022,1,8,0:0:0:0:
324,128,2422,2,0,P|258:106|190:130,1,140
132,160,3622,1,8,0:0:0:0:
64,160,4022,6,0,P|40:228|64:292,1,140
124,316,5222,2,0,L|196:348,1,70,8|0,0:0|0:0,0:0:0:0:
256,328,6022,2,0,L|256:244,2,70,8|0|8,0:0|0:0|0:0,0:0:0:0:
324,344,7222,6,0,L|388:316,1,70,4|8,0:0|0:0,0:0:0:0:
416,252,8022,1,0,0:0:0:0:
400,184,8422,2,8,P|380:116|320:88,1,140
252,88,9622,2,0,L|172:88,1,70,0|8,0:0|0:0,0:0:0:0:
124,124,10422,6,0,P|128:244|256:256,1,262.5
292,108,12822,6,0,L|216:108,2,70,0|0|4,0:0|0:0|0:0,0:0:0:0:
332,164,14022,1,8,0:0:0:0:
324,232,14422,2,0,P|348:300|320:364,1,140
256,364,15622,1,8,0:0:0:0:
188,360,16022,2,0,P|164:300|188:232,1,140
228,172,17222,5,8,0:0:0:0:
192,112,17622,2,0,P|160:84|124:80,1,70,0|8,0:0|0:0,0:0:0:0:
64,96,18422,2,0,P|20:192|72:288,1,210,4|8,0:0|0:0,0:0:0:0:
124,312,20022,6,0,L|200:288,1,70,4|8,0:0|0:0,0:0:0:0:
256,268,20822,1,0,0:0:0:0:
320,292,21222,2,0,L|388:312,1,70,8|0,0:0|0:0,0:0:0:0:
452,288,22022,6,0,P|480:256|484:220,1,70,8|0,0:0|0:0,0:0:0:0:
484,160,22822,2,0,P|479:133|451:101,1,70,8|0,0:0|0:0,0:0:0:0:
392,64,23622,1,8,0:0:0:0:
324,84,24022,2,0,B|256:104|256:104|188:84,1,140
124,64,25222,5,8,0:0:0:0:
72,112,25622,2,0,P|44:180|60:244,1,140
108,296,26822,1,8,0:0:0:0:
176,316,27222,6,0,L|208:168,1,140
256,128,28422,2,0,L|256:52,2,70,8|0|8,0:0|0:0|0:0,0:0:0:0:
308,176,29622,6,0,L|338:313,1,140,4|0,0:0|0:0,0:0:0:0:
404,296,30822,1,8,0:0:0:0:
452,244,31222,2,0,P|488:140|444:42,1,210,0|8,0:0|0:0,0:0:0:0:
388,76,32822,1,4,0:0:0:0:
324,108,33222,6,8,B|256:88|256:88|184:112,1,140
168,176,34422,1,0,0:0:0:0:
192,240,34822,2,8,B|260:260|260:260|325:238,1,140
388,272,36022,5,0,0:0:0:0:
449,237,36422,2,8,P|464:172|444:96,1,140
388,64,37622,2,0,B|320:60|256:96|256:96|196:60|116:64,1,280,0|4,0:0|0:0,0:0:0:0:
64,104,39622,6,0,P|32:172|48:248,1,140,8|8,0:0|0:0,0:0:0:0:
84,288,40822,1,0,0:0:0:0:
144,324,41222,2,8,P|176:256|160:180,1,140
188,128,42422,6,0,B|256:108|256:108|324:132,1,140,4|0,0:0|0:0,0:0:0:0:
392,128,43622,1,8,0:0:0:0:
432,184,44022,2,0,P|452:252|424:328,1,140
308,256,45622,6,0,P|280:324|220:340,1,140,4|0,0:0|0:0,0:0:0:0:
156,316,46822,1,8,0:0:0:0:
100,276,47222,2,0,P|64:192|108:80,1,210,0|8,0:0|0:0,0:0:0:0:
156,40,48822,6,0,B|220:32|220:32|256:60|292:32|292:32|368:44,1,210,0|8,0:0|0:0,0:0:0:0:
424,68,50422,1,4,0:0:0:0:
452,132,50822,2,0,B|432:192|451:240|451:240|472:292|452:348,1,210,8|4,0:0|0:0,0:0:0:0:
384,332,52422,5,8,0:0:0:0:
256,272,53222,1,8,0:0:0:0:
128,332,54022,1,8,0:0:0:0:
116,192,54822,1,8,0:0:0:0:
164,140,55222,6,0,P|256:100|356:148,1,210,4|8,0:0|0:0,0:0:0:0:
256,192,56822,12,4,58422,0:0:0:0:
156,88,60022,6,0,P|200:92|228:116,1,70,4|8,0:0|0:0,0:0:0:0:
292,108,60822,2,0,P|312:93|356:89,1,70,0|8,0:0|0:0,0:0:0:0:
420,124,61622,2,0,P|436:192|416:264,1,140
388,320,62822,1,8,0:0:0:0:
324,344,63222,5,0,0:0:0:0:
256,324,63622,2,8,L|256:176,2,140
188,344,65622,1,0,0:0:0:0:
124,320,66022,1,8,0:0:0:0:
93,258,66422,6,0,P|76:224|72:184,1,70,0|8,0:0|0:0,0:0:0:0:
144,72,67622,1,8,0:0:0:0:
256,152,68422,1,8,0:0:0:0:
368,72,69222,1,8,0:0:0:0:
424,116,69622,6,0,P|440:160|436:196,2,70,0|8|0,0:0|0:0|0:0,0:0:0:0:
368,72,70822,1,8,0:0:0:0:
316,116,71222,2,0,P|288:196|324:284,1,175,4|0,0:0|0:0,0:0:0:0:
220,300,72822,6,0,P|184:196|220:92,1,210,4|8,0:0|0:0,0:0:0:0:
272,68,74422,2,0,L|352:68,1,70,0|8,0:0|0:0,0:0:0:0:
408,92,75222,2,0,P|424:132|420:172,1,70,0|8,0:0|0:0,0:0:0:0:
424,228,76022,6,0,P|424:254|408:294,1,70,0|8,0:0|0:0,0:0:0:0:
346,330,76822,2,0,L|276:330,1,70,0|8,0:0|0:0,0:0:0:0:
204,332,77622,2,0,P|132:332|88:276,1,140
88,212,78822,2,0,P|104:172|136:148,1,70,8|4,0:0|0:0,0:0:0:0:
192,132,79622,6,0,P|256:108|324:136,1,140,8|8,0:0|0:0,0:0:0:0:
344,200,80822,1,0,0:0:0:0:
320,264,81222,2,8,P|256:288|188:260,1,140
160,200,82422,5,4,0:0:0:0:
172,132,82822,2,0,L|228:80,1,70,8|0,0:0|0:0,0:0:0:0:
292,84,83622,2,0,L|344:132,1,70,8|0,0:0|0:0,0:0:0:0:
368,196,84422,2,8,P|360:268|296:300,1,140
236,304,85622,6,0,L|128:304,1,105
40,252,86822,2,0,B|20:204|20:204|40:152,1,105,0|0,0:0|0:0,0:0:0:0:
132,104,88022,2,0,L|237:104,1,105,0|4,0:0|0:0,0:0:0:0:
