osu file format v12

[General]
AudioFilename: 02 Listen Up.mp3
AudioLeadIn: 1974
PreviewTime: 104541
Countdown: 1
SampleSet: None
StackLeniency: 0.7
Mode: 0
LetterboxInBreaks: 1
WidescreenStoryboard: 1

[Editor]
Bookmarks: 33760,34228,37917,52978,60478
DistanceSpacing: 1
BeatDivisor: 2
GridSize: 8

[Metadata]
Title:Listen Up
TitleUnicode:Listen Up
Artist:Studio Syrup Comfiture
ArtistUnicode:Studio Syrup Comfiture
Creator:kfshradio
Version:Insane
Source:Touhou
Tags:Touhou English Electronic Nhato 3L linjin Love=ALL syrufit studio syrup comfiture
BeatmapID:284861
BeatmapSetID:81013

[Difficulty]
HPDrainRate:8
CircleSize:5
OverallDifficulty:7
ApproachRate:9
SliderMultiplier:1.9
SliderTickRate:1

[Events]
//Background and Video events
0,0,"insanebg.jpg",0,0
//Break Periods
//Storyboard Layer 0 (Background)
//Storyboard Layer 1 (Fail)
//Storyboard Layer 2 (Pass)
//Storyboard Layer 3 (Foreground)
//Storyboard Sound Samples
//Background Colour Transformations
3,100,0,128,255

[TimingPoints]
10,468.75,4,3,0,70,1,0
45478,468.75,4,3,0,70,1,1
45478,-66.6666666666667,4,3,0,70,0,1
75227,-100,4,3,0,70,0,1
75478,468.75,4,3,0,70,1,0

[Colours]
Combo1 : 214,231,10
Combo2 : 243,247,254
Combo3 : 55,85,189
Combo4 : 251,64,64

[HitObjects]
384,200,478,1,0,0:0:0:0:
280,200,713,2,0,P|216:192|184:224,1,95
128,272,1181,1,0,0:0:0:0:
232,288,1416,1,0,0:0:0:0:
280,200,1650,6,0,P|216:192|184:224,1,95
128,272,2119,1,0,0:0:0:0:
232,288,2353,1,0,0:0:0:0:
280,200,2588,6,0,P|216:192|184:224,1,95
128,272,3057,1,0,0:0:0:0:
232,288,3291,1,0,0:0:0:0:
280,200,3525,6,0,P|216:192|184:224,1,95
128,272,3994,1,0,0:0:0:0:
128,272,4111,1,0,0:0:0:0:
128,272,4228,1,0,0:0:0:0:
104,176,4463,6,0,P|80:120|104:104,1,95
176,64,4931,1,0,0:0:0:0:
208,160,5166,1,0,0:0:0:0:
104,176,5400,6,0,P|80:120|104:104,1,95
176,64,5869,1,0,0:0:0:0:
208,160,6103,1,0,0:0:0:0:
104,176,6338,6,0,P|80:120|104:104,1,95
176,64,6806,1,0,0:0:0:0:
208,160,7041,1,0,0:0:0:0:
248,184,7158,1,0,0:0:0:0:
296,176,7275,1,0,0:0:0:0:
336,144,7392,1,0,0:0:0:0:
360,104,7510,1,0,0:0:0:0:
368,56,7627,1,0,0:0:0:0:
408,32,7744,1,0,0:0:0:0:
456,40,7861,1,0,0:0:0:0:
464,88,7978,6,0,P|488:144|472:192,1,95
416,312,8447,2,0,P|392:256|416:208,1,95
304,112,8916,2,0,P|328:160|312:200,1,95
224,312,9385,2,0,P|208:272|224:216,1,95
168,80,9853,6,0,P|120:56|80:88,1,95
8,200,10322,2,0,P|-16:248|32:296,1,95
152,312,10791,2,0,P|168:256|144:224,1,95
168,80,11260,1,0,0:0:0:0:
312,40,11494,1,0,0:0:0:0:
312,40,11611,1,0,0:0:0:0:
312,40,11728,6,0,B|352:16|352:16|392:56,1,95
456,184,12197,2,0,B|416:208|416:208|376:168,1,95
232,192,12666,2,0,B|192:168|192:168|152:208,1,95
152,344,13135,2,0,B|112:368|112:368|72:328,1,95
16,200,13603,6,0,B|-8:160|-8:160|32:120,1,95
144,32,14072,2,0,B|168:72|168:72|128:112,1,95
256,192,14541,1,0,0:0:0:0:
296,216,14658,1,0,0:0:0:0:
344,216,14775,1,0,0:0:0:0:
376,184,14892,1,0,0:0:0:0:
384,136,15010,1,0,0:0:0:0:
368,96,15127,1,0,0:0:0:0:
392,56,15244,1,0,0:0:0:0:
432,40,15361,1,0,0:0:0:0:
472,56,15478,5,0,0:0:0:0:
256,264,15947,1,0,0:0:0:0:
40,48,16416,1,0,0:0:0:0:
40,352,16885,1,0,0:0:0:0:
256,136,17353,1,0,0:0:0:0:
464,344,17822,1,0,0:0:0:0:
472,40,18291,1,0,0:0:0:0:
256,256,18760,1,0,0:0:0:0:
184,120,18994,1,0,0:0:0:0:
344,120,19228,1,0,0:0:0:0:
48,56,19697,5,0,0:0:0:0:
96,352,20166,1,0,0:0:0:0:
176,56,20635,1,0,0:0:0:0:
232,352,21103,1,0,0:0:0:0:
312,56,21572,1,0,0:0:0:0:
392,352,22041,1,0,0:0:0:0:
480,64,22510,1,0,0:0:0:0:
392,192,22744,1,0,0:0:0:0:
312,56,22978,5,0,0:0:0:0:
240,144,23213,2,0,P|192:168|160:128,1,95
144,56,23681,1,0,0:0:0:0:
192,40,23799,1,0,0:0:0:0:
240,48,23916,1,0,0:0:0:0:
240,144,24150,6,0,P|192:168|160:128,1,95
144,56,24619,1,0,0:0:0:0:
192,40,24736,1,0,0:0:0:0:
240,48,24853,1,0,0:0:0:0:
240,144,25088,6,0,P|192:168|160:128,1,95
144,56,25556,1,0,0:0:0:0:
192,40,25674,1,0,0:0:0:0:
240,48,25791,1,0,0:0:0:0:
240,144,26025,6,0,P|192:168|160:128,1,95
144,56,26494,1,0,0:0:0:0:
192,40,26611,1,0,0:0:0:0:
240,48,26728,1,0,0:0:0:0:
344,96,26963,5,0,0:0:0:0:
384,112,27080,1,0,0:0:0:0:
400,160,27197,1,0,0:0:0:0:
352,264,27431,5,0,0:0:0:0:
336,304,27549,1,0,0:0:0:0:
296,328,27666,1,0,0:0:0:0:
184,312,27900,5,0,0:0:0:0:
144,296,28017,1,0,0:0:0:0:
104,264,28135,2,0,P|64:240|48:192,1,95
48,152,28487,5,0,0:0:0:0:
56,104,28603,2,0,P|80:64|136:48,1,95
168,40,28955,5,0,0:0:0:0:
216,40,29072,2,0,P|256:72|240:120,1,95
232,152,29424,5,0,0:0:0:0:
216,192,29541,2,0,P|224:256|256:272,1,95
288,288,29893,5,0,0:0:0:0:
336,280,30010,2,0,P|376:232|376:200,1,95
376,152,30361,1,0,0:0:0:0:
408,120,30478,6,0,P|424:80|392:40,1,95
280,40,30947,1,0,0:0:0:0:
168,32,31181,1,0,0:0:0:0:
120,32,31299,1,0,0:0:0:0:
72,48,31416,2,0,P|16:88|-8:144,1,95
0,224,31885,1,0,0:0:0:0:
64,320,32119,5,0,0:0:0:0:
104,352,32236,1,0,0:0:0:0:
152,344,32353,1,0,0:0:0:0:
144,240,32588,1,0,0:0:0:0:
144,240,32822,1,0,0:0:0:0:
152,344,33056,5,0,0:0:0:0:
104,352,33174,1,0,0:0:0:0:
64,320,33291,1,0,0:0:0:0:
144,240,33525,1,0,0:0:0:0:
248,192,33760,1,0,0:0:0:0:
72,48,34228,6,0,P|120:24|176:72,1,95
224,120,34697,1,0,0:0:0:0:
320,56,34931,1,0,0:0:0:0:
368,72,35049,1,0,0:0:0:0:
376,120,35166,1,0,0:0:0:0:
376,264,35400,1,0,0:0:0:0:
224,264,35635,1,0,0:0:0:0:
224,120,35869,1,0,0:0:0:0:
120,72,36103,5,0,0:0:0:0:
8,72,36338,2,0,B|0:64|0:64|0:56|0:56|8:48|8:48|16:40,3,23.75
0,192,36806,1,0,0:0:0:0:
56,288,37041,2,0,P|96:328|152:344,1,95
131,341,37392,1,0,0:0:0:0:
131,341,37510,1,0,0:0:0:0:
352,288,37978,6,0,B|400:280|400:280|392:224,1,95
384,120,38447,1,0,0:0:0:0:
288,64,38681,1,0,0:0:0:0:
240,48,38799,1,0,0:0:0:0:
192,40,38916,2,0,B|144:32|144:32|128:80,1,95
104,184,39385,1,0,0:0:0:0:
216,216,39619,5,0,0:0:0:0:
248,248,39736,1,0,0:0:0:0:
280,288,39853,1,0,0:0:0:0:
168,312,40088,1,0,0:0:0:0:
168,312,40322,1,0,0:0:0:0:
216,216,40556,5,0,0:0:0:0:
248,248,40674,1,0,0:0:0:0:
280,288,40791,1,0,0:0:0:0:
168,312,41025,1,0,0:0:0:0:
56,312,41260,1,0,0:0:0:0:
16,88,41728,6,0,B|48:56|48:56|96:88,1,95
200,120,42197,1,0,0:0:0:0:
272,208,42431,1,0,0:0:0:0:
296,248,42549,1,0,0:0:0:0:
336,272,42666,1,0,0:0:0:0:
440,192,42900,1,0,0:0:0:0:
368,80,43135,1,0,0:0:0:0:
232,80,43369,1,0,0:0:0:0:
160,192,43603,5,0,0:0:0:0:
88,280,43838,2,0,B|80:288|80:288|80:296|80:296|88:304|88:304|96:312,3,23.75
224,288,44306,1,0,0:0:0:0:
320,224,44541,2,0,B|336:232|336:232|320:216|320:216|344:224|344:224|328:200|328:200|344:208|344:208|352:200|352:200,1,95
328,200,44892,1,0,0:0:0:0:
328,200,45010,1,0,0:0:0:0:
32,32,45478,6,0,B|40:32|40:32|32:40|32:40|56:32|56:32|32:56|32:56|56:40|56:40|48:56|48:56|56:56|56:56|64:64|64:64|104:120,1,213.750008153916
136,152,45946,2,0,B|144:160|160:168|176:160|176:160|184:144|184:144|208:160|208:160|224:152|224:152,1,71.2500027179719
280,80,46298,1,0,0:0:0:0:
320,56,46415,1,0,0:0:0:0:
368,56,46532,1,0,0:0:0:0:
448,144,46767,2,0,P|464:168|440:232,1,71.2500027179719
264,328,47353,6,0,B|208:336|200:328|200:328|200:320|200:320|192:320|192:320|192:312|192:312|192:304|192:304|184:304|184:304|176:304|176:304|176:296|176:296|176:288|176:288|168:280|168:280|160:272|160:272,1,142.500005435944
272,248,47821,2,0,B|328:240|336:248|336:248|336:256|336:256|344:256|344:256|344:264|344:264|344:272|344:272|352:272|352:272|360:272|360:272|360:280|360:280|360:288|360:288|368:296|368:296|376:304|376:304,1,142.500005435944
464,232,48290,2,0,P|496:152|472:128,1,71.2500027179719,0|0,0:0|0:0,0:0:0:0:
432,80,48642,2,0,B|432:64|416:80|440:24|376:96|400:48|336:80|384:-56|384:16,1,71.2500027179719,0|0,0:0|0:0,0:0:0:0:
264,40,48993,5,0,0:0:0:0:
152,56,49228,2,0,B|80:72|-8:112|256:152|64:256,1,285.000010871888
288,312,50165,6,0,P|384:288|432:224,1,142.500005435944
288,312,50634,6,0,P|360:264|384:200,1,142.500005435944
288,312,51103,6,0,P|336:232|328:160,1,142.500005435944
288,312,51571,6,0,P|304:240|224:272,1,142.500005435944
208,248,52040,2,0,P|120:248|112:152,1,142.500005435944
96,160,52509,2,0,P|128:104|240:136,1,142.500005435944
312,64,52978,6,0,B|264:80|272:24|312:16|328:16|344:32|360:56|360:80|344:96|328:104|312:104|304:120|304:184,1,213.750008153916
296,200,53446,2,0,B|304:208|304:208|288:216|288:216|304:224|304:224|288:232|288:232|304:240|304:240|296:248|296:248|296:256|296:256|296:272|296:272|296:280|296:280|296:280,1,71.2500027179719
200,304,53798,1,0,0:0:0:0:
152,312,53915,1,0,0:0:0:0:
128,272,54032,2,0,P|88:224|144:88,1,213.750008153916
240,64,54618,6,0,L|304:16,1,71.2500027179719
264,128,54970,2,0,L|320:176,1,71.2500027179719
320,64,55321,6,0,B|384:88|384:88|464:56,1,142.500005435944
320,64,55790,6,0,B|360:120|360:120|448:112,1,142.500005435944
320,64,56259,6,0,B|328:144|328:144|416:192,1,142.500005435944
480,200,56728,5,0,0:0:0:0:
448,232,56845,1,0,0:0:0:0:
408,256,56962,2,0,P|336:288|224:272,1,142.500005435944
232,264,57313,1,0,0:0:0:0:
184,240,57431,2,0,P|128:176|136:96,1,142.500005435944
126,121,57782,1,0,0:0:0:0:
126,121,57899,1,0,0:0:0:0:
216,48,58134,2,0,B|232:32|232:32|248:48|248:48|264:64|280:72|288:24|288:24|352:24|352:24|360:16,1,142.500005435944
320,24,58485,1,0,0:0:0:0:
256,192,58720,12,0,60126,0:0:0:0:
400,272,60478,6,0,B|392:272|392:272|400:264|400:264|376:272|376:272|400:248|400:248|376:264|376:264|384:248|384:248|376:248|376:248|368:240|368:240|328:184,1,213.750008153916
304,144,60946,2,0,B|296:136|280:128|264:136|264:136|256:152|256:152|232:136|232:136|216:144|216:144,1,71.2500027179719
224,256,61298,1,0,0:0:0:0:
192,288,61415,1,0,0:0:0:0:
144,288,61532,1,0,0:0:0:0:
56,216,61767,2,0,P|40:192|64:128,1,71.2500027179719
272,136,62353,6,0,B|264:80|272:72|272:72|280:72|280:72|280:64|280:64|288:64|288:64|296:64|296:64|296:56|296:56|296:48|296:48|304:48|304:48|312:48|312:48|320:40|320:40|328:32|328:32,1,142.500005435944
416,96,62821,2,0,B|424:152|416:160|416:160|408:160|408:160|408:168|408:168|400:168|400:168|392:168|392:168|392:176|392:176|392:184|392:184|384:184|384:184|376:184|376:184|368:192|368:192|360:200|360:200,1,142.500005435944
272,136,63290,2,0,P|240:216|264:240,1,71.2500027179719,0|0,0:0|0:0,0:0:0:0:
168,288,63642,2,0,B|168:272|152:288|176:232|112:304|136:256|72:288|120:152|120:224,1,71.2500027179719,0|0,0:0|0:0,0:0:0:0:
40,168,63993,5,0,0:0:0:0:
72,56,64228,2,0,B|88:128|128:216|168:-48|272:144,1,285.000010871888
344,80,65165,6,0,P|440:104|488:168,1,142.500005435944
344,80,65634,6,0,P|416:128|440:192,1,142.500005435944
344,80,66103,6,0,P|392:160|384:232,1,142.500005435944
368,256,66571,6,0,P|296:272|328:192,1,142.500005435944
296,176,67040,2,0,P|208:176|200:272,1,142.500005435944
176,264,67509,2,0,P|144:320|32:288,1,142.500005435944
16,224,67978,6,0,B|64:208|56:264|16:272|0:272|-16:256|-32:232|-32:208|-16:192|0:184|16:184|24:168|24:104,1,213.750008153916
24,96,68446,2,0,B|16:88|16:88|32:80|32:80|16:72|16:72|32:64|32:64|16:56|16:56|24:48|24:48|24:40|24:40|24:24|24:24|24:16|24:16|24:16,1,71.2500027179719
136,40,68798,1,0,0:0:0:0:
184,32,68915,1,0,0:0:0:0:
232,40,69032,2,0,P|288:104|216:200,1,213.750008153916
152,288,69618,6,0,L|208:344,1,71.2500027179719
320,328,69970,2,0,L|264:272,1,71.2500027179719
384,272,70321,6,0,B|440:232|440:232|432:144,1,142.500005435944
384,272,70790,6,0,B|408:208|408:208|376:128,1,142.500005435944
384,264,71259,6,0,B|376:184|376:184|288:136,1,142.500005435944
240,232,71728,5,0,0:0:0:0:
200,256,71845,1,0,0:0:0:0:
144,256,71962,2,0,P|72:224|80:120,1,142.500005435944
80,128,72313,1,0,0:0:0:0:
112,96,72431,2,0,P|192:56|280:88,1,142.500005435944
280,88,72782,1,0,0:0:0:0:
312,120,72899,1,0,0:0:0:0:
400,192,73134,2,0,B|416:176|416:176|432:192|432:192|448:208|464:216|472:168|472:168|536:168|536:168|544:160,1,142.500005435944
504,168,73485,1,0,0:0:0:0:
256,192,73720,12,0,75126,0:0:0:0:
512,256,75478,6,0,P|480:296|384:304,1,142.5
344,296,75946,1,0,0:0:0:0:
217,254,76181,1,0,0:0:0:0:
217,121,76415,1,0,0:0:0:0:
344,80,76649,1,0,0:0:0:0:
422,188,76884,1,0,0:0:0:0:
288,184,77118,6,0,P|280:104|192:32,1,190
72,8,77821,1,0,0:0:0:0:
16,128,78056,2,0,P|16:208|152:288,1,190
208,344,78759,1,0,0:0:0:0:
344,344,78993,2,0,B|344:328|344:328|352:336|352:336|360:344|360:344|360:336|360:336|360:328|360:328|368:336|368:336|376:344|376:344|376:336|376:336|376:328|376:328|384:336|384:336|392:344|392:344|392:336|392:336|392:328|392:328|400:328|400:328|408:328|416:328|432:328|448:320|464:304|464:216,1,285
296,16,80165,2,0,B|160:16|104:64|112:192,1,285
152,200,80985,5,0,0:0:0:0:
192,232,81103,2,0,P|216:256|296:272,1,95
192,232,81571,6,0,P|224:248|304:240,1,95
192,232,82040,6,0,P|240:232|296:200,1,95
192,232,82509,6,0,P|240:208|264:144,1,95
