osu file format v12

[General]
AudioFilename: Jenny.mp3
AudioLeadIn: 0
PreviewTime: -1
Countdown: 0
SampleSet: Normal
StackLeniency: 0.7
Mode: 0
LetterboxInBreaks: 1
WidescreenStoryboard: 1

[Editor]
DistanceSpacing: 1.2
BeatDivisor: 4
GridSize: 8

[Metadata]
Title:Jenny
TitleUnicode:Jenny
Artist:Studio Killers
ArtistUnicode:Studio Killers
Creator:Lgndzr
Version:Sane
Source:Studio Killers
Tags:Studio Killers 2013 Jenny
BeatmapID:304593
BeatmapSetID:118487

[Difficulty]
HPDrainRate:6
CircleSize:5
OverallDifficulty:5
ApproachRate:8
SliderMultiplier:1.7
SliderTickRate:1

[Events]
//Background and Video events
0,0,"cover.jpg",0,0
//Break Periods
2,50349,56563
2,141692,156861
//Storyboard Layer 0 (Background)
//Storyboard Layer 1 (Fail)
//Storyboard Layer 2 (Pass)
//Storyboard Layer 3 (Foreground)
//Storyboard Sound Samples
//Background Colour Transformations
3,100,163,162,255

[TimingPoints]
0,447.760572621533,4,1,0,100,1,0
35820,-83.3333333333333,4,1,0,100,0,1
50149,-100,4,1,0,100,0,0
85970,-83.3333333333333,4,1,0,100,0,1
114626,-125,4,1,0,100,0,0
157611,-100,4,1,0,100,0,0
164775,-71.4285714285714,4,1,0,100,0,1
193432,-100,4,1,0,100,0,0

[Colours]
Combo1 : 190,180,54
Combo2 : 0,255,255
Combo3 : 255,0,128

[HitObjects]
96,64,7164,2,0,P|200:80|240:144,1,170
136,160,8059,1,0,0:0:0:0:
200,240,8507,2,0,P|256:208|304:216,2,85
136,320,9402,1,0,0:0:0:0:
136,320,9626,1,0,0:0:0:0:
136,320,9850,1,0,0:0:0:0:
392,96,10746,6,0,P|312:152|256:120,1,170
136,120,11417,1,0,0:0:0:0:
136,120,11641,1,0,0:0:0:0:
168,248,12313,2,0,P|312:200|320:208,1,170
344,272,12985,1,0,0:0:0:0:
304,192,13208,2,0,P|328:80|384:64,2,170
240,256,14328,5,0,0:0:0:0:
152,256,14552,1,0,0:0:0:0:
64,256,14776,2,0,P|120:144|160:144,2,170
152,256,15895,1,0,0:0:0:0:
240,256,16119,1,0,0:0:0:0:
328,256,16343,1,0,0:0:0:0:
328,168,16567,1,0,0:0:0:0:
240,168,16791,1,0,0:0:0:0:
240,256,17014,1,0,0:0:0:0:
240,256,17126,1,0,0:0:0:0:
240,256,17238,2,0,P|168:248|144:216,1,85
96,72,18022,6,0,P|136:160|152:160,1,127.5
184,88,18582,1,0,0:0:0:0:
184,88,18805,2,0,P|248:160|208:208,1,170
120,208,19477,1,0,0:0:0:0:
264,208,19925,1,0,0:0:0:0:
408,208,20373,1,0,0:0:0:0:
408,208,20596,1,0,0:0:0:0:
104,64,21044,6,0,P|176:152|152:192,1,170
312,64,21940,1,0,0:0:0:0:
264,248,22388,1,0,0:0:0:0:
264,248,22835,2,0,P|160:232|120:176,1,170
96,104,23507,1,0,0:0:0:0:
176,64,23731,2,0,P|224:144|304:160,2,170
128,280,25074,5,0,0:0:0:0:
392,288,25746,1,0,0:0:0:0:
392,288,25970,1,0,0:0:0:0:
88,72,26641,2,0,P|144:144|160:144,1,85
216,104,27089,1,0,0:0:0:0:
216,104,27537,1,0,0:0:0:0:
216,104,27761,1,0,0:0:0:0:
432,240,28656,6,0,P|328:296|280:272,1,170
216,224,29328,1,0,0:0:0:0:
120,224,29552,2,0,P|184:128|232:128,1,170
256,136,30111,1,0,0:0:0:0:
280,152,30223,1,0,0:0:0:0:
336,224,30447,2,0,P|248:312|192:304,1,170
112,264,31119,1,0,0:0:0:0:
112,168,31343,2,0,P|256:80|408:176,1,340
256,184,32910,1,0,0:0:0:0:
256,184,33134,1,0,0:0:0:0:
256,192,33358,12,0,35596,0:0:0:0:
384,72,35820,6,0,P|392:160|288:224,1,203.999993774414
280,224,36380,1,0,0:0:0:0:
256,216,36492,1,0,0:0:0:0:
192,128,36716,1,0,0:0:0:0:
120,72,36940,2,0,P|80:200|128:256,1,203.999993774414
192,296,37611,1,0,0:0:0:0:
304,272,37835,1,0,0:0:0:0:
368,192,38059,1,0,0:0:0:0:
344,96,38283,1,0,0:0:0:0:
240,40,38507,2,0,P|120:96|112:184,2,203.999993774414
240,128,39626,6,0,L|240:240,1,101.999996887207
136,232,40074,2,0,L|272:232,1,101.999996887207
344,232,40522,2,0,L|232:232,1,101.999996887207
240,336,40970,2,0,L|240:224,1,101.999996887207
240,160,41417,1,0,0:0:0:0:
168,96,41641,1,0,0:0:0:0:
240,32,41865,1,0,0:0:0:0:
312,96,42089,1,0,0:0:0:0:
240,192,42313,5,0,0:0:0:0:
136,112,42537,1,0,0:0:0:0:
240,32,42761,1,0,0:0:0:0:
352,112,42985,2,0,P|424:216|376:288,1,203.999993774414
288,320,43880,2,0,P|160:304|128:216,1,203.999993774414
64,192,44776,6,0,P|160:160|208:240,1,203.999993774414
464,192,45671,2,0,P|368:152|320:240,1,203.999993774414
320,304,46343,1,0,0:0:0:0:
208,304,46567,1,0,0:0:0:0:
208,304,46679,1,0,0:0:0:0:
208,304,46790,1,0,0:0:0:0:
88,304,47014,2,0,P|144:184|224:168,1,203.999993774414
320,168,47910,1,0,0:0:0:0:
176,168,48358,1,0,0:0:0:0:
168,288,48805,1,0,0:0:0:0:
320,288,49253,1,0,0:0:0:0:
448,168,49701,1,0,0:0:0:0:
272,168,50149,1,0,0:0:0:0:
112,112,57313,6,0,P|192:216|240:224,1,170
352,216,58208,1,0,0:0:0:0:
360,64,58656,1,0,0:0:0:0:
360,64,58768,1,0,0:0:0:0:
360,64,58880,2,0,L|240:64,1,85
112,64,59552,1,0,0:0:0:0:
104,216,59999,1,0,0:0:0:0:
400,304,60895,5,0,0:0:0:0:
256,304,61567,1,0,0:0:0:0:
256,304,61790,1,0,0:0:0:0:
136,256,62462,2,0,P|232:184|288:200,1,170
392,256,63358,1,0,0:0:0:0:
392,128,63805,1,0,0:0:0:0:
392,128,64029,1,0,0:0:0:0:
392,128,64253,1,0,0:0:0:0:
392,128,64477,2,0,P|256:160|240:200,1,170
320,216,65373,2,0,P|232:256|160:208,1,170
128,144,66044,5,0,0:0:0:0:
192,72,66268,1,0,0:0:0:0:
288,72,66492,1,0,0:0:0:0:
352,144,66716,1,0,0:0:0:0:
352,232,66940,1,0,0:0:0:0:
312,320,67164,2,0,P|184:264|296:152,1,340
104,88,68731,5,0,0:0:0:0:
104,88,68955,1,0,0:0:0:0:
88,192,69626,2,0,P|216:232|216:240,2,170
128,296,70970,1,0,0:0:0:0:
128,296,71193,1,0,0:0:0:0:
424,256,71641,6,0,P|344:184|296:208,1,170
240,272,72313,1,0,0:0:0:0:
152,224,72537,1,0,0:0:0:0:
152,224,72649,1,0,0:0:0:0:
152,224,72761,1,0,0:0:0:0:
384,80,73208,6,0,P|336:128|296:120,1,85
160,56,74104,2,0,P|72:224|264:296,1,425
352,256,75895,1,0,0:0:0:0:
352,256,76119,1,0,0:0:0:0:
112,80,76790,6,0,P|208:144|256:136,1,170
352,64,77686,1,0,0:0:0:0:
352,64,78134,2,0,P|416:176|384:208,1,170
312,168,78805,2,0,P|224:256|232:280,2,170
312,88,80149,1,0,0:0:0:0:
216,88,80596,2,0,P|120:136|96:216,1,170
144,272,81268,1,0,0:0:0:0:
144,272,81380,1,0,0:0:0:0:
144,272,81492,1,0,0:0:0:0:
272,272,81940,1,0,0:0:0:0:
272,272,82164,1,0,0:0:0:0:
272,272,82387,1,0,0:0:0:0:
256,192,83731,12,0,85746,0:0:0:0:
136,80,85970,6,0,P|104:200|192:264,1,203.999993774414
248,296,86641,1,0,0:0:0:0:
352,248,86865,2,0,P|360:152|232:112,2,203.999993774414
248,296,87984,1,0,0:0:0:0:
248,176,88208,1,0,0:0:0:0:
128,176,88432,1,0,0:0:0:0:
128,296,88656,1,0,0:0:0:0:
128,296,88768,1,0,0:0:0:0:
128,296,88880,1,0,0:0:0:0:
248,296,89104,6,0,P|400:224|408:176,1,203.999993774414
144,88,89999,2,0,L|224:168,1,101.999996887207
288,88,90447,2,0,L|200:184,1,101.999996887207
144,240,90895,2,0,L|216:168,1,101.999996887207
296,232,91343,2,0,L|208:152,2,101.999996887207
376,192,92014,5,0,0:0:0:0:
368,80,92238,2,0,L|160:80,1,203.999993774414
96,152,92910,1,0,0:0:0:0:
96,248,93134,2,0,P|224:296|288:264,1,203.999993774414
296,248,93693,1,0,0:0:0:0:
304,216,93805,1,0,0:0:0:0:
296,112,94029,1,0,0:0:0:0:
72,104,94477,6,0,P|120:216|200:224,1,203.999993774414
272,200,95149,1,0,0:0:0:0:
384,160,95373,2,0,P|376:296|288:320,1,203.999993774414
224,304,96044,1,0,0:0:0:0:
144,240,96268,1,0,0:0:0:0:
120,152,96492,1,0,0:0:0:0:
176,64,96716,2,0,P|304:72|368:128,1,203.999993774414
264,152,97611,6,0,P|352:232|344:320,2,203.999993774414
160,152,98731,1,0,0:0:0:0:
160,264,98955,1,0,0:0:0:0:
288,264,99178,1,0,0:0:0:0:
288,152,99402,1,0,0:0:0:0:
128,152,99626,5,0,0:0:0:0:
128,288,99850,1,0,0:0:0:0:
288,296,100074,1,0,0:0:0:0:
288,152,100298,2,0,B|336:64|376:64|440:144,2,203.999993774414
256,240,101417,1,0,0:0:0:0:
168,240,101641,1,0,0:0:0:0:
80,240,101865,1,0,0:0:0:0:
80,240,101977,1,0,0:0:0:0:
80,240,102089,2,0,P|144:128|216:136,1,203.999993774414
416,216,102984,6,0,P|336:304|272:272,1,203.999993774414
160,136,103880,2,0,P|248:80|256:80,1,101.999996887207
160,136,104328,2,0,P|120:32|128:24,1,101.999996887207
160,136,104775,2,0,P|72:224|64:224,1,101.999996887207
240,168,105223,1,0,0:0:0:0:
240,168,105447,1,0,0:0:0:0:
152,304,105895,6,0,P|288:264|320:296,3,203.999993774414
384,232,107462,2,0,P|328:96|256:88,1,203.999993774414
88,192,108358,2,0,P|216:288|232:272,1,203.999993774414
376,192,109253,5,0,0:0:0:0:
376,192,109701,2,0,P|216:144|200:96,1,203.999993774414
128,160,110372,1,0,0:0:0:0:
192,224,110596,1,0,0:0:0:0:
280,256,110820,1,0,0:0:0:0:
376,232,111044,6,0,L|376:128,1,101.999996887207
296,64,111492,2,0,L|296:176,1,101.999996887207
216,232,111940,2,0,L|216:128,1,101.999996887207
136,64,112387,1,0,0:0:0:0:
136,64,112611,1,0,0:0:0:0:
88,144,112835,1,0,0:0:0:0:
88,232,113059,1,0,0:0:0:0:
152,296,113283,1,0,0:0:0:0:
248,296,113507,1,0,0:0:0:0:
344,296,113731,2,0,P|368:120|168:128,1,407.999987548829
144,72,115522,6,0,P|120:160|152:176,1,136
200,192,116417,1,0,0:0:0:0:
264,200,116865,2,0,P|336:216|336:288,1,136
320,320,117761,1,0,0:0:0:0:
256,336,118208,2,0,P|168:312|136:280,1,136
120,224,119104,5,0,0:0:0:0:
128,160,119552,1,0,0:0:0:0:
168,112,119999,1,0,0:0:0:0:
232,96,120447,1,0,0:0:0:0:
288,120,120895,1,0,0:0:0:0:
336,160,121343,1,0,0:0:0:0:
368,216,121790,2,0,P|328:328|208:288,1,272
192,232,123134,1,0,0:0:0:0:
184,168,123581,2,0,P|112:120|128:88,1,136
176,56,124477,2,0,P|272:80|272:96,1,136
328,104,125372,2,0,P|368:192|328:208,1,136
304,232,126268,5,0,0:0:0:0:
256,272,126716,1,0,0:0:0:0:
200,288,127164,1,0,0:0:0:0:
144,264,127611,1,0,0:0:0:0:
104,216,128059,1,0,0:0:0:0:
104,152,128507,1,0,0:0:0:0:
128,96,128955,2,0,P|304:72|352:160,1,272
232,192,130298,1,0,0:0:0:0:
104,192,130746,6,0,P|264:328|280:320,1,272
104,192,132089,1,0,0:0:0:0:
136,64,132537,2,0,P|280:160|360:96,1,272
368,224,133880,1,0,0:0:0:0:
120,208,134328,2,0,P|264:320|344:296,1,272
408,184,135671,1,0,0:0:0:0:
120,56,136119,6,0,P|168:240|240:256,1,272
384,232,137462,1,0,0:0:0:0:
248,64,137910,1,0,0:0:0:0:
120,224,138358,1,0,0:0:0:0:
344,328,138805,1,0,0:0:0:0:
176,48,139253,1,0,0:0:0:0:
152,320,139701,1,0,0:0:0:0:
392,96,140149,1,0,0:0:0:0:
72,224,140596,1,0,0:0:0:0:
392,272,141044,1,0,0:0:0:0:
256,192,141492,1,0,0:0:0:0:
120,80,157611,6,0,P|152:192|192:192,1,170
288,160,158283,1,0,0:0:0:0:
288,160,158395,1,0,0:0:0:0:
288,160,158507,2,0,P|384:216|376:264,1,170
256,296,159402,1,0,0:0:0:0:
256,296,159626,1,0,0:0:0:0:
256,296,159850,1,0,0:0:0:0:
80,168,160298,6,0,P|184:208|176:272,1,170
304,216,160969,1,0,0:0:0:0:
304,216,161081,1,0,0:0:0:0:
304,216,161193,2,0,P|256:168|288:64,1,170
368,128,162089,1,0,0:0:0:0:
368,128,162313,1,0,0:0:0:0:
368,128,162537,1,0,0:0:0:0:
256,192,162984,12,0,164552,0:0:0:0:
384,96,164775,6,0,P|328:224|240:224,1,237.999992736817
96,96,165671,1,0,0:0:0:0:
96,96,165783,1,0,0:0:0:0:
96,96,165895,2,0,L|96:240,1,118.999996368408
152,280,166343,1,0,0:0:0:0:
152,192,166566,2,0,P|232:96|344:136,1,237.999992736817
368,200,167238,1,0,0:0:0:0:
368,288,167462,2,0,L|248:288,2,118.999996368408
112,192,168357,6,0,L|240:192,1,118.999996368408
232,72,168805,2,0,L|232:200,1,118.999996368408
232,312,169253,2,0,L|232:192,1,118.999996368408
352,192,169701,1,0,0:0:0:0:
352,192,169925,1,0,0:0:0:0:
352,192,170149,6,0,P|192:200|160:144,1,237.999992736817
264,112,170820,1,0,0:0:0:0:
352,192,171044,2,0,P|280:328|184:288,1,237.999992736817
112,80,171940,6,0,P|176:232|232:240,1,237.999992736817
344,216,172611,1,0,0:0:0:0:
344,216,172835,2,0,P|304:88|200:72,2,237.999992736817
296,304,173954,1,0,0:0:0:0:
200,328,174178,1,0,0:0:0:0:
120,272,174402,1,0,0:0:0:0:
72,176,174626,6,0,P|160:80|272:64,1,237.999992736817
352,104,175298,2,0,L|352:224,1,118.999996368408
352,344,175746,2,0,L|352:224,1,118.999996368408
232,224,176193,2,0,L|352:224,2,118.999996368408
136,208,176865,1,0,0:0:0:0:
96,120,177089,1,0,0:0:0:0:
168,48,177313,1,0,0:0:0:0:
168,48,177425,1,0,0:0:0:0:
168,48,177537,2,0,P|272:88|280:120,1,118.999996368408
384,304,178208,5,0,0:0:0:0:
384,304,178656,1,0,0:0:0:0:
384,304,179104,2,0,P|184:264|152:224,1,237.999992736817
120,136,179775,1,0,0:0:0:0:
208,48,179999,2,0,P|336:168|328:224,1,237.999992736817
264,304,180671,1,0,0:0:0:0:
144,304,180895,1,0,0:0:0:0:
144,192,181119,1,0,0:0:0:0:
264,192,181343,2,0,B|384:184|424:88|208:104,3,237.999992736817
128,104,183134,6,0,L|128:224,1,118.999996368408
248,224,183581,2,0,L|112:224,1,118.999996368408
128,344,184029,2,0,L|128:96,1,237.999992736817
232,104,184701,1,0,0:0:0:0:
336,136,184925,1,0,0:0:0:0:
392,224,185148,1,0,0:0:0:0:
328,304,185372,2,0,P|168:280|136:184,1,237.999992736817
160,128,186044,1,0,0:0:0:0:
160,128,186156,1,0,0:0:0:0:
160,128,186268,2,0,P|288:192|352:144,1,237.999992736817
408,216,187163,6,0,P|288:288|168:248,1,237.999992736817
112,208,187835,1,0,0:0:0:0:
112,112,188059,2,0,P|280:96|344:136,3,237.999992736817
368,280,189850,5,0,0:0:0:0:
120,272,190298,1,0,0:0:0:0:
120,160,190746,1,0,0:0:0:0:
120,160,190857,1,0,0:0:0:0:
120,160,190969,2,0,P|176:112|248:112,1,118.999996368408
304,144,191417,1,0,0:0:0:0:
360,232,191641,1,0,0:0:0:0:
304,312,191865,1,0,0:0:0:0:
200,320,192089,1,0,0:0:0:0:
96,96,192537,5,0,0:0:0:0:
168,160,192760,1,0,0:0:0:0:
264,152,192984,1,0,0:0:0:0:
424,192,193432,5,0,0:0:0:0:
