osu file format v12

[General]
AudioFilename: Jenny.mp3
AudioLeadIn: 0
PreviewTime: -1
Countdown: 0
SampleSet: Normal
StackLeniency: 0.7
Mode: 0
LetterboxInBreaks: 1
WidescreenStoryboard: 1

[Editor]
DistanceSpacing: 1.2
BeatDivisor: 4
GridSize: 8

[Metadata]
Title:Jenny
TitleUnicode:Jenny
Artist:Studio Killers
ArtistUnicode:Studio Killers
Creator:Lgndzr
Version:Insane
Source:Studio Killers
Tags:Studio Killers 2013 Jenny
BeatmapID:310778
BeatmapSetID:118487

[Difficulty]
HPDrainRate:8
CircleSize:5
OverallDifficulty:6
ApproachRate:9
SliderMultiplier:1.7
SliderTickRate:1

[Events]
//Background and Video events
0,0,"cover.jpg",0,0
//Break Periods
2,50349,56713
2,143930,157011
//Storyboard Layer 0 (Background)
//Storyboard Layer 1 (Fail)
//Storyboard Layer 2 (Pass)
//Storyboard Layer 3 (Foreground)
//Storyboard Sound Samples
//Background Colour Transformations
3,100,163,162,255

[TimingPoints]
0,447.760572621533,4,1,0,100,1,0
35820,-83.3333333333333,4,1,0,100,0,1
50149,-100,4,1,0,100,0,0
85970,-83.3333333333333,4,1,0,100,0,1
114626,-125,4,1,0,100,0,0
157611,-100,4,1,0,100,0,0
164775,-71.4285714285714,4,1,0,100,0,1
193432,-100,4,1,0,100,0,0

[Colours]
Combo1 : 190,180,54
Combo2 : 0,255,255
Combo3 : 255,0,128

[HitObjects]
136,280,7164,1,0,0:0:0:0:
136,280,7388,1,0,0:0:0:0:
280,152,7611,2,0,P|224:256|240:320,2,170
280,152,8731,2,0,P|136:144|112:120,1,170
200,64,9402,1,0,0:0:0:0:
248,256,9626,1,0,0:0:0:0:
280,152,9850,1,0,0:0:0:0:
280,152,9962,1,0,0:0:0:0:
280,152,10074,1,0,0:0:0:0:
400,272,10746,5,0,0:0:0:0:
400,272,10858,1,0,0:0:0:0:
400,272,10970,1,0,0:0:0:0:
104,272,11417,1,0,0:0:0:0:
104,272,11641,1,0,0:0:0:0:
384,80,12313,6,0,L|312:144,1,85
200,328,12761,2,0,L|272:264,1,85
208,72,13208,2,0,L|168:152,1,85
376,288,13656,6,0,P|296:128|216:88,1,255
112,208,14552,1,0,0:0:0:0:
112,208,14776,2,0,P|216:136|288:152,2,170
152,288,15895,5,0,0:0:0:0:
240,256,16119,1,0,0:0:0:0:
288,72,16343,1,0,0:0:0:0:
368,128,16567,6,0,L|368:304,3,170
120,104,18581,1,0,0:0:0:0:
120,104,18805,1,0,0:0:0:0:
384,152,19477,1,0,0:0:0:0:
368,128,19925,1,0,0:0:0:0:
352,104,20373,5,0,0:0:0:0:
336,80,20485,1,0,0:0:0:0:
320,56,20596,2,0,P|304:160|248:208,1,170
384,296,21492,6,0,P|296:232|232:248,1,170
152,288,22164,1,0,0:0:0:0:
80,208,22388,1,0,0:0:0:0:
384,72,22835,1,0,0:0:0:0:
384,72,23283,6,0,P|248:120|224:160,1,170
136,120,23955,1,0,0:0:0:0:
256,328,24179,1,0,0:0:0:0:
256,328,24291,1,0,0:0:0:0:
256,328,24402,1,0,0:0:0:0:
416,192,25074,5,0,0:0:0:0:
416,192,25746,1,0,0:0:0:0:
416,192,25970,1,0,0:0:0:0:
176,80,26641,6,0,L|104:144,1,85
320,320,27089,2,0,L|384:256,1,85
176,80,27537,2,0,L|112:152,1,85
112,320,27985,1,0,0:0:0:0:
192,264,28208,1,0,0:0:0:0:
264,208,28432,5,0,0:0:0:0:
288,184,28544,1,0,0:0:0:0:
312,168,28656,2,0,P|312:280|400:160,1,340
360,224,29776,5,0,0:0:0:0:
320,304,29999,1,0,0:0:0:0:
224,328,30223,1,0,0:0:0:0:
88,120,30447,2,0,P|168:72|192:80,1,85
88,120,31119,2,0,P|128:184|424:120,1,425
304,96,32910,5,0,0:0:0:0:
304,96,33134,1,0,0:0:0:0:
256,192,33358,12,0,35596,0:0:0:0:
104,192,35820,6,0,P|264:104|272:88,1,203.999993774414
368,96,36492,1,0,0:0:0:0:
400,312,36716,1,0,0:0:0:0:
320,336,36940,1,0,0:0:0:0:
256,288,37164,1,0,0:0:0:0:
120,72,37388,5,0,0:0:0:0:
208,104,37611,1,0,0:0:0:0:
224,192,37835,1,0,0:0:0:0:
432,192,38059,1,0,0:0:0:0:
136,192,38283,5,0,0:0:0:0:
192,272,38507,1,0,0:0:0:0:
288,280,38731,1,0,0:0:0:0:
360,224,38955,1,2,0:0:0:0:
360,192,39067,1,2,0:0:0:0:
360,160,39179,1,2,0:0:0:0:
128,192,39402,6,0,L|256:192,1,101.999996887207
336,192,39850,2,0,L|216:192,1,101.999996887207
48,192,40298,2,0,L|184:192,1,101.999996887207
464,192,40746,2,0,L|352:192,1,101.999996887207
248,192,41193,5,0,0:0:0:0:
160,152,41417,1,0,0:0:0:0:
208,72,41641,1,0,0:0:0:0:
368,296,41865,5,0,0:0:0:0:
408,208,42089,1,0,0:0:0:0:
344,144,42313,1,0,0:0:0:0:
96,304,42537,5,0,0:0:0:0:
96,216,42761,1,0,0:0:0:0:
96,128,42985,2,0,P|216:64|416:216,1,407.999987548829
352,88,44328,5,0,0:0:0:0:
272,136,44552,1,0,0:0:0:0:
344,192,44776,1,0,0:0:0:0:
104,312,44999,5,0,0:0:0:0:
136,224,45223,1,0,0:0:0:0:
200,288,45447,1,0,0:0:0:0:
448,56,45671,5,0,0:0:0:0:
424,144,45895,1,0,0:0:0:0:
328,168,46119,1,0,0:0:0:0:
352,80,46343,1,0,0:0:0:0:
256,104,46567,6,0,L|256:216,1,101.999996887207
256,272,47014,2,0,L|256:168,1,101.999996887207
256,24,47462,2,0,L|256:144,1,101.999996887207
256,352,47910,2,0,L|256:232,1,101.999996887207
256,176,48358,5,0,0:0:0:0:
144,56,48582,1,0,0:0:0:0:
88,152,48805,1,0,0:0:0:0:
128,264,49029,5,0,0:0:0:0:
376,64,49253,1,0,0:0:0:0:
424,160,49477,1,0,0:0:0:0:
376,272,49701,5,0,0:0:0:0:
144,56,49925,1,0,0:0:0:0:
376,272,50149,1,0,0:0:0:0:
112,80,57313,6,0,P|152:200|176:192,1,170
240,184,57984,1,0,0:0:0:0:
352,184,58208,1,0,0:0:0:0:
352,184,58320,1,0,0:0:0:0:
352,184,58432,1,0,0:0:0:0:
80,192,58880,6,0,P|168:280|200:272,1,170
176,176,59552,1,0,0:0:0:0:
272,144,59776,1,0,0:0:0:0:
296,128,59887,1,0,0:0:0:0:
320,112,59999,2,0,P|296:208|344:256,2,170
96,104,61567,5,0,0:0:0:0:
96,104,61790,1,0,0:0:0:0:
384,264,62462,5,0,0:0:0:0:
376,232,62910,1,0,0:0:0:0:
368,200,63358,1,0,0:0:0:0:
360,168,63470,1,0,0:0:0:0:
352,136,63582,2,0,L|304:208,1,85
200,208,64029,2,0,L|248:128,1,85
96,256,64477,5,0,0:0:0:0:
192,312,64701,1,0,0:0:0:0:
288,256,64925,1,0,0:0:0:0:
120,64,65149,1,0,0:0:0:0:
120,64,65373,2,0,P|192:144|288:144,1,170
352,112,66044,5,0,0:0:0:0:
408,208,66268,1,0,0:0:0:0:
256,256,66492,1,0,0:0:0:0:
112,224,66716,1,0,0:0:0:0:
112,224,66828,1,0,0:0:0:0:
112,224,66940,1,0,0:0:0:0:
112,80,67164,1,0,0:0:0:0:
112,80,67276,1,0,0:0:0:0:
112,80,67387,1,0,0:0:0:0:
320,80,67611,5,0,0:0:0:0:
376,176,67835,1,0,0:0:0:0:
304,304,68059,2,0,B|216:120|320:32|160:256,1,340
96,160,69626,5,0,0:0:0:0:
96,160,70074,1,0,0:0:0:0:
96,160,70522,1,0,0:0:0:0:
96,160,70970,1,0,0:0:0:0:
96,160,71193,6,0,P|200:88|240:88,1,170
320,144,71865,1,0,0:0:0:0:
160,304,72089,1,0,0:0:0:0:
312,320,72313,1,0,0:0:0:0:
320,144,72537,1,0,0:0:0:0:
320,144,72649,1,0,0:0:0:0:
320,144,72761,1,0,0:0:0:0:
128,80,73208,5,0,0:0:0:0:
128,80,73656,1,0,0:0:0:0:
128,80,74104,2,0,P|200:256|392:192,1,425
256,144,75895,5,0,0:0:0:0:
256,144,76119,1,0,0:0:0:0:
424,192,76790,1,0,0:0:0:0:
424,192,77238,1,0,0:0:0:0:
424,192,77686,1,0,0:0:0:0:
424,192,77910,2,0,L|240:192,1,170
128,80,78805,5,0,0:0:0:0:
168,176,79029,1,0,0:0:0:0:
392,72,79253,2,0,P|312:168|320:216,1,170
368,200,80149,5,0,0:0:0:0:
320,312,80373,1,0,0:0:0:0:
320,312,80596,2,0,P|200:256|184:216,1,170
272,216,81268,6,0,P|208:144|128:160,1,170
272,216,81940,1,0,0:0:0:0:
416,152,82164,1,0,0:0:0:0:
416,152,82387,1,0,0:0:0:0:
416,152,82499,1,0,0:0:0:0:
416,152,82611,1,0,0:0:0:0:
80,192,83059,5,0,0:0:0:0:
80,192,83283,1,0,0:0:0:0:
256,192,83507,12,0,85746,0:0:0:0:
96,88,85970,6,0,L|312:88,1,203.999993774414
392,152,86641,1,0,0:0:0:0:
368,256,86865,1,0,0:0:0:0:
96,168,87089,5,0,0:0:0:0:
392,152,87313,1,0,0:0:0:0:
344,64,87537,1,0,0:0:0:0:
96,248,87761,5,0,0:0:0:0:
368,256,87984,1,0,0:0:0:0:
344,64,88208,2,0,P|224:112|208:184,1,203.999993774414
208,264,88880,1,0,0:0:0:0:
208,264,89104,2,0,P|192:184|136:152,1,101.999996887207
160,104,89552,6,0,L|272:104,1,101.999996887207
336,152,89999,2,0,L|224:152,1,101.999996887207
48,192,90447,2,0,L|176:192,1,101.999996887207
448,248,90895,2,0,L|320:248,1,101.999996887207
240,248,91343,5,0,0:0:0:0:
120,288,91567,1,0,0:0:0:0:
120,104,91790,1,0,0:0:0:0:
240,48,92014,1,0,0:0:0:0:
368,104,92238,2,0,P|304:176|320:304,1,203.999993774414
368,104,93134,6,0,P|256:168|144:152,1,203.999993774414
96,120,93805,1,0,0:0:0:0:
96,320,94029,1,0,0:0:0:0:
216,240,94253,1,0,0:0:0:0:
184,240,94365,1,0,0:0:0:0:
152,240,94477,2,0,P|208:168|160:72,1,203.999993774414
96,120,95149,5,0,0:0:0:0:
96,320,95373,1,0,0:0:0:0:
256,320,95820,1,0,0:0:0:0:
256,320,96268,1,0,0:0:0:0:
256,120,96716,6,0,L|256:240,1,101.999996887207
344,224,97164,2,0,L|344:120,1,101.999996887207
168,120,97611,2,0,L|168:232,1,101.999996887207
432,224,98059,2,0,L|432:104,2,101.999996887207
384,320,98731,5,0,0:0:0:0:
248,280,98955,1,0,0:0:0:0:
168,160,99178,1,0,0:0:0:0:
264,56,99402,2,0,P|360:144|352:208,1,203.999993774414
104,296,100298,6,0,P|216:160|200:128,1,203.999993774414
200,64,100970,1,0,0:0:0:0:
288,64,101193,1,0,0:0:0:0:
304,152,101417,1,0,0:0:0:0:
400,256,101641,5,0,0:0:0:0:
336,312,101865,1,0,0:0:0:0:
248,288,102089,2,0,P|168:184|184:112,2,203.999993774414
400,88,103432,5,0,0:0:0:0:
192,192,103880,5,0,0:0:0:0:
192,192,103992,1,0,0:0:0:0:
192,192,104104,1,0,0:0:0:0:
320,192,104328,5,0,0:0:0:0:
320,192,104440,1,0,0:0:0:0:
320,192,104552,1,0,0:0:0:0:
72,192,104775,5,0,0:0:0:0:
72,192,104887,1,0,0:0:0:0:
72,192,104999,1,0,0:0:0:0:
432,192,105223,5,0,0:0:0:0:
432,192,105447,2,0,P|360:88|272:112,2,203.999993774414
240,296,106790,1,0,0:0:0:0:
104,192,107238,5,0,0:0:0:0:
104,192,107462,2,0,P|208:104|288:112,1,203.999993774414
104,192,108358,2,0,P|240:288|296:256,1,203.999993774414
328,208,109029,1,0,0:0:0:0:
304,120,109253,1,0,0:0:0:0:
128,64,109477,5,0,0:0:0:0:
64,136,109701,1,0,0:0:0:0:
88,232,109925,1,0,0:0:0:0:
408,64,110149,5,0,0:0:0:0:
432,152,110372,1,0,0:0:0:0:
304,120,110596,1,0,0:0:0:0:
304,120,110708,1,0,0:0:0:0:
304,120,110820,1,0,0:0:0:0:
184,72,111044,6,0,L|232:176,1,101.999996887207
184,320,111492,2,0,L|248:200,1,101.999996887207
344,72,111940,2,0,L|280:192,1,101.999996887207
344,320,112387,2,0,L|296:208,1,101.999996887207
200,112,112835,5,0,0:0:0:0:
256,240,113059,1,0,0:0:0:0:
288,88,113283,1,0,0:0:0:0:
168,248,113507,1,0,0:0:0:0:
352,152,113731,1,0,0:0:0:0:
112,184,113955,1,0,0:0:0:0:
336,248,114178,1,0,0:0:0:0:
128,104,114402,1,0,0:0:0:0:
240,176,114626,1,0,0:0:0:0:
392,296,115522,5,0,0:0:0:0:
328,296,115969,1,0,0:0:0:0:
264,296,116417,1,0,0:0:0:0:
264,296,116529,1,0,0:0:0:0:
264,296,116641,1,0,0:0:0:0:
120,88,117313,5,0,0:0:0:0:
184,88,117761,1,0,0:0:0:0:
248,88,118208,1,0,0:0:0:0:
248,88,118320,1,0,0:0:0:0:
248,88,118432,1,0,0:0:0:0:
384,192,119104,5,0,0:0:0:0:
384,288,119552,1,0,0:0:0:0:
280,288,119999,1,0,0:0:0:0:
280,192,120447,1,0,0:0:0:0:
280,96,120895,1,0,0:0:0:0:
176,96,121343,1,0,0:0:0:0:
176,192,121790,1,0,0:0:0:0:
176,192,121902,1,0,0:0:0:0:
176,192,122014,1,0,0:0:0:0:
176,96,122686,5,0,0:0:0:0:
280,96,123134,1,0,0:0:0:0:
384,96,123581,1,0,0:0:0:0:
384,200,124029,1,0,0:0:0:0:
280,200,124477,1,0,0:0:0:0:
176,200,124925,1,0,0:0:0:0:
176,296,125372,1,0,0:0:0:0:
176,296,125484,1,0,0:0:0:0:
176,296,125596,1,0,0:0:0:0:
176,200,126268,5,0,0:0:0:0:
176,96,126716,1,0,0:0:0:0:
288,96,127164,1,0,0:0:0:0:
288,200,127611,1,0,0:0:0:0:
288,296,128059,1,0,0:0:0:0:
392,296,128507,1,0,0:0:0:0:
392,200,128955,2,0,P|296:104|72:200,1,408
72,200,130746,6,0,P|304:280|424:192,1,408
336,112,132537,1,0,0:0:0:0:
184,112,132984,1,0,0:0:0:0:
96,192,133432,6,0,P|168:256|224:256,1,136
352,224,134328,2,0,P|352:120|328:96,1,136
168,80,135223,2,0,P|88:144|96:160,1,136
88,296,136119,6,0,P|216:216|448:304,1,408
88,296,137910,2,0,P|184:144|400:128,1,408
392,216,139701,5,0,0:0:0:0:
304,280,140149,1,0,0:0:0:0:
200,248,140596,1,0,0:0:0:0:
152,152,141044,1,0,0:0:0:0:
224,72,141492,2,0,P|376:120|368:224,1,272
296,272,142835,2,0,P|160:240|168:120,1,272
400,80,157611,6,0,P|272:104|256:128,1,170
336,152,158283,1,0,0:0:0:0:
424,160,158507,2,0,P|384:272|344:280,1,170
176,88,159402,6,0,P|96:136|80:224,1,170
304,320,160298,2,0,P|384:240|360:168,1,170
72,200,161193,2,0,P|104:304|192:328,1,170
408,128,162089,2,0,P|336:56|272:56,1,170
256,192,162984,5,0,0:0:0:0:
104,80,164775,6,0,L|224:80,1,118.999996368408
360,280,165223,2,0,L|240:280,1,118.999996368408
104,80,165671,2,0,L|104:208,1,118.999996368408
104,296,166119,5,0,0:0:0:0:
216,304,166343,1,0,0:0:0:0:
296,224,166566,2,0,P|328:104|232:88,1,237.999992736817
424,280,167462,6,0,P|336:248|320:96,1,237.999992736817
256,64,168357,6,0,L|128:64,1,118.999996368408
256,320,168805,2,0,L|384:320,1,118.999996368408
80,192,169253,2,0,L|80:72,1,118.999996368408
448,192,169701,2,0,L|448:312,1,118.999996368408
448,192,170149,5,0,0:0:0:0:
360,120,170372,1,0,0:0:0:0:
232,112,170596,1,0,0:0:0:0:
288,208,170820,1,0,0:0:0:0:
144,304,171044,5,0,0:0:0:0:
80,224,171268,1,0,0:0:0:0:
128,136,171492,2,0,P|216:72|240:80,1,118.999996368408
416,208,171940,6,0,P|336:304|200:288,1,237.999992736817
416,208,172835,2,0,P|280:96|176:96,1,237.999992736817
88,192,173731,5,0,0:0:0:0:
184,136,173954,1,0,0:0:0:0:
88,192,174178,1,0,0:0:0:0:
392,96,174402,1,0,0:0:0:0:
408,296,174626,5,0,0:0:0:0:
352,208,174850,1,0,0:0:0:0:
304,296,175074,2,0,P|232:320|176:288,1,118.999996368408
96,136,175522,6,0,L|192:56,1,118.999996368408
344,56,175969,2,0,L|440:152,1,118.999996368408
440,240,176417,2,0,L|352:336,1,118.999996368408
176,328,176865,2,0,L|88:232,1,118.999996368408
120,144,177313,5,0,0:0:0:0:
200,224,177537,1,0,0:0:0:0:
224,112,177760,1,0,0:0:0:0:
416,280,178208,5,0,0:0:0:0:
320,224,178432,1,0,0:0:0:0:
312,328,178656,1,0,0:0:0:0:
320,224,178880,1,0,0:0:0:0:
400,144,179104,6,0,P|336:88|168:120,3,237.999992736817
112,168,180671,1,0,0:0:0:0:
88,256,180895,2,0,P|208:296|304:232,3,237.999992736817
416,192,182686,6,0,P|328:152|320:120,1,118.999996368408
96,224,183134,2,0,P|184:272|192:304,1,118.999996368408
416,192,183581,2,0,P|320:248|320:256,1,118.999996368408
96,224,184029,2,0,P|176:160|208:160,1,118.999996368408
280,200,184477,5,0,0:0:0:0:
304,304,184701,1,0,0:0:0:0:
280,200,184925,1,0,0:0:0:0:
280,200,185037,1,0,0:0:0:0:
280,200,185148,1,0,0:0:0:0:
256,104,185372,6,0,P|152:96|96:208,1,237.999992736817
392,128,186268,6,0,P|360:288|104:232,2,475.999985473633
224,64,188507,1,0,0:0:0:0:
224,240,188954,1,0,0:0:0:0:
400,240,189402,1,0,0:0:0:0:
400,64,189850,6,0,P|336:160|312:152,1,118.999996368408
104,288,190298,2,0,P|144:192|176:192,1,118.999996368408
400,64,190746,2,0,P|272:80|264:88,1,118.999996368408
104,288,191193,2,0,P|184:296|208:264,1,118.999996368408
248,192,191641,5,0,0:0:0:0:
248,72,191865,1,0,0:0:0:0:
400,192,192089,1,0,0:0:0:0:
248,320,192313,1,0,0:0:0:0:
104,192,192537,1,0,0:0:0:0:
400,192,192760,5,0,0:0:0:0:
104,72,192984,1,0,0:0:0:0:
392,72,193208,1,0,0:0:0:0:
104,312,193432,1,0,0:0:0:0:
