osu file format v13

[General]
AudioFilename: bgm_ep10_ancient_dragon.mp3
AudioLeadIn: 0
PreviewTime: 0
Countdown: 0
SampleSet: Normal
StackLeniency: 0.7
Mode: 0
LetterboxInBreaks: 1
WidescreenStoryboard: 1

[Editor]
DistanceSpacing: 1
BeatDivisor: 4
GridSize: 16
TimelineZoom: 1

[Metadata]
Title:Ancient Dragon
TitleUnicode:Ancient Dragon
Artist:Studio EiM & Chaotic Content
ArtistUnicode:Studio EiM & Chaotic Content
Creator:YowzaH
Version:Hard
Source:Vindictus
Tags:
BeatmapID:455980
BeatmapSetID:191362

[Difficulty]
HPDrainRate:4
CircleSize:4
OverallDifficulty:5
ApproachRate:8
SliderMultiplier:1.5
SliderTickRate:1

[Events]
//Background and Video events
0,0,"Siglint Background.jpg",0,0
//Break Periods
2,34600,36850
2,61227,66134
2,112474,123238
//Storyboard Layer 0 (Background)
//Storyboard Layer 1 (Fail)
//Storyboard Layer 2 (Pass)
//Storyboard Layer 3 (Foreground)
//Storyboard Sound Samples
//Background Colour Transformations
3,100,0,18,242

[TimingPoints]
0,400,4,1,0,100,1,0
0,-100,4,1,0,100,0,0
37600,366.053658536585,4,1,0,100,1,0
75669,-200,4,1,0,100,0,0
77133,-100,4,1,0,100,0,0

[HitObjects]
144,112,0,5,0,0:0:0:0:
384,272,400,1,0,0:0:0:0:
256,192,800,12,0,6000,0:0:0:0:
416,95,6400,5,0,0:0:0:0:
96,290,6800,1,0,0:0:0:0:
256,192,7200,12,0,14400,0:0:0:0:
109,69,14800,5,0,0:0:0:0:
183,127,15000,1,0,0:0:0:0:
256,192,15200,2,0,P|256:224|288:256,1,75
350,218,15600,2,0,P|352:192|310:164,1,75
112,135,16800,6,0,P|96:96|128:64,1,75
374,71,17200,2,0,P|384:96|377:144,1,75
208,320,18400,6,0,P|194:359|162:327,1,75,0|0,0:0|0:0,0:0:0:0:
304,320,18800,2,0,P|320:352|355:324,1,75
423,139,20000,6,0,P|448:160|428:203,1,75
288,224,20400,2,0,P|241:208|269:172,1,75
112,73,21600,5,0,0:0:0:0:
334,109,22000,1,0,0:0:0:0:
424,64,22200,1,0,0:0:0:0:
445,157,22400,1,0,0:0:0:0:
121,248,22800,5,0,0:0:0:0:
139,336,23000,1,0,0:0:0:0:
237,313,23200,1,0,0:0:0:0:
438,243,23600,5,0,0:0:0:0:
441,331,23800,1,0,0:0:0:0:
343,315,24000,1,0,0:0:0:0:
81,157,24400,5,0,0:0:0:0:
128,80,24600,1,0,0:0:0:0:
224,96,24800,1,0,0:0:0:0:
314,101,25000,1,0,0:0:0:0:
459,37,25200,5,0,0:0:0:0:
368,80,25400,1,0,0:0:0:0:
304,160,25600,1,0,0:0:0:0:
192,176,25800,1,0,0:0:0:0:
63,230,26000,5,0,0:0:0:0:
160,256,26200,1,0,0:0:0:0:
240,192,26400,1,0,0:0:0:0:
192,112,26600,1,0,0:0:0:0:
64,32,26800,5,0,0:0:0:0:
96,128,27000,1,0,0:0:0:0:
208,160,27200,1,0,0:0:0:0:
286,250,27400,1,0,0:0:0:0:
352,320,27600,5,0,0:0:0:0:
432,272,27800,1,0,0:0:0:0:
432,224,28000,2,0,B|416:128|352:64|256:64|256:64|176:64|112:128|112:192|112:192|112:256|176:320|240:320|240:320|304:320|352:272|352:224|352:224|352:176|304:144|256:144|256:144|208:144|192:176|192:192|192:192|192:224|224:240|240:240|240:240|272:240|288:224|256:208,1,1200
256,192,31600,12,0,34400,0:0:0:0:
256,192,37600,5,0,0:0:0:0:
416,193,37966,1,0,0:0:0:0:
256,192,38332,1,0,0:0:0:0:
184,193,38515,1,0,0:0:0:0:
112,192,38698,1,0,0:0:0:0:
41,192,38881,1,0,0:0:0:0:
41,192,39064,5,0,0:0:0:0:
256,192,39430,1,0,0:0:0:0:
41,192,39796,1,0,0:0:0:0:
112,192,39979,1,0,0:0:0:0:
185,192,40162,1,0,0:0:0:0:
256,192,40345,1,0,0:0:0:0:
256,192,40528,5,0,0:0:0:0:
256,32,40894,1,0,0:0:0:0:
256,192,41260,1,0,0:0:0:0:
257,266,41443,1,0,0:0:0:0:
256,338,41626,1,0,0:0:0:0:
257,266,41809,1,0,0:0:0:0:
256,192,41992,5,0,0:0:0:0:
256,338,42358,1,0,0:0:0:0:
256,192,42724,1,0,0:0:0:0:
256,124,42907,1,0,0:0:0:0:
256,55,43090,1,0,0:0:0:0:
256,124,43273,1,0,0:0:0:0:
256,192,43456,5,0,0:0:0:0:
96,64,43822,2,0,P|124:71|132:130,1,75
160,192,44188,2,0,P|154:236|110:246,1,75
223,319,44555,2,0,P|256:352|303:350,1,75
383,316,44921,6,0,P|416:288|403:229,1,75
423,166,45287,1,0,0:0:0:0:
394,80,45470,1,0,0:0:0:0:
314,52,45653,1,0,0:0:0:0:
241,52,45836,1,0,0:0:0:0:
166,78,46019,1,0,0:0:0:0:
112,144,46202,1,0,0:0:0:0:
64,208,46385,5,0,0:0:0:0:
192,304,46751,1,0,0:0:0:0:
272,288,46934,1,0,0:0:0:0:
62,229,47849,5,0,0:0:0:0:
183,97,48215,1,0,0:0:0:0:
272,64,48398,1,0,0:0:0:0:
446,68,49313,5,0,0:0:0:0:
385,122,49496,1,0,0:0:0:0:
451,166,49679,1,0,0:0:0:0:
387,224,49862,1,0,0:0:0:0:
453,266,50045,2,0,P|448:304|390:335,1,75
336,330,50411,2,0,P|320:288|272:302,1,75
209,295,50777,5,0,0:0:0:0:
128,272,50960,1,0,0:0:0:0:
96,208,51143,1,0,0:0:0:0:
72,142,51327,1,0,0:0:0:0:
82,52,51510,2,0,P|128:32|157:73,1,75
193,129,51876,2,0,P|224:160|283:154,1,75
256,192,52242,12,0,53706,0:0:0:0:
68,54,54072,5,0,0:0:0:0:
160,112,54255,1,0,0:0:0:0:
256,51,54438,1,0,0:0:0:0:
368,112,54621,1,0,0:0:0:0:
470,51,54804,1,0,0:0:0:0:
368,112,54987,1,0,0:0:0:0:
257,257,55170,6,0,P|176:288|96:256,1,150,0|0,0:0|0:0,0:0:0:0:
258,256,55902,2,0,P|336:288|423:258,1,150
257,122,56634,6,0,P|208:64|134:102,1,150
257,124,57366,2,0,P|336:64|392:97,1,150
80,80,58099,5,0,0:0:0:0:
143,161,58282,1,0,0:0:0:0:
208,80,58465,1,0,0:0:0:0:
320,256,58831,5,0,0:0:0:0:
390,337,59014,1,0,0:0:0:0:
464,256,59197,1,0,0:0:0:0:
210,344,59563,5,0,0:0:0:0:
128,256,59746,1,0,0:0:0:0:
46,340,59929,1,0,0:0:0:0:
480,158,60295,5,0,0:0:0:0:
384,80,60478,1,0,0:0:0:0:
292,155,60661,1,0,0:0:0:0:
256,191,61027,5,0,0:0:0:0:
80,64,66884,6,0,L|152:133,1,75
432,64,67616,6,0,L|360:133,1,75
432,320,68348,6,0,L|360:251,1,75
80,320,69080,6,0,L|152:251,1,75
223,160,69812,5,0,0:0:0:0:
289,162,69995,1,0,0:0:0:0:
290,226,70178,1,0,0:0:0:0:
219,226,70361,1,0,0:0:0:0:
257,193,70544,1,0,0:0:0:0:
290,226,71276,5,0,0:0:0:0:
289,162,71459,1,0,0:0:0:0:
222,161,71642,1,0,0:0:0:0:
219,226,71826,1,0,0:0:0:0:
257,193,72009,1,0,0:0:0:0:
128,97,72741,5,0,0:0:0:0:
128,97,72924,1,0,0:0:0:0:
384,96,73473,5,0,0:0:0:0:
384,96,73656,1,0,0:0:0:0:
224,224,74205,5,0,0:0:0:0:
64,288,74479,1,0,0:0:0:0:
224,352,74754,1,0,0:0:0:0:
288,224,74937,5,0,0:0:0:0:
448,288,75212,1,0,0:0:0:0:
288,352,75486,1,0,0:0:0:0:
256,256,75669,6,0,L|256:208,3,37.5,0|0|0|0,0:0|0:0|0:0|0:0,0:0:0:0:
256,128,76401,2,0,L|256:176,3,37.5,0|0|0|0,0:0|0:0|0:0|0:0,0:0:0:0:
256,192,77133,5,0,0:0:0:0:
256,192,77316,1,0,0:0:0:0:
192,32,77865,6,0,L|96:32,1,75,0|0,0:0|0:0,0:0:0:0:
112,128,78231,2,0,L|208:128,1,75,0|0,0:0|0:0,0:0:0:0:
256,192,78598,5,0,0:0:0:0:
256,192,78781,1,0,0:0:0:0:
352,32,79330,6,0,L|448:32,1,75
432,128,79696,2,0,L|336:128,1,75
256,192,80062,5,0,0:0:0:0:
256,192,80245,1,0,0:0:0:0:
208,144,80794,5,0,0:0:0:0:
304,144,80977,1,0,0:0:0:0:
304,240,81160,1,0,0:0:0:0:
208,240,81343,1,0,0:0:0:0:
128,144,81526,6,0,P|160:96|192:96,1,75
336,96,81892,2,0,P|368:96|368:144,1,75
384,240,82258,6,0,P|352:288|320:288,1,75
176,288,82624,2,0,P|144:288|128:240,1,75
256,192,82990,5,0,0:0:0:0:
256,192,83173,1,0,0:0:0:0:
320,352,83722,6,0,L|416:352,1,75
400,256,84088,2,0,L|304:256,1,75
256,192,84454,5,0,0:0:0:0:
256,192,84637,1,0,0:0:0:0:
192,352,85186,6,0,L|96:352,1,75
112,256,85553,2,0,L|208:256,1,75
256,192,85919,5,0,0:0:0:0:
256,192,86102,1,0,0:0:0:0:
320,256,86651,5,0,0:0:0:0:
320,128,86834,1,0,0:0:0:0:
192,128,87017,1,0,0:0:0:0:
192,256,87200,1,0,0:0:0:0:
256,192,87383,6,0,L|256:96,1,75
256,192,87749,2,0,L|352:192,1,75
256,192,88115,2,0,L|256:288,1,75
256,192,88481,2,0,L|160:192,1,75,0|0,0:0|0:0,0:0:0:0:
64,128,88847,6,0,P|128:64|192:96,3,150,0|0|0|0,0:0|0:0|0:0|0:0,0:0:0:0:
448,128,90311,2,0,P|384:64|320:96,3,150,0|0|0|0,0:0|0:0|0:0|0:0,0:0:0:0:
208,128,91775,6,0,L|288:128,3,75,0|0|0|0,0:0|0:0|0:0|0:0,0:0:0:0:
283,128,92508,2,0,L|288:208,3,75,0|0|0|0,0:0|0:0|0:0|0:0,0:0:0:0:
288,224,93240,2,0,L|205:221,3,75,0|0|0|0,0:0|0:0|0:0|0:0,0:0:0:0:
207,227,93972,2,0,L|208:128,2,75,0|0|0,0:0|0:0|0:0,0:0:0:0:
64,256,94704,6,0,P|128:320|192:288,3,150,0|0|0|0,0:0|0:0|0:0|0:0,0:0:0:0:
448,256,96168,2,0,P|384:320|352:288,3,150,0|0|0|0,0:0|0:0|0:0|0:0,0:0:0:0:
256,192,97632,12,0,98730,0:0:0:0:
256,128,99097,5,0,0:0:0:0:
320,192,99280,1,0,0:0:0:0:
256,256,99463,1,0,0:0:0:0:
192,192,99646,1,0,0:0:0:0:
320,128,99829,5,0,0:0:0:0:
320,256,100012,1,0,0:0:0:0:
192,256,100195,1,0,0:0:0:0:
192,128,100378,1,0,0:0:0:0:
256,192,100561,5,0,0:0:0:0:
256,192,100744,1,0,0:0:0:0:
128,96,101293,5,0,0:0:0:0:
128,96,101476,1,0,0:0:0:0:
384,96,102025,5,0,0:0:0:0:
384,96,102208,1,0,0:0:0:0:
192,160,102757,5,0,0:0:0:0:
320,160,103032,1,0,0:0:0:0:
256,32,103306,1,0,0:0:0:0:
256,192,103489,5,0,0:0:0:0:
256,192,103672,1,0,0:0:0:0:
384,288,104221,5,0,0:0:0:0:
384,288,104404,1,0,0:0:0:0:
128,288,104953,5,0,0:0:0:0:
128,288,105136,1,0,0:0:0:0:
320,224,105685,5,0,0:0:0:0:
192,224,105960,1,0,0:0:0:0:
256,352,106235,1,0,0:0:0:0:
256,192,106418,5,0,0:0:0:0:
256,192,106601,1,0,0:0:0:0:
160,192,106784,2,0,P|112:192|96:160,1,75
256,192,107150,5,0,0:0:0:0:
256,192,107333,1,0,0:0:0:0:
352,192,107516,2,0,P|400:192|416:160,1,75
256,192,107882,5,0,0:0:0:0:
256,192,108065,1,0,0:0:0:0:
224,96,108248,2,0,P|256:80|288:96,1,75
112,192,108614,5,0,0:0:0:0:
256,352,108888,1,0,0:0:0:0:
400,192,109163,1,0,0:0:0:0:
256,192,109346,5,0,0:0:0:0:
128,64,109621,1,0,0:0:0:0:
384,64,109895,1,0,0:0:0:0:
384,320,110078,1,0,0:0:0:0:
128,320,110353,1,0,0:0:0:0:
256,192,110627,1,0,0:0:0:0:
256,192,110810,12,0,112274,0:0:0:0:
64,64,123988,6,0,L|96:144,1,75
160,160,124354,2,0,L|192:80,1,75
288,64,124720,2,0,L|320:144,1,75
400,160,125086,2,0,L|432:80,1,75
448,240,125452,6,0,L|416:320,1,75
352,304,125818,2,0,L|320:224,1,75
208,240,126184,2,0,L|176:320,1,75
96,304,126551,2,0,L|64:224,1,75
96,144,126917,6,0,P|96:80|176:80,1,150
336,80,127649,2,0,P|400:80|416:160,1,150
400,240,128381,6,0,P|400:320|336:320,1,150
192,320,129113,2,0,P|128:320|128:240,1,150
96,64,129845,5,0,0:0:0:0:
288,64,130211,1,0,0:0:0:0:
96,64,130577,1,0,0:0:0:0:
128,128,130760,1,0,0:0:0:0:
176,192,130943,1,0,0:0:0:0:
240,224,131126,1,0,0:0:0:0:
304,240,131309,5,0,0:0:0:0:
288,64,131675,1,0,0:0:0:0:
304,240,132041,1,0,0:0:0:0:
368,224,132224,1,0,0:0:0:0:
416,176,132407,1,0,0:0:0:0:
432,112,132590,1,0,0:0:0:0:
416,48,132773,5,0,0:0:0:0:
288,64,133140,1,0,0:0:0:0:
416,48,133506,1,0,0:0:0:0:
432,112,133689,1,0,0:0:0:0:
416,176,133872,1,0,0:0:0:0:
368,224,134055,1,0,0:0:0:0:
304,256,134238,5,0,0:0:0:0:
256,192,134604,12,0,135702,0:0:0:0:
