osu file format v14

[General]
AudioFilename: bgm_s2ep1.mp3
AudioLeadIn: 2000
PreviewTime: 71143
Countdown: 0
SampleSet: Soft
StackLeniency: 0.7
Mode: 0
LetterboxInBreaks: 0
WidescreenStoryboard: 0

[Editor]
Bookmarks: 48838
DistanceSpacing: 1.2
BeatDivisor: 4
GridSize: 4
TimelineZoom: 1.6

[Metadata]
Title:Crescent Moon Island Boss Theme
TitleUnicode:초승달 섬 보스 테마
Artist:Studio EIM
ArtistUnicode:스튜디오EIM
Creator:Rakuen
Version:Light Insane
Source:마비노기 영웅전
Tags:theramdans [_-Scarlet-_] ffstar0716 mabinogi heroes vindictus season 2 nexon action mmorpg Jungle Troll's Snake God Lakiora Naver Games OST BGM
BeatmapID:543921
BeatmapSetID:173422

[Difficulty]
HPDrainRate:6
CircleSize:4
OverallDifficulty:6
ApproachRate:8.5
SliderMultiplier:1.4
SliderTickRate:1

[Events]
//Background and Video events
0,0,"73db444176.png",0,0
//Break Periods
//Storyboard Layer 0 (Background)
//Storyboard Layer 1 (Fail)
//Storyboard Layer 2 (Pass)
//Storyboard Layer 3 (Foreground)
//Storyboard Sound Samples

[TimingPoints]
330,348.837209302326,4,2,1,50,1,0
1376,348.837209302326,4,2,1,50,1,0
12538,-100,4,2,1,60,0,0
23701,-100,4,2,1,70,0,1
34515,-100,4,2,1,70,0,0
34864,-100,4,2,1,70,0,1
47248,-100,4,2,1,70,0,0
48817,-100,4,2,1,70,0,1
48905,-100,4,2,1,70,0,0
71143,-100,4,2,1,70,0,1
81957,-100,4,2,1,70,0,0
82306,-100,4,2,1,70,0,1
93120,-100,4,2,1,70,0,0
93469,-100,4,2,1,70,0,1
115794,-100,4,2,1,70,0,0
117189,-100,4,2,1,60,0,0
118585,-100,4,2,1,50,0,0
119980,-100,4,2,1,40,0,0
121376,-100,4,2,1,30,0,0
122771,-100,4,2,1,20,0,0
124166,-100,4,2,1,10,0,0
126782,-100,4,2,2,5,0,0

[Colours]
Combo1 : 233,233,233
Combo2 : 2,94,185
Combo3 : 255,223,0
Combo4 : 0,128,0

[HitObjects]
88,256,1027,6,0,P|80:272|72:296,3,35,2|0|2|0,0:0|0:0|0:0|0:0,0:0:0:0:
108,316,1376,6,0,L|204:324,1,70,6|0,0:0|0:0,0:0:0:0:
228,252,1724,1,2,0:0:0:0:
292,196,1899,1,0,0:0:0:0:
352,255,2073,2,0,P|343:289|346:324,1,70,10|0,0:0|0:0,0:0:0:0:
435,232,2422,2,0,P|444:198|441:163,1,70,2|0,0:0|0:0,0:0:0:0:
396,92,2771,6,0,B|240:96,1,140,2|2,0:0|0:0,0:0:0:0:
184,56,3294,1,0,0:0:0:0:
116,108,3469,2,0,P|108:152|116:196,1,70,10|0,0:0|0:0,0:0:0:0:
64,248,3817,1,2,0:0:0:0:
132,300,3992,1,0,0:0:0:0:
132,300,4079,1,0,0:0:0:0:
132,300,4166,6,0,L|284:288,1,140,2|2,0:0|0:0,0:0:0:0:
332,228,4689,1,0,0:0:0:0:
416,248,4864,2,0,L|422:317,1,70,10|0,0:0|0:0,0:0:0:0:
480,192,5213,1,2,0:0:0:0:
448,116,5387,1,0,0:0:0:0:
432,104,5474,1,0,0:0:0:0:
416,92,5562,6,0,B|320:76|320:76|280:124,1,140,2|2,0:0|0:0,0:0:0:0:
259,186,6085,1,0,0:0:0:0:
332,228,6259,2,0,P|360:260|372:304,1,70,10|0,0:0|0:0,0:0:0:0:
288,300,6608,2,0,L|248:328,3,35,10|0|8|0,0:0|0:0|0:0|0:0,0:0:0:0:
216,320,6957,6,0,B|172:300|172:300|128:300,1,70,6|0,0:0|0:0,0:0:0:0:
80,244,7306,1,2,0:0:0:0:
116,168,7480,1,0,0:0:0:0:
52,112,7655,2,0,L|19:50,1,70,10|0,0:0|0:0,0:0:0:0:
132,84,8003,2,0,L|214:109,1,70,2|0,0:0|0:0,0:0:0:0:
245,174,8352,6,0,P|281:116|257:44,1,140,2|2,0:0|0:0,0:0:0:0:
198,104,8876,1,0,0:0:0:0:
136,164,9050,2,0,L|136:252,1,70,10|0,0:0|0:0,0:0:0:0:
200,288,9399,1,2,0:0:0:0:
280,260,9573,1,0,0:0:0:0:
280,260,9660,1,0,0:0:0:0:
280,260,9748,6,0,B|328:244|384:260|384:260|364:232,1,140,10|2,0:0|0:0,0:0:0:0:
380,148,10271,1,0,0:0:0:0:
304,108,10445,2,0,P|296:74|298:39,1,70,10|0,0:0|0:0,0:0:0:0:
213,39,10794,2,0,P|215:74|208:108,1,70,2|0,0:0|0:0,0:0:0:0:
148,164,11143,6,0,L|64:164,1,70,10|0,0:0|0:0,0:0:0:0:
88,248,11492,2,0,L|18:248,1,70,2|0,0:0|0:0,0:0:0:0:
144,308,11841,1,14,0:0:0:0:
208,252,12015,1,0,0:0:0:0:
292,264,12189,2,0,L|320:292,3,35,10|0|8|0,0:0|0:0|0:0|0:0,0:0:0:0:
352,312,12538,6,0,B|452:304|452:304|474:270,1,140,6|2,0:0|0:0,0:0:0:0:
500,192,13062,1,0,0:0:0:0:
474,113,13236,2,0,B|452:80|452:80|352:72,1,140,10|2,0:0|0:0,0:0:0:0:
276,36,13759,1,0,0:0:0:0:
196,56,13934,6,0,B|140:72|140:72|130:65,1,70,2|0,0:0|0:0,0:0:0:0:
220,136,14282,2,0,B|270:164|270:164|276:192,1,70,2|0,0:0|0:0,0:0:0:0:
228,248,14631,2,0,L|143:276,1,70,10|0,0:0|0:0,0:0:0:0:
84,236,14980,1,2,0:0:0:0:
16,186,15155,1,0,0:0:0:0:
16,186,15242,1,0,0:0:0:0:
16,186,15329,6,0,P|74:151|148:181,1,140,2|2,0:0|0:0,0:0:0:0:
84,236,15852,1,0,0:0:0:0:
139,172,16027,2,0,P|104:114|134:40,1,140,10|2,0:0|0:0,0:0:0:0:
189,104,16550,1,0,0:0:0:0:
264,144,16724,6,0,L|293:207,1,70,2|0,0:0|0:0,0:0:0:0:
340,112,17073,2,0,L|363:46,1,70,2|0,0:0|0:0,0:0:0:0:
440,80,17422,2,0,L|469:143,1,70,10|0,0:0|0:0,0:0:0:0:
392,180,17771,2,0,L|372:208,3,35,2|0|0|0,0:0|0:0|0:0|0:0,0:0:0:0:
351,246,18120,6,0,P|283:230|215:244,1,140,6|2,0:0|0:0,0:0:0:0:
144,200,18643,1,0,0:0:0:0:
148,116,18817,2,0,B|260:116|260:116|220:92,1,140,10|2,0:0|0:0,0:0:0:0:
188,32,19341,1,0,0:0:0:0:
48,104,19515,5,2,0:0:0:0:
16,180,19689,1,0,0:0:0:0:
144,200,19864,1,2,0:0:0:0:
112,276,20038,1,0,0:0:0:0:
228,328,20213,2,0,L|304:296,1,70,10|0,0:0|0:0,0:0:0:0:
376,320,20562,1,2,0:0:0:0:
444,272,20736,1,0,0:0:0:0:
452,252,20823,1,0,0:0:0:0:
460,232,20910,6,0,B|424:144|424:144|380:116,1,140,2|2,0:0|0:0,0:0:0:0:
302,104,21434,1,0,0:0:0:0:
260,176,21608,2,0,P|193:187|141:143,1,140,14|2,0:0|0:0,0:0:0:0:
216,105,22131,1,0,0:0:0:0:
216,105,22306,6,0,L|172:264,1,140,14|2,0:0|0:0,0:0:0:0:
224,312,22829,1,0,0:0:0:0:
303,292,23003,2,0,P|336:280|371:283,1,70,14|0,0:0|0:0,0:0:0:0:
432,228,23352,2,0,L|412:192,3,35,2|0|0|0,0:0|0:0|0:0|0:0,0:0:0:0:
420,156,23701,6,0,P|424:96|360:120,1,140,6|14,0:0|0:0,0:0:0:0:
304,165,24224,1,0,0:0:0:0:
220,156,24399,6,0,L|156:96,1,70,2|0,0:0|0:0,0:0:0:0:
92,68,24748,1,10,0:0:0:0:
56,144,24922,1,0,0:0:0:0:
125,261,25096,2,0,L|124:192,1,70,2|0,0:0|0:0,0:0:0:0:
152,344,25445,1,10,0:0:0:0:
231,316,25620,1,0,0:0:0:0:
294,259,25794,2,0,P|266:238|232:231,1,70,2|0,0:0|0:0,0:0:0:0:
328,336,26143,1,10,0:0:0:0:
411,346,26317,1,0,0:0:0:0:
411,346,26405,1,0,0:0:0:0:
411,346,26492,6,0,P|436:276|488:224,1,140,6|10,0:0|0:0,0:0:0:0:
380,208,27015,1,0,0:0:0:0:
440,150,27189,6,0,P|415:125|403:92,2,70,2|0|10,0:0|0:0|0:0,0:0:0:0:
324,120,27713,1,0,0:0:0:0:
241,136,27887,2,0,P|240:101|255:69,2,70,2|0|10,0:0|0:0|0:0,0:0:0:0:
296,200,28410,1,0,0:0:0:0:
300,284,28585,2,0,L|392:272,2,70,2|0|10,0:0|0:0|0:0,0:0:0:0:
244,348,29108,1,0,0:0:0:0:
244,348,29195,1,0,0:0:0:0:
244,348,29282,6,0,P|180:328|117:281,1,140,6|14,0:0|0:0,0:0:0:0:
80,212,29806,1,0,0:0:0:0:
27,148,29980,6,0,P|60:134|95:131,1,70,2|0,0:0|0:0,0:0:0:0:
128,56,30329,2,0,P|160:69|186:91,1,70,10|0,0:0|0:0,0:0:0:0:
236,164,30678,1,2,0:0:0:0:
164,208,30852,1,0,0:0:0:0:
80,212,31027,1,10,0:0:0:0:
108,292,31201,1,0,0:0:0:0:
192,354,31376,2,0,L|192:284,2,70,2|0|10,0:0|0:0|0:0,0:0:0:0:
276,288,31899,1,0,0:0:0:0:
276,288,31986,1,0,0:0:0:0:
276,288,32073,6,0,B|332:200|332:200|380:200,1,140,6|10,0:0|0:0,0:0:0:0:
444,164,32596,1,0,0:0:0:0:
392,96,32771,2,0,L|252:96,1,140,6|10,0:0|0:0,0:0:0:0:
184,44,33294,1,0,0:0:0:0:
100,46,33469,6,0,P|78:74|68:107,1,70,6|0,0:0|0:0,0:0:0:0:
32,180,33817,2,0,P|45:212|69:237,1,70,10|0,0:0|0:0,0:0:0:0:
108,312,34166,2,0,L|192:292,1,70,6|0,0:0|0:0,0:0:0:0:
248,252,34515,2,0,L|338:268,1,70,10|0,0:0|0:0,0:0:0:0:
340,268,34777,1,0,0:0:0:0:
360,268,34864,6,0,B|472:224|432:168|412:216,1,140,6|14,0:0|0:0,0:0:0:0:
356,144,35387,1,0,0:0:0:0:
322,67,35562,6,0,P|357:63|392:68,1,70,2|0,0:0|0:0,0:0:0:0:
272,132,35910,2,0,P|237:136|202:131,1,70,10|0,0:0|0:0,0:0:0:0:
120,132,36259,2,0,L|136:216,1,70,2|0,0:0|0:0,0:0:0:0:
72,260,36608,2,0,L|127:324,1,70,10|0,0:0|0:0,0:0:0:0:
200,328,36957,2,0,P|220:296|232:260,1,70,2|0,0:0|0:0,0:0:0:0:
312,288,37306,1,10,0:0:0:0:
298,206,37480,1,0,0:0:0:0:
298,206,37567,1,0,0:0:0:0:
298,206,37655,6,0,P|337:140|404:130,1,140,6|10,0:0|0:0,0:0:0:0:
382,211,38178,1,0,0:0:0:0:
394,128,38352,6,0,P|404:94|426:68,1,70,2|0,0:0|0:0,0:0:0:0:
316,104,38701,2,0,P|298:73|296:39,1,70,10|0,0:0|0:0,0:0:0:0:
236,128,39050,2,0,P|202:118|176:96,1,70,2|0,0:0|0:0,0:0:0:0:
211,206,39399,2,0,P|180:223|146:225,1,70,10|0,0:0|0:0,0:0:0:0:
112,304,39748,2,0,B|208:316,1,70,2|0,0:0|0:0,0:0:0:0:
256,352,40096,1,10,0:0:0:0:
320,296,40271,1,0,0:0:0:0:
340,300,40358,1,0,0:0:0:0:
360,304,40445,6,0,P|368:236|412:168,1,140,6|14,0:0|0:0,0:0:0:0:
320,136,40969,1,0,0:0:0:0:
236,128,41143,6,0,L|194:71,1,70,2|0,0:0|0:0,0:0:0:0:
184,196,41492,2,0,L|225:252,1,70,10|0,0:0|0:0,0:0:0:0:
132,128,41841,2,0,L|90:71,1,70,2|0,0:0|0:0,0:0:0:0:
79,195,42189,2,0,L|121:252,1,70,10|0,0:0|0:0,0:0:0:0:
176,316,42538,1,2,0:0:0:0:
260,336,42713,2,0,P|296:332|360:344,1,70,0|10,0:0|0:0,0:0:0:0:
289,246,43062,1,0,0:0:0:0:
289,246,43149,1,0,0:0:0:0:
289,246,43236,6,0,L|220:124,1,140,6|10,0:0|0:0,0:0:0:0:
315,150,43759,1,0,0:0:0:0:
315,150,43846,1,0,0:0:0:0:
315,150,43934,2,0,L|193:219,1,140,6|10,0:0|0:0,0:0:0:0:
108,232,44457,1,0,0:0:0:0:
108,232,44544,1,0,0:0:0:0:
108,232,44631,6,0,L|230:163,1,140,6|10,0:0|0:0,0:0:0:0:
248,248,45155,1,0,0:0:0:0:
252,268,45242,1,0,0:0:0:0:
256,288,45329,2,0,P|273:290|290:288,3,35,6|0|0|0,0:0|0:0|0:0|0:0,0:0:0:0:
328,268,45678,2,0,P|330:250|328:233,3,35,10|0|0|0,0:0|0:0|0:0|0:0,0:0:0:0:
340,191,46027,6,0,P|374:186|409:189,1,70,6|0,0:0|0:0,0:0:0:0:
288,123,46376,2,0,P|255:111|226:91,1,70,14|0,0:0|0:0,0:0:0:0:
98,154,46724,2,0,P|133:157|168:151,1,70,14|0,0:0|0:0,0:0:0:0:
132,76,47073,5,14,0:0:0:0:
36,208,47248,1,6,0:0:0:0:
388,256,48469,6,0,L|388:208,3,35,2|0|2|0,0:0|0:0|0:0|0:0,0:0:0:0:
354,196,48817,6,0,L|272:196,1,70,6|0,0:0|0:0,0:0:0:0:
204,172,49166,2,0,P|181:145|164:114,1,70,8|0,0:0|0:0,0:0:0:0:
116,208,49515,2,0,P|113:244|101:278,1,70,8|0,0:0|0:0,0:0:0:0:
160,340,49864,1,8,0:0:0:0:
235,312,50038,1,8,0:0:0:0:
235,312,50126,1,0,0:0:0:0:
235,312,50213,6,0,L|312:316,1,70,6|0,0:0|0:0,0:0:0:0:
417,247,50562,2,0,L|348:244,1,70,8|0,0:0|0:0,0:0:0:0:
308,172,50910,1,8,0:0:0:0:
224,168,51085,1,0,0:0:0:0:
243,85,51259,2,0,P|267:89|291:85,3,35,8|0|8|0,0:0|0:0|0:0|0:0,0:0:0:0:
316,72,51608,6,0,P|364:52|396:52,1,70,6|0,0:0|0:0,0:0:0:0:
371,134,51957,2,0,P|391:182|391:214,1,70,8|0,0:0|0:0,0:0:0:0:
308,193,52306,2,0,L|249:250,1,70,8|0,0:0|0:0,0:0:0:0:
100,196,52655,1,8,0:0:0:0:
172,240,52829,1,8,0:0:0:0:
172,240,52916,1,0,0:0:0:0:
172,240,53003,6,0,P|183:174|120:113,1,140,6|8,0:0|0:0,0:0:0:0:
100,196,53527,1,0,0:0:0:0:
172,240,53701,2,0,P|200:280|212:312,1,70,8|0,0:0|0:0,0:0:0:0:
288,328,54050,2,0,L|328:300,3,35,8|0|8|0,0:0|0:0|0:0|0:0,0:0:0:0:
356,324,54399,6,0,P|396:280|408:200,1,140,6|8,0:0|0:0,0:0:0:0:
335,160,54922,1,0,0:0:0:0:
256,192,55096,2,0,P|233:165|201:152,1,70,8|0,0:0|0:0,0:0:0:0:
57,198,55445,2,0,P|91:201|124:188,1,70,8|8,0:0|0:0,0:0:0:0:
136,208,55707,1,0,0:0:0:0:
148,224,55794,6,0,B|176:252|208:260|208:260|224:292|251:312,1,140,6|8,0:0|0:0,0:0:0:0:
336,316,56317,1,0,0:0:0:0:
368,236,56492,2,0,P|404:216|448:208,1,70,8|0,0:0|0:0,0:0:0:0:
477,137,56841,2,0,P|458:128|432:124,3,35,8|0|8|0,0:0|0:0|0:0|0:0,0:0:0:0:
404,128,57189,6,0,P|382:92|380:63,1,70,6|0,0:0|0:0,0:0:0:0:
304,28,57538,1,8,0:0:0:0:
232,72,57713,1,0,0:0:0:0:
169,128,57887,2,0,P|150:98|147:63,1,70,8|0,0:0|0:0,0:0:0:0:
248,152,58236,2,0,P|267:184|269:220,1,70,8|8,0:0|0:0,0:0:0:0:
264,236,58498,1,0,0:0:0:0:
256,256,58585,5,6,0:0:0:0:
185,211,58759,1,0,0:0:0:0:
152,332,58934,2,0,L|232:332,1,70,8|0,0:0|0:0,0:0:0:0:
256,256,59282,2,0,L|336:256,1,70,8|0,0:0|0:0,0:0:0:0:
404,220,59631,1,8,0:0:0:0:
408,200,59719,1,0,0:0:0:0:
408,180,59806,1,8,0:0:0:0:
404,160,59893,1,0,0:0:0:0:
396,140,59980,6,0,B|348:120|292:132|292:132|320:96,1,140,6|14,0:0|0:0,0:0:0:0:
256,44,60503,1,0,0:0:0:0:
196,104,60678,2,0,L|108:96,1,70,8|0,0:0|0:0,0:0:0:0:
72,164,61027,1,8,0:0:0:0:
96,244,61201,1,8,0:0:0:0:
108,260,61288,1,0,0:0:0:0:
120,276,61376,6,0,B|256:188,1,140,6|8,0:0|0:0,0:0:0:0:
264,120,61899,1,0,0:0:0:0:
328,68,62073,2,0,P|364:72|404:88,1,70,8|0,0:0|0:0,0:0:0:0:
436,172,62422,2,0,L|401:168,3,35,8|0|8|0,0:0|0:0|0:0|0:0,0:0:0:0:
368,196,62771,6,0,P|365:232|376:278,1,70,6|0,0:0|0:0,0:0:0:0:
324,336,63120,1,8,0:0:0:0:
240,344,63294,1,0,0:0:0:0:
200,272,63469,2,0,P|230:220|270:265,1,140,8|8,0:0|0:0,0:0:0:0:
132,320,63992,1,8,0:0:0:0:
112,316,64079,1,0,0:0:0:0:
92,308,64166,6,0,P|66:285|44:252,1,70,6|0,0:0|0:0,0:0:0:0:
4,184,64515,2,0,P|19:152|25:118,1,70,8|0,0:0|0:0,0:0:0:0:
84,56,64864,1,8,0:0:0:0:
156,104,65038,1,0,0:0:0:0:
240,124,65213,2,0,L|240:89,3,35,8|0|8|0,0:0|0:0|0:0|0:0,0:0:0:0:
252,48,65562,6,0,P|316:32|396:52,1,140,6|14,0:0|0:0,0:0:0:0:
404,132,66085,1,0,0:0:0:0:
361,204,66259,2,0,P|333:178|321:142,1,70,8|0,0:0|0:0,0:0:0:0:
240,124,66608,1,8,0:0:0:0:
156,104,66782,1,8,0:0:0:0:
156,104,66870,1,0,0:0:0:0:
156,104,66957,6,0,B|104:120|104:120|96:152,1,70,6|0,0:0|0:0,0:0:0:0:
96,220,67306,1,8,0:0:0:0:
52,292,67480,1,0,0:0:0:0:
124,336,67655,2,0,B|176:320|176:320|184:288,1,70,8|0,0:0|0:0,0:0:0:0:
248,260,68003,2,0,P|280:260|304:272,3,35,8|0|8|0,0:0|0:0|0:0|0:0,0:0:0:0:
316,288,68352,6,0,P|376:308|444:272,1,140,6|8,0:0|0:0,0:0:0:0:
371,215,68876,2,0,P|353:186|347:152,1,70,0|8,0:0|0:0,0:0:0:0:
264,168,69224,2,0,P|235:147|201:140,1,70,0|8,0:0|0:0,0:0:0:0:
183,57,69573,1,8,0:0:0:0:
183,57,69660,1,0,0:0:0:0:
183,57,69748,6,0,P|126:94|117:162,1,140,6|8,0:0|0:0,0:0:0:0:
160,236,70271,1,0,0:0:0:0:
232,196,70445,2,0,L|300:232,1,70,14|0,0:0|0:0,0:0:0:0:
89,276,70794,2,0,L|28:244,1,70,8|8,0:0|0:0,0:0:0:0:
28,224,71056,1,0,0:0:0:0:
28,204,71143,5,6,0:0:0:0:
96,156,71317,1,0,0:0:0:0:
140,84,71492,1,8,0:0:0:0:
308,112,71841,1,0,0:0:0:0:
384,148,72015,1,0,0:0:0:0:
441,86,72189,2,0,P|410:69|376:63,1,70,8|0,0:0|0:0,0:0:0:0:
308,112,72538,5,2,0:0:0:0:
276,192,72713,1,0,0:0:0:0:
320,264,72887,1,8,0:0:0:0:
156,296,73236,2,0,P|144:262|142:227,1,70
107,150,73585,2,0,P|130:123|159:104,1,70,8|0,0:0|0:0,0:0:0:0:
232,144,73934,5,6,0:0:0:0:
308,112,74108,1,0,0:0:0:0:
340,36,74282,1,8,0:0:0:0:
400,96,74457,1,0,0:0:0:0:
352,228,74631,6,0,L|296:292,1,70,2|0,0:0|0:0,0:0:0:0:
176,176,74980,2,0,L|232:112,1,70,8|0,0:0|0:0,0:0:0:0:
252,216,75329,6,0,L|196:280,1,70,2|0,0:0|0:0,0:0:0:0:
76,164,75678,2,0,L|132:100,1,70,8|0,0:0|0:0,0:0:0:0:
176,176,76027,5,2,0:0:0:0:
252,216,76201,1,0,0:0:0:0:
260,300,76376,1,8,0:0:0:0:
342,274,76550,1,0,0:0:0:0:
424,256,76724,6,0,L|500:300,2,70,6|0|8,0:0|0:0|0:0,0:0:0:0:
312,128,77422,2,0,P|338:105|368:87,1,70
240,88,77771,2,0,P|205:85|171:76,1,70,8|0,0:0|0:0,0:0:0:0:
160,160,78120,5,2,0:0:0:0:
80,188,78294,1,0,0:0:0:0:
12,136,78469,1,8,0:0:0:0:
16,304,78817,2,0,L|100:284,1,70
156,244,79166,2,0,L|238:268,1,70,8|0,0:0|0:0,0:0:0:0:
232,284,79428,1,0,0:0:0:0:
240,304,79515,5,6,0:0:0:0:
324,312,79689,1,0,0:0:0:0:
392,260,79864,1,8,0:0:0:0:
380,176,80038,1,0,0:0:0:0:
360,176,80126,1,0,0:0:0:0:
340,176,80213,6,0,L|312:108,1,70,6|0,0:0|0:0,0:0:0:0:
232,132,80562,2,0,L|164:103,1,70,8|0,0:0|0:0,0:0:0:0:
128,112,80823,1,0,0:0:0:0:
128,111,80910,2,0,P|106:139|92:171,1,70,6|0,0:0|0:0,0:0:0:0:
144,240,81259,2,0,P|122:267|108:299,1,70,8|0,0:0|0:0,0:0:0:0:
120,316,81521,1,0,0:0:0:0:
132,332,81608,5,6,0:0:0:0:
232,284,81782,1,0,0:0:0:0:
356,316,81957,1,8,0:0:0:0:
443,207,82131,1,0,0:0:0:0:
443,207,82219,1,0,0:0:0:0:
443,207,82306,6,0,B|424:168|424:168|432:120,1,70,6|0,0:0|0:0,0:0:0:0:
448,60,82655,1,8,0:0:0:0:
284,36,83003,2,0,P|251:47|218:70,1,70
136,68,83352,2,0,P|146:100|169:132,1,70,8|0,0:0|0:0,0:0:0:0:
240,176,83701,5,2,0:0:0:0:
283,248,83876,1,0,0:0:0:0:
242,321,84050,1,8,0:0:0:0:
76,340,84399,2,0,P|96:311|104:277,1,70,0|0,0:0|0:0,0:0:0:0:
36,139,84748,2,0,P|41:174|59:204,1,70,8|0,0:0|0:0,0:0:0:0:
122,145,85096,5,6,0:0:0:0:
164,72,85271,1,0,0:0:0:0:
288,64,85445,1,8,0:0:0:0:
246,137,85620,1,0,0:0:0:0:
332,202,85794,6,0,L|364:140,1,70,2|0,0:0|0:0,0:0:0:0:
408,244,86143,2,0,L|430:310,1,70,8|0,0:0|0:0,0:0:0:0:
308,218,86492,6,0,L|340:156,1,70,2|0,0:0|0:0,0:0:0:0:
384,260,86841,2,0,L|406:326,1,70,8|0,0:0|0:0,0:0:0:0:
280,238,87189,6,0,L|312:176,1,70,2|0,0:0|0:0,0:0:0:0:
356,280,87538,2,0,L|384:364,1,70,8|0,0:0|0:0,0:0:0:0:
296,352,87887,5,6,0:0:0:0:
224,308,88062,1,0,0:0:0:0:
144,336,88236,1,14,0:0:0:0:
44,204,88585,2,0,L|112:190,1,70
220,102,88934,2,0,L|152:116,1,70,8|0,0:0|0:0,0:0:0:0:
194,188,89282,5,6,0:0:0:0:
268,228,89457,1,0,0:0:0:0:
291,308,89631,2,0,P|343:264|344:196,1,140,8|0,0:0|0:0,0:0:0:0:
268,228,90155,1,0,0:0:0:0:
292,308,90329,2,0,P|252:316|220:332,1,70,8|0,0:0|0:0,0:0:0:0:
208,340,90591,1,0,0:0:0:0:
192,352,90678,6,0,L|142:288,1,70,6|0,0:0|0:0,0:0:0:0:
72,264,91027,2,0,L|61:193,1,70,8|0,0:0|0:0,0:0:0:0:
72,176,91288,1,0,0:0:0:0:
84,156,91376,5,6,0:0:0:0:
152,108,91550,1,0,0:0:0:0:
224,152,91724,1,8,0:0:0:0:
304,128,91899,1,0,0:0:0:0:
312,108,91986,1,0,0:0:0:0:
320,88,92073,2,0,L|308:19,1,70,6|0,0:0|0:0,0:0:0:0:
408,92,92422,2,0,L|419:161,1,70,8|0,0:0|0:0,0:0:0:0:
412,180,92684,1,0,0:0:0:0:
400,195,92771,6,0,P|365:200|330:196,1,70,6|0,0:0|0:0,0:0:0:0:
223,82,93120,2,0,P|227:116|223:151,1,70,14|0,0:0|0:0,0:0:0:0:
212,168,93381,1,0,0:0:0:0:
196,180,93469,5,6,0:0:0:0:
140,116,93643,1,6,0:0:0:0:
68,160,93817,2,0,L|60:328,1,140,8|0,0:0|0:0,0:0:0:0:
132,348,94341,1,0,0:0:0:0:
188,284,94515,2,0,P|222:279|257:285,1,70,8|0,0:0|0:0,0:0:0:0:
292,208,94864,2,0,P|319:229|340:257,2,70,2|0|8,0:0|0:0|0:0,0:0:0:0:
128,236,95562,5,6,0:0:0:0:
48,211,95736,1,0,0:0:0:0:
80,135,95910,1,8,0:0:0:0:
44,59,96085,1,0,0:0:0:0:
124,32,96259,6,0,L|212:36,1,70,6|6,0:0|0:0,0:0:0:0:
288,60,96608,1,8,0:0:0:0:
224,116,96782,1,0,0:0:0:0:
367,91,96957,6,0,P|393:115|407:147,1,70,2|0,0:0|0:0,0:0:0:0:
428,228,97306,2,0,P|393:228|360:216,1,70,8|0,0:0|0:0,0:0:0:0:
276,232,97655,2,0,L|282:162,1,70,2|0,0:0|0:0,0:0:0:0:
192,216,98003,2,0,L|185:285,1,70,8|0,0:0|0:0,0:0:0:0:
100,276,98352,5,2,0:0:0:0:
52,208,98527,1,0,0:0:0:0:
36,124,98701,2,0,P|55:114|76:96,3,35,8|0|0|0,0:0|0:0|0:0|0:0,0:0:0:0:
84,68,99050,6,0,P|136:20|216:24,1,140,6|8,0:0|0:0,0:0:0:0:
248,88,99573,1,0,0:0:0:0:
216,166,99748,2,0,P|186:146|168:117,1,70,0|0,0:0|0:0,0:0:0:0:
296,196,100096,2,0,P|303:230|294:263,1,70,8|0,0:0|0:0,0:0:0:0:
212,272,100445,6,0,P|132:256|68:296,1,140,2|8,0:0|0:0,0:0:0:0:
20,224,100969,1,0,0:0:0:0:
76,160,101143,2,0,L|48:76,1,70,6|0,0:0|0:0,0:0:0:0:
167,9,101492,2,0,L|136:72,1,70,8|0,0:0|0:0,0:0:0:0:
160,152,101841,6,0,P|196:128|240:120,1,70,6|6,0:0|0:0,0:0:0:0:
304,124,102189,1,8,0:0:0:0:
320,208,102364,1,0,0:0:0:0:
236,224,102538,6,0,L|200:284,1,70,6|0,0:0|0:0,0:0:0:0:
396,248,102887,2,0,L|431:187,1,70,8|0,0:0|0:0,0:0:0:0:
240,256,103236,6,0,L|204:316,1,70,6|0,0:0|0:0,0:0:0:0:
400,280,103585,2,0,L|435:219,1,70,8|0,0:0|0:0,0:0:0:0:
244,288,103934,6,0,L|208:348,1,70,6|0,0:0|0:0,0:0:0:0:
404,312,104282,2,0,L|440:252,1,70,8|0,0:0|0:0,0:0:0:0:
453,233,104544,1,0,0:0:0:0:
464,213,104631,6,0,P|456:177|460:137,1,70,6|6,0:0|0:0,0:0:0:0:
400,84,104980,1,8,0:0:0:0:
320,108,105155,1,0,0:0:0:0:
243,143,105329,2,0,P|295:187|363:180,1,140,0|8,0:0|0:0,0:0:0:0:
216,64,105852,1,0,0:0:0:0:
132,64,106027,6,0,P|109:91|93:122,1,70,2|0,0:0|0:0,0:0:0:0:
173,243,106376,2,0,P|171:208|160:176,1,70,8|0,0:0|0:0,0:0:0:0:
92,228,106724,1,0,0:0:0:0:
92,312,106899,1,0,0:0:0:0:
256,352,107073,1,8,0:0:0:0:
256,268,107248,1,0,0:0:0:0:
256,268,107422,6,0,L|332:268,1,70,6|6,0:0|0:0,0:0:0:0:
398,184,107771,2,0,L|328:184,1,70,8|0,0:0|0:0,0:0:0:0:
222,108,108120,2,0,L|292:108,1,70,2|0,0:0|0:0,0:0:0:0:
168,172,108469,1,8,0:0:0:0:
88,196,108643,1,0,0:0:0:0:
8,168,108817,6,0,L|8:88,1,70,2|0,0:0|0:0,0:0:0:0:
168,172,109166,2,0,L|168:268,1,70,8|0,0:0|0:0,0:0:0:0:
88,196,109515,1,2,0:0:0:0:
88,112,109689,1,0,0:0:0:0:
256,192,109864,2,0,L|256:252,3,35,8|0|0|0,0:0|0:0|0:0|0:0,0:0:0:0:
256,269,110213,5,4,0:0:0:0:
322,318,110387,1,6,0:0:0:0:
404,296,110562,2,0,L|460:252,1,70,8|0,0:0|0:0,0:0:0:0:
412,184,110910,2,0,P|384:128|404:56,1,140,0|8,0:0|0:0,0:0:0:0:
320,28,111434,1,0,0:0:0:0:
268,92,111608,6,0,P|234:88|200:76,1,70,6|0,0:0|0:0,0:0:0:0:
101,172,111957,2,0,P|133:157|168:152,1,70,8|0,0:0|0:0,0:0:0:0:
236,200,112306,1,0,0:0:0:0:
232,284,112480,1,0,0:0:0:0:
311,311,112655,2,0,L|355:275,3,35,8|0|0|0,0:0|0:0|0:0|0:0,0:0:0:0:
336,248,113003,6,0,B|484:256,1,140,6|8,0:0|0:0,0:0:0:0:
492,172,113527,1,0,0:0:0:0:
444,104,113701,2,0,L|374:100,1,70
324,32,114050,2,0,L|254:28,1,70,8|0,0:0|0:0,0:0:0:0:
168,100,114399,6,0,L|175:147,3,35,6|0|0|0,0:0|0:0|0:0|0:0,0:0:0:0:
116,197,114748,2,0,L|155:225,3,35,8|0|0|0,0:0|0:0|0:0|0:0,0:0:0:0:
141,301,115096,6,0,L|188:294,3,35,6|0|0|0,0:0|0:0|0:0|0:0,0:0:0:0:
238,353,115445,2,0,L|266:314,3,35,8|0|0|0,0:0|0:0|0:0|0:0,0:0:0:0:
302,252,115794,6,0,L|287:162,1,70,6|0,0:0|0:0,0:0:0:0:
365,144,116143,2,0,L|418:70,1,70,0|0,0:0|0:0,0:0:0:0:
329,56,116492,1,8,0:0:0:0:
253,92,116666,1,0,0:0:0:0:
168,99,116841,2,0,P|137:85|113:60,1,70
69,136,117189,5,2,0:0:0:0:
121,200,117364,1,0,0:0:0:0:
125,284,117538,1,0,0:0:0:0:
201,320,117713,1,0,0:0:0:0:
269,272,117887,2,0,P|305:268|345:228,2,70,8|0|0,0:0|0:0|0:0,0:0:0:0:
273,188,118410,1,0,0:0:0:0:
257,176,118498,1,0,0:0:0:0:
241,164,118585,6,0,B|217:120|217:120|217:100,1,70,2|0,0:0|0:0,0:0:0:0:
137,140,118934,2,0,B|137:159|137:159|113:203,1,70,0|0,0:0|0:0,0:0:0:0:
125,284,119282,2,0,P|158:275|193:278,1,70,8|0,0:0|0:0,0:0:0:0:
273,312,119631,1,0,0:0:0:0:
333,252,119806,1,0,0:0:0:0:
417,256,119980,6,0,L|457:184,1,70,2|0,0:0|0:0,0:0:0:0:
389,140,120329,2,0,L|429:68,1,70,0|0,0:0|0:0,0:0:0:0:
353,32,120678,1,8,0:0:0:0:
281,76,120852,1,0,0:0:0:0:
197,68,121027,6,0,L|180:98,4,35,0|0|0|0|6,0:0|0:0|0:0|0:0|0:0,0:0:0:0:
256,192,121550,12,0,126782,0:0:0:0:
