osu file format v14

[General]
AudioFilename: bgm_s2ep1.mp3
AudioLeadIn: 2000
PreviewTime: 71143
Countdown: 0
SampleSet: Soft
StackLeniency: 0.7
Mode: 0
LetterboxInBreaks: 0
WidescreenStoryboard: 0

[Editor]
Bookmarks: 48838
DistanceSpacing: 0.7
BeatDivisor: 4
GridSize: 4
TimelineZoom: 1.6

[Metadata]
Title:Crescent Moon Island Boss Theme
TitleUnicode:초승달 섬 보스 테마
Artist:Studio EIM
ArtistUnicode:스튜디오EIM
Creator:Rakuen
Version:Insane
Source:마비노기 영웅전
Tags:theramdans [_-Scarlet-_] ffstar0716 mabinogi heroes vindictus season 2 nexon action mmorpg Jungle Troll's Snake God Lakiora Naver Games OST BGM
BeatmapID:653128
BeatmapSetID:173422

[Difficulty]
HPDrainRate:6.5
CircleSize:4
OverallDifficulty:6.5
ApproachRate:9
SliderMultiplier:1.6
SliderTickRate:1

[Events]
//Background and Video events
0,0,"73db444176.png",0,0
//Break Periods
//Storyboard Layer 0 (Background)
//Storyboard Layer 1 (Fail)
//Storyboard Layer 2 (Pass)
//Storyboard Layer 3 (Foreground)
//Storyboard Sound Samples

[TimingPoints]
330,348.837209302326,4,2,1,50,1,0
1376,348.837209302326,4,2,1,50,1,0
12538,-100,4,2,1,60,0,0
23701,-100,4,2,1,70,0,1
34515,-100,4,2,1,70,0,0
34864,-100,4,2,1,70,0,1
47248,-100,4,2,1,70,0,0
48817,-100,4,2,1,70,0,1
48905,-100,4,2,1,70,0,0
59980,-83.3333333333333,4,2,1,70,0,0
60329,-100,4,2,1,70,0,0
65562,-83.3333333333333,4,2,1,70,0,0
65910,-100,4,2,1,70,0,0
71143,-100,4,2,1,70,0,1
81957,-100,4,2,1,70,0,0
82306,-100,4,2,1,70,0,1
93120,-100,4,2,1,70,0,0
93469,-100,4,2,1,70,0,1
115794,-100,4,2,1,70,0,0
117189,-100,4,2,1,60,0,0
118585,-100,4,2,1,50,0,0
119980,-100,4,2,1,40,0,0
121376,-100,4,2,1,30,0,0
122771,-100,4,2,1,20,0,0
124166,-100,4,2,1,10,0,0
126782,-100,4,2,2,5,0,0

[Colours]
Combo1 : 233,233,233
Combo2 : 2,94,185
Combo3 : 255,223,0
Combo4 : 0,128,0

[HitObjects]
56,136,1027,5,2,0:0:0:0:
66,174,1114,1,0,0:0:0:0:
76,213,1202,1,2,0:0:0:0:
87,251,1289,1,0,0:0:0:0:
97,290,1376,5,6,0:0:0:0:
200,252,1550,1,0,0:0:0:0:
288,320,1724,2,0,L|392:320,1,80,2|0,0:0|0:0,0:0:0:0:
467,271,2073,2,0,P|439:243|416:211,1,80,10|0,0:0|0:0,0:0:0:0:
316,160,2422,2,0,P|344:131|367:99,1,80,2|0,0:0|0:0,0:0:0:0:
264,60,2771,5,2,0:0:0:0:
172,124,2945,1,0,0:0:0:0:
71,175,3120,2,0,P|60:137|64:98,1,80,2|0,0:0|0:0,0:0:0:0:
160,244,3469,2,0,P|171:282|167:321,1,80,10|0,0:0|0:0,0:0:0:0:
60,292,3817,1,2,0:0:0:0:
60,292,3905,1,0,0:0:0:0:
60,292,3992,1,2,0:0:0:0:
60,292,4079,1,0,0:0:0:0:
60,292,4166,6,0,B|24:252|24:252|16:208,1,80,2|0,0:0|0:0,0:0:0:0:
112,160,4515,2,0,B|114:106|114:106|140:69,1,80,2|0,0:0|0:0,0:0:0:0:
236,44,4864,1,10,0:0:0:0:
316,124,5038,1,0,0:0:0:0:
428,104,5213,1,2,0:0:0:0:
428,104,5300,1,0,0:0:0:0:
428,104,5387,1,2,0:0:0:0:
428,104,5474,1,0,0:0:0:0:
428,104,5562,6,0,P|424:152|400:204,1,80,2|0,0:0|0:0,0:0:0:0:
448,288,5910,2,0,P|404:308|347:313,1,80,2|0,0:0|0:0,0:0:0:0:
344,312,6172,1,0,0:0:0:0:
316,304,6259,1,10,0:0:0:0:
216,356,6434,1,0,0:0:0:0:
108,320,6608,1,10,0:0:0:0:
92,296,6695,1,0,0:0:0:0:
76,272,6782,1,10,0:0:0:0:
60,248,6870,1,0,0:0:0:0:
44,224,6957,5,6,0:0:0:0:
88,120,7131,2,0,L|172:120,1,80,0|2,0:0|0:0,0:0:0:0:
256,48,7480,1,0,0:0:0:0:
351,108,7655,2,0,P|325:137|304:171,1,80,10|0,0:0|0:0,0:0:0:0:
407,314,8003,2,0,P|404:274|396:236,1,80,2|0,0:0|0:0,0:0:0:0:
460,144,8352,5,2,0:0:0:0:
352,108,8527,1,0,0:0:0:0:
256,168,8701,2,0,B|232:176|232:176|179:160,1,80,2|0,0:0|0:0,0:0:0:0:
152,52,9050,2,0,B|176:43|176:43|228:59,1,80,10|0,0:0|0:0,0:0:0:0:
180,160,9399,1,2,0:0:0:0:
156,172,9486,1,0,0:0:0:0:
128,180,9573,1,2,0:0:0:0:
100,176,9660,1,0,0:0:0:0:
75,164,9748,6,0,P|58:200|47:238,1,80,10|0,0:0|0:0,0:0:0:0:
116,328,10009,1,0,0:0:0:0:
116,328,10096,2,0,P|133:291|144:253,1,80,10|0,0:0|0:0,0:0:0:0:
244,304,10358,1,0,0:0:0:0:
244,304,10445,2,0,L|356:304,1,80,10|0,0:0|0:0,0:0:0:0:
416,192,10707,1,0,0:0:0:0:
416,192,10794,2,0,L|336:192,1,80,10|0,0:0|0:0,0:0:0:0:
244,80,11056,1,0,0:0:0:0:
244,80,11143,2,0,L|324:80,1,80,10|0,0:0|0:0,0:0:0:0:
156,148,11492,6,0,L|100:148,1,40,10|0,0:0|0:0,0:0:0:0:
80,220,11666,2,0,L|24:220,1,40
120,292,11841,2,0,L|176:292,1,40,14|0,0:0|0:0,0:0:0:0:
196,220,12015,2,0,L|252:220,1,40
296,300,12189,5,10,0:0:0:0:
324,300,12277,1,0,0:0:0:0:
352,300,12364,1,10,0:0:0:0:
380,300,12451,1,0,0:0:0:0:
408,300,12538,5,6,0:0:0:0:
456,200,12713,1,0,0:0:0:0:
428,92,12887,2,0,L|340:92,1,80,2|0,0:0|0:0,0:0:0:0:
264,16,13236,1,10,0:0:0:0:
168,76,13410,2,0,P|172:115|167:155,1,80,0|2,0:0|0:0,0:0:0:0:
60,192,13759,1,0,0:0:0:0:
60,220,13847,1,0,0:0:0:0:
60,248,13934,6,0,L|60:332,1,80,2|0,0:0|0:0,0:0:0:0:
168,360,14282,2,0,L|168:280,1,80,2|0,0:0|0:0,0:0:0:0:
256,212,14631,1,10,0:0:0:0:
324,304,14806,1,0,0:0:0:0:
416,240,14980,1,2,0:0:0:0:
416,212,15067,1,0,0:0:0:0:
416,184,15155,1,2,0:0:0:0:
416,156,15242,1,0,0:0:0:0:
416,128,15329,6,0,P|372:120|328:120,1,80,2|0,0:0|0:0,0:0:0:0:
256,44,15678,2,0,P|219:69|188:100,1,80,2|0,0:0|0:0,0:0:0:0:
152,200,16027,1,10,0:0:0:0:
232,276,16201,1,0,0:0:0:0:
152,356,16376,1,2,0:0:0:0:
72,276,16550,1,0,0:0:0:0:
72,276,16637,1,0,0:0:0:0:
72,276,16724,6,0,P|64:232|76:184,1,80,2|0,0:0|0:0,0:0:0:0:
136,108,17073,2,0,P|142:68|134:29,1,80,2|0,0:0|0:0,0:0:0:0:
134,29,17335,1,0,0:0:0:0:
134,29,17422,1,10,0:0:0:0:
32,72,17596,1,0,0:0:0:0:
56,192,17771,1,2,0:0:0:0:
84,192,17858,1,0,0:0:0:0:
112,192,17945,1,2,0:0:0:0:
140,192,18032,1,0,0:0:0:0:
168,192,18120,6,0,L|260:192,1,80,6|0,0:0|0:0,0:0:0:0:
296,292,18469,2,0,L|216:292,1,80,2|0,0:0|0:0,0:0:0:0:
388,356,18817,2,0,P|428:332|480:312,1,80,10|0,0:0|0:0,0:0:0:0:
424,212,19166,1,2,0:0:0:0:
380,108,19341,1,0,0:0:0:0:
396,84,19428,1,0,0:0:0:0:
412,60,19515,6,0,P|366:48|315:26,1,80,2|0,0:0|0:0,0:0:0:0:
296,140,19864,2,0,P|312:176|333:210,1,80,2|0,0:0|0:0,0:0:0:0:
236,268,20213,2,0,L|156:244,1,80,10|0,0:0|0:0,0:0:0:0:
24,244,20562,1,2,0:0:0:0:
40,220,20649,1,0,0:0:0:0:
56,196,20736,1,2,0:0:0:0:
72,172,20823,1,0,0:0:0:0:
88,148,20910,6,0,L|169:102,1,80,2|0,0:0|0:0,0:0:0:0:
296,140,21259,2,0,L|226:178,1,80,2|0,0:0|0:0,0:0:0:0:
276,28,21608,2,0,P|360:48|408:132,1,160,14|2,0:0|0:0,0:0:0:0:
364,208,22131,1,0,0:0:0:0:
408,312,22306,6,0,B|288:340|288:340|314:313,1,160,14|2,0:0|0:0,0:0:0:0:
256,216,22829,1,0,0:0:0:0:
148,188,23003,6,0,P|128:196|104:212,1,40,14|0,0:0|0:0,0:0:0:0:
176,265,23178,2,0,P|168:285|162:313,1,40,2|0,0:0|0:0,0:0:0:0:
252,300,23352,2,0,P|259:320|276:344,1,40,2|0,0:0|0:0,0:0:0:0:
329,271,23527,2,0,P|349:279|377:285,1,40,2|0,0:0|0:0,0:0:0:0:
364,195,23701,6,0,B|400:84|400:84|364:112,1,160,6|14,0:0|0:0,0:0:0:0:
256,132,24224,1,0,0:0:0:0:
96,52,24399,2,0,P|136:47|176:51,1,80,2|0,0:0|0:0,0:0:0:0:
136,156,24748,2,0,P|96:160|56:156,1,80,10|0,0:0|0:0,0:0:0:0:
104,256,25096,6,0,L|196:256,1,80,2|0,0:0|0:0,0:0:0:0:
240,356,25445,2,0,L|160:356,1,80,10|0,0:0|0:0,0:0:0:0:
320,280,25794,1,2,0:0:0:0:
408,124,25969,1,0,0:0:0:0:
468,220,26143,1,10,0:0:0:0:
244,232,26317,1,0,0:0:0:0:
244,232,26405,1,0,0:0:0:0:
243,231,26492,6,0,P|204:225|167:209,1,80,6|0,0:0|0:0,0:0:0:0:
198,50,26841,2,0,P|221:82|236:120,1,80,10|0,0:0|0:0,0:0:0:0:
108,116,27189,2,0,L|28:116,1,80,2|0,0:0|0:0,0:0:0:0:
76,268,27538,2,0,L|156:268,1,80,10|0,0:0|0:0,0:0:0:0:
272,159,27887,6,0,P|279:120|275:81,1,80,2|0,0:0|0:0,0:0:0:0:
288,272,28236,2,0,P|325:259|357:235,1,80,10|0,0:0|0:0,0:0:0:0:
204,348,28585,1,2,0:0:0:0:
148,180,28759,1,0,0:0:0:0:
76,268,28934,1,10,0:0:0:0:
32,96,29108,1,0,0:0:0:0:
32,96,29195,1,0,0:0:0:0:
32,96,29282,6,0,B|88:76|148:104|148:104|128:68,1,160,6|14,0:0|0:0,0:0:0:0:
256,136,29806,1,0,0:0:0:0:
336,55,29980,2,0,P|374:44|413:39,1,80,2|0,0:0|0:0,0:0:0:0:
466,195,30329,2,0,P|431:176|400:152,1,80,10|0,0:0|0:0,0:0:0:0:
352,252,30678,6,0,L|367:330,1,80,2|0,0:0|0:0,0:0:0:0:
248,208,31027,2,0,L|292:141,1,80,10|0,0:0|0:0,0:0:0:0:
164,136,31376,1,2,0:0:0:0:
232,300,31550,1,0,0:0:0:0:
152,108,31724,1,10,0:0:0:0:
120,256,31899,1,0,0:0:0:0:
120,256,31986,1,0,0:0:0:0:
120,256,32073,6,0,B|172:276|172:276|296:252,1,160,6|10,0:0|0:0,0:0:0:0:
340,164,32596,1,0,0:0:0:0:
244,104,32771,2,0,P|222:70|209:32,1,80,6|0,0:0|0:0,0:0:0:0:
416,80,33120,2,0,P|437:113|450:151,1,80,10|0,0:0|0:0,0:0:0:0:
261,177,33469,6,0,L|340:164,1,80,6|0,0:0|0:0,0:0:0:0:
462,285,33817,2,0,L|384:268,1,80,10|0,0:0|0:0,0:0:0:0:
292,332,34166,6,0,P|278:346|262:358,1,40,6|0,0:0|0:0,0:0:0:0:
182,316,34341,2,0,P|162:316|142:313,1,40,2|0,0:0|0:0,0:0:0:0:
115,228,34515,2,0,P|101:214|89:198,1,40,10|0,0:0|0:0,0:0:0:0:
131,118,34689,2,0,P|131:98|134:78,1,40,2|0,0:0|0:0,0:0:0:0:
258,110,34864,6,0,P|285:48|219:52,1,160,6|14,0:0|0:0,0:0:0:0:
256,224,35387,1,0,0:0:0:0:
364,191,35562,2,0,P|399:173|437:161,1,80,2|0,0:0|0:0,0:0:0:0:
147,191,35910,2,0,P|112:173|74:161,1,80,10|0,0:0|0:0,0:0:0:0:
332,268,36259,6,0,P|370:280|405:299,1,80,2|0,0:0|0:0,0:0:0:0:
179,268,36608,2,0,P|141:280|106:299,1,80,10|0,0:0|0:0,0:0:0:0:
256,308,36957,1,2,0:0:0:0:
256,76,37131,1,0,0:0:0:0:
256,280,37306,1,10,0:0:0:0:
256,104,37480,1,0,0:0:0:0:
256,132,37567,1,0,0:0:0:0:
256,160,37655,6,0,L|256:256,1,80,6|0,0:0|0:0,0:0:0:0:
344,308,38003,1,10,0:0:0:0:
428,236,38178,1,0,0:0:0:0:
431,123,38352,2,0,P|393:113|354:106,1,80,2|0,0:0|0:0,0:0:0:0:
80,123,38701,2,0,P|118:113|157:106,1,80,10|0,0:0|0:0,0:0:0:0:
368,220,39050,6,0,P|400:242|435:262,1,80,2|0,0:0|0:0,0:0:0:0:
144,220,39399,2,0,P|111:242|76:262,1,80,10|0,0:0|0:0,0:0:0:0:
316,328,39748,1,2,0:0:0:0:
196,328,39922,1,0,0:0:0:0:
256,192,40096,1,10,0:0:0:0:
256,164,40184,1,0,0:0:0:0:
256,136,40271,1,2,0:0:0:0:
256,108,40358,1,0,0:0:0:0:
256,80,40445,6,0,B|200:80|200:80|156:104|156:104|102:104,1,160,6|14,0:0|0:0,0:0:0:0:
32,192,40969,1,0,0:0:0:0:
102,280,41143,2,0,L|192:280,1,80,2|0,0:0|0:0,0:0:0:0:
409,280,41492,2,0,L|329:280,1,80,10|0,0:0|0:0,0:0:0:0:
181,165,41841,6,0,P|220:174|255:191,1,80,2|0,0:0|0:0,0:0:0:0:
330,165,42189,2,0,P|291:174|256:191,1,80,10|0,0:0|0:0,0:0:0:0:
256,304,42538,1,2,0:0:0:0:
256,80,42713,1,0,0:0:0:0:
335,271,42887,1,10,0:0:0:0:
176,112,43062,1,0,0:0:0:0:
148,112,43149,1,0,0:0:0:0:
120,112,43236,6,0,L|36:112,1,80,6|0,0:0|0:0,0:0:0:0:
76,220,43585,2,0,L|156:220,1,80,10|0,0:0|0:0,0:0:0:0:
252,160,43934,2,0,P|289:174|323:194,1,80,6|0,0:0|0:0,0:0:0:0:
427,160,44282,2,0,P|444:196|453:235,1,80,10|0,0:0|0:0,0:0:0:0:
348,80,44631,6,0,P|362:42|382:8,1,80,6|0,0:0|0:0,0:0:0:0:
160,96,44980,1,10,0:0:0:0:
252,160,45155,1,0,0:0:0:0:
228,268,45329,5,6,0:0:0:0:
200,268,45416,1,0,0:0:0:0:
172,268,45503,1,2,0:0:0:0:
144,268,45591,1,0,0:0:0:0:
124,248,45678,1,10,0:0:0:0:
96,248,45765,1,0,0:0:0:0:
68,248,45852,1,2,0:0:0:0:
40,248,45940,1,0,0:0:0:0:
12,248,46027,6,0,L|12:152,1,80,6|0,0:0|0:0,0:0:0:0:
252,80,46376,2,0,L|252:160,1,80,14|0,0:0|0:0,0:0:0:0:
92,112,46724,2,0,L|92:32,1,80,14|0,0:0|0:0,0:0:0:0:
252,160,47073,1,14,0:0:0:0:
92,352,47248,1,6,0:0:0:0:
256,192,47335,12,2,48294,0:0:0:0:
364,136,48469,5,2,0:0:0:0:
364,164,48556,1,0,0:0:0:0:
364,192,48643,1,2,0:0:0:0:
364,220,48730,1,0,0:0:0:0:
364,248,48817,6,0,L|272:248,1,80,6|0,0:0|0:0,0:0:0:0:
216,336,49166,2,0,L|124:336,1,80,8|0,0:0|0:0,0:0:0:0:
52,264,49515,5,8,0:0:0:0:
33,242,49602,1,0,0:0:0:0:
26,214,49689,1,0,0:0:0:0:
29,186,49776,1,0,0:0:0:0:
42,161,49863,1,8,0:0:0:0:
62,141,49951,1,0,0:0:0:0:
88,129,50039,1,8,0:0:0:0:
116,128,50126,1,0,0:0:0:0:
144,136,50213,6,0,B|172:148|172:148|199:189,1,80,6|0,0:0|0:0,0:0:0:0:
312,189,50562,2,0,B|340:148|340:148|368:136,1,80,8|0,0:0|0:0,0:0:0:0:
440,224,50910,5,8,0:0:0:0:
414,237,50998,1,0,0:0:0:0:
396,260,51085,1,0,0:0:0:0:
386,287,51172,1,0,0:0:0:0:
387,315,51259,1,8,0:0:0:0:
401,341,51346,1,0,0:0:0:0:
424,359,51434,1,8,0:0:0:0:
452,361,51521,1,0,0:0:0:0:
477,347,51608,6,0,P|480:312|496:268,1,80,6|0,0:0|0:0,0:0:0:0:
461,90,51957,2,0,P|457:130|444:168,1,80,8|0,0:0|0:0,0:0:0:0:
352,104,52306,5,8,0:0:0:0:
328,92,52393,1,0,0:0:0:0:
304,80,52480,1,0,0:0:0:0:
280,68,52567,1,0,0:0:0:0:
256,56,52655,1,8,0:0:0:0:
232,68,52742,1,0,0:0:0:0:
208,80,52829,1,8,0:0:0:0:
184,92,52916,1,0,0:0:0:0:
160,104,53003,6,0,B|108:128|108:128|68:116,1,80,6|0,0:0|0:0,0:0:0:0:
10,249,53352,2,0,B|62:225|62:225|84:232,1,80,8|0,0:0|0:0,0:0:0:0:
152,320,53701,5,8,0:0:0:0:
176,332,53788,1,0,0:0:0:0:
202,341,53876,1,0,0:0:0:0:
229,346,53963,1,0,0:0:0:0:
256,348,54050,1,8,0:0:0:0:
283,346,54137,1,0,0:0:0:0:
310,341,54224,1,8,0:0:0:0:
336,332,54312,1,0,0:0:0:0:
360,320,54399,6,0,L|360:212,1,80,6|0,0:0|0:0,0:0:0:0:
472,164,54748,2,0,L|472:244,1,80,8|0,0:0|0:0,0:0:0:0:
376,104,55096,5,8,0:0:0:0:
400,88,55184,1,0,0:0:0:0:
424,72,55271,1,0,0:0:0:0:
448,56,55358,1,0,0:0:0:0:
420,52,55445,1,8,0:0:0:0:
396,68,55533,1,0,0:0:0:0:
372,84,55620,1,8,0:0:0:0:
348,100,55707,1,0,0:0:0:0:
320,92,55794,6,0,L|386:46,1,80,6|0,0:0|0:0,0:0:0:0:
192,92,56143,2,0,L|126:46,1,80,8|0,0:0|0:0,0:0:0:0:
44,128,56492,5,8,0:0:0:0:
64,148,56579,1,0,0:0:0:0:
64,176,56666,1,0,0:0:0:0:
84,196,56753,1,0,0:0:0:0:
84,224,56841,1,8,0:0:0:0:
104,244,56928,1,0,0:0:0:0:
104,272,57015,1,8,0:0:0:0:
124,292,57102,1,0,0:0:0:0:
124,320,57189,6,0,P|164:312|220:308,1,80,6|0,0:0|0:0,0:0:0:0:
276,228,57538,2,0,P|309:250|340:275,1,80,8|0,0:0|0:0,0:0:0:0:
168,188,57887,5,8,0:0:0:0:
176,160,57974,1,0,0:0:0:0:
184,132,58062,1,0,0:0:0:0:
192,104,58149,1,0,0:0:0:0:
168,88,58236,1,8,0:0:0:0:
193,73,58323,1,0,0:0:0:0:
218,59,58411,1,8,0:0:0:0:
244,45,58498,1,0,0:0:0:0:
272,44,58585,6,0,L|364:44,1,80,6|0,0:0|0:0,0:0:0:0:
444,156,58934,2,0,L|364:156,1,80,8|0,0:0|0:0,0:0:0:0:
276,228,59282,5,8,0:0:0:0:
248,231,59370,1,0,0:0:0:0:
224,216,59457,1,0,0:0:0:0:
216,189,59544,1,0,0:0:0:0:
227,163,59631,1,8,0:0:0:0:
252,150,59719,1,0,0:0:0:0:
279,157,59806,1,8,0:0:0:0:
296,179,59893,1,0,0:0:0:0:
295,207,59980,6,0,P|336:260|336:173,1,191.999994140625,6|14,0:0|0:0,0:0:0:0:
400,76,60503,1,0,0:0:0:0:
300,24,60678,6,0,L|248:24,1,40,8|0,0:0|0:0,0:0:0:0:
204,80,60852,2,0,L|152:80,1,40
104,132,61027,2,0,L|52:132,1,40,8|0,0:0|0:0,0:0:0:0:
64,252,61201,2,0,L|104:252,1,40,8|0,0:0|0:0,0:0:0:0:
196,332,61376,6,0,P|228:308|268:256,1,80,6|0,0:0|0:0,0:0:0:0:
264,252,61637,1,0,0:0:0:0:
272,224,61724,1,8,0:0:0:0:
212,128,61899,1,0,0:0:0:0:
131,203,62073,6,0,P|113:195|98:183,1,40,8|0,0:0|0:0,0:0:0:0:
118,69,62248,2,0,P|125:88|128:108,1,40
40,48,62422,2,0,P|48:29|60:14,1,40,8|0,0:0|0:0,0:0:0:0:
224,46,62596,2,0,P|216:64|204:80,1,40,8|0,0:0|0:0,0:0:0:0:
56,176,62771,6,0,P|125:200|208:264,1,160,6|8,0:0|0:0,0:0:0:0:
256,348,63294,1,0,0:0:0:0:
360,300,63469,6,0,L|416:300,1,40,8|0,0:0|0:0,0:0:0:0:
464,224,63643,2,0,L|424:224,1,40
360,148,63817,2,0,L|400:148,1,40,8|0,0:0|0:0,0:0:0:0:
464,72,63991,2,0,L|424:72,1,40,8|0,0:0|0:0,0:0:0:0:
360,24,64166,6,0,L|272:24,1,80,6|0,0:0|0:0,0:0:0:0:
252,24,64428,1,0,0:0:0:0:
224,24,64515,1,8,0:0:0:0:
136,96,64689,1,0,0:0:0:0:
223,168,64864,6,0,P|216:186|212:206,1,40,8|0,0:0|0:0,0:0:0:0:
288,215,65038,2,0,P|295:197|299:177,1,40
136,224,65213,2,0,P|143:242|154:259,1,40,8|0,0:0|0:0,0:0:0:0:
376,160,65387,2,0,P|368:141|357:124,1,40,8|0,0:0|0:0,0:0:0:0:
116,60,65562,6,0,B|48:80|8:148|8:148|96:132,1,191.999994140625,6|14,0:0|0:0,0:0:0:0:
152,196,66085,1,0,0:0:0:0:
72,276,66259,5,8,0:0:0:0:
92,292,66346,1,0,0:0:0:0:
120,304,66434,1,0,0:0:0:0:
148,308,66521,1,0,0:0:0:0:
176,304,66608,2,0,P|196:296|220:280,1,40,8|0,0:0|0:0,0:0:0:0:
164,158,66782,2,0,P|156:176|152:196,1,40,8|0,0:0|0:0,0:0:0:0:
256,96,66957,6,0,B|136:72|136:72|180:56,1,160,6|8,0:0|0:0,0:0:0:0:
356,48,67480,1,0,0:0:0:0:
460,92,67655,5,8,0:0:0:0:
440,108,67742,1,0,0:0:0:0:
424,132,67829,1,0,0:0:0:0:
416,160,67916,1,0,0:0:0:0:
416,188,68003,2,0,L|460:208,1,40,8|0,0:0|0:0,0:0:0:0:
392,296,68178,2,0,L|348:316,1,40,8|0,0:0|0:0,0:0:0:0:
251,180,68352,6,0,P|317:174|292:236,1,160,6|8,0:0|0:0,0:0:0:0:
184,272,68876,1,0,0:0:0:0:
88,216,69050,5,8,0:0:0:0:
88,188,69137,1,0,0:0:0:0:
88,160,69224,1,0,0:0:0:0:
88,132,69312,1,0,0:0:0:0:
88,104,69399,2,0,L|88:60,1,40,8|0,0:0|0:0,0:0:0:0:
188,20,69573,2,0,L|188:60,1,40,8|0,0:0|0:0,0:0:0:0:
272,132,69748,6,0,B|324:148|324:148|440:120,1,160,6|8,0:0|0:0,0:0:0:0:
468,20,70271,1,0,0:0:0:0:
328,60,70445,5,14,0:0:0:0:
328,88,70532,1,0,0:0:0:0:
328,116,70620,1,0,0:0:0:0:
328,144,70707,1,0,0:0:0:0:
328,172,70794,2,0,L|328:236,1,40,8|0,0:0|0:0,0:0:0:0:
416,280,70969,2,0,L|416:344,1,40,8|0,0:0|0:0,0:0:0:0:
256,348,71143,5,6,0:0:0:0:
164,288,71317,1,0,0:0:0:0:
52,292,71492,2,0,P|72:224|160:176,1,160,8|0,0:0|0:0,0:0:0:0:
256,192,72015,1,0,0:0:0:0:
328,276,72189,1,8,0:0:0:0:
328,276,72277,1,0,0:0:0:0:
328,276,72364,1,0,0:0:0:0:
428,152,72538,6,0,B|452:92|452:92|444:68,1,80,2|0,0:0|0:0,0:0:0:0:
336,92,72887,2,0,L|172:92,1,160,8|0,0:0|0:0,0:0:0:0:
116,184,73410,1,0,0:0:0:0:
36,44,73585,1,8,0:0:0:0:
36,44,73672,1,0,0:0:0:0:
36,44,73759,1,0,0:0:0:0:
36,44,73846,1,0,0:0:0:0:
36,44,73934,6,0,L|116:44,1,80,6|0,0:0|0:0,0:0:0:0:
196,184,74282,2,0,L|116:184,1,80,8|0,0:0|0:0,0:0:0:0:
327,107,74631,6,0,P|313:70|290:38,1,80,2|0,0:0|0:0,0:0:0:0:
184,276,74980,2,0,P|198:313|221:345,1,80,8|0,0:0|0:0,0:0:0:0:
219,87,75329,6,0,P|179:81|140:85,1,80,2|0,0:0|0:0,0:0:0:0:
292,296,75678,2,0,P|332:302|371:298,1,80,8|0,0:0|0:0,0:0:0:0:
147,171,76027,6,0,P|122:202|105:239,1,80,2|0,0:0|0:0,0:0:0:0:
364,212,76376,2,0,P|389:181|406:144,1,80,8|0,0:0|0:0,0:0:0:0:
408,116,76637,1,0,0:0:0:0:
404,88,76724,5,6,0:0:0:0:
308,32,76899,1,0,0:0:0:0:
200,52,77073,2,0,B|124:144|124:144|176:128,1,160,8|0,0:0|0:0,0:0:0:0:
256,192,77596,1,0,0:0:0:0:
349,251,77771,1,8,0:0:0:0:
349,251,77858,1,0,0:0:0:0:
349,251,77945,1,0,0:0:0:0:
256,352,78120,5,2,0:0:0:0:
256,192,78294,1,0,0:0:0:0:
116,348,78469,2,0,B|152:308|212:288|212:288|160:280,1,160,8|0,0:0|0:0,0:0:0:0:
100,192,78992,1,0,0:0:0:0:
167,102,79166,1,8,0:0:0:0:
196,104,79253,1,0,0:0:0:0:
224,104,79341,1,0,0:0:0:0:
252,104,79428,1,0,0:0:0:0:
280,104,79515,6,0,L|372:104,1,80,6|0,0:0|0:0,0:0:0:0:
360,280,79864,2,0,L|280:280,1,80,8|0,0:0|0:0,0:0:0:0:
100,192,80213,6,0,P|128:163|161:140,1,80,6|0,0:0|0:0,0:0:0:0:
412,192,80562,2,0,P|383:220|350:243,1,80,8|0,0:0|0:0,0:0:0:0:
178,327,80910,6,0,P|167:288|164:248,1,80,6|0,0:0|0:0,0:0:0:0:
334,56,81259,2,0,P|344:95|347:135,1,80,8|0,0:0|0:0,0:0:0:0:
334,327,81608,6,0,P|295:316|259:299,1,80,6|0,0:0|0:0,0:0:0:0:
178,56,81957,2,0,P|216:67|252:84,1,80,8|8,0:0|0:0,0:0:0:0:
272,104,82219,1,0,0:0:0:0:
288,128,82306,5,6,0:0:0:0:
232,224,82480,1,0,0:0:0:0:
148,299,82655,2,0,P|119:226|144:152,1,160,8|0,0:0|0:0,0:0:0:0:
304,308,83178,1,0,0:0:0:0:
232,224,83352,1,8,0:0:0:0:
232,224,83439,1,0,0:0:0:0:
232,224,83527,1,0,0:0:0:0:
328,116,83701,5,2,0:0:0:0:
304,308,83876,1,0,0:0:0:0:
396,244,84050,2,0,B|396:192|396:192|424:144|424:144|424:88,1,160,8|0,0:0|0:0,0:0:0:0:
328,32,84573,1,0,0:0:0:0:
256,116,84748,1,8,0:0:0:0:
228,116,84835,1,0,0:0:0:0:
200,116,84922,1,0,0:0:0:0:
172,116,85009,1,0,0:0:0:0:
143,115,85096,6,0,P|112:92|84:62,1,80,6|0,0:0|0:0,0:0:0:0:
80,208,85445,2,0,P|85:247|84:287,1,80,8|0,0:0|0:0,0:0:0:0:
224,312,85794,6,0,L|292:264,1,80,2|0,0:0|0:0,0:0:0:0:
288,72,86143,2,0,L|220:120,1,80,8|0,0:0|0:0,0:0:0:0:
318,299,86492,6,0,L|332:217,1,80,2|0,0:0|0:0,0:0:0:0:
193,84,86841,2,0,L|179:166,1,80,8|0,0:0|0:0,0:0:0:0:
376,223,87189,6,0,L|328:156,1,80,2|0,0:0|0:0,0:0:0:0:
136,160,87538,2,0,L|184:228,1,80,8|0,0:0|0:0,0:0:0:0:
200,248,87800,1,0,0:0:0:0:
220,268,87887,6,0,P|264:260|328:264,1,80,6|0,0:0|0:0,0:0:0:0:
389,325,88236,2,0,P|352:259|390:193,1,160,14|0,0:0|0:0,0:0:0:0:
488,136,88759,1,0,0:0:0:0:
452,32,88934,1,8,0:0:0:0:
452,32,89021,1,0,0:0:0:0:
452,32,89108,1,0,0:0:0:0:
300,120,89282,5,6,0:0:0:0:
356,236,89457,1,0,0:0:0:0:
358,44,89631,2,0,B|262:120|262:120|300:120,1,160,8|0,0:0|0:0,0:0:0:0:
404,164,90155,1,0,0:0:0:0:
440,268,90329,1,8,0:0:0:0:
424,292,90416,1,0,0:0:0:0:
404,312,90503,1,0,0:0:0:0:
380,328,90591,1,0,0:0:0:0:
352,336,90678,6,0,P|312:336|264:324,1,80,6|0,0:0|0:0,0:0:0:0:
164,352,91027,2,0,P|144:317|130:269,1,80,8|0,0:0|0:0,0:0:0:0:
40,212,91376,1,6,0:0:0:0:
92,112,91550,1,0,0:0:0:0:
196,156,91724,1,8,0:0:0:0:
248,56,91898,1,0,0:0:0:0:
352,96,92073,6,0,L|436:96,1,80,6|0,0:0|0:0,0:0:0:0:
488,192,92422,1,8,0:0:0:0:
460,192,92509,1,0,0:0:0:0:
432,192,92596,1,0,0:0:0:0:
404,192,92684,1,0,0:0:0:0:
376,192,92771,6,0,L|288:192,1,80,6|0,0:0|0:0,0:0:0:0:
352,288,93120,2,0,L|432:288,1,80,14|0,0:0|0:0,0:0:0:0:
256,348,93469,5,6,0:0:0:0:
256,348,93643,2,0,P|184:324|280:288,1,240,6|0,0:0|0:0,0:0:0:0:
348,192,94341,1,0,0:0:0:0:
316,84,94515,2,0,L|276:84,1,40,8|0,0:0|0:0,0:0:0:0:
224,144,94689,2,0,L|184:144,1,40
128,200,94864,5,2,0:0:0:0:
192,292,95038,1,0,0:0:0:0:
300,256,95213,2,0,B|356:244|412:268|412:268|376:216,1,160,8|6,0:0|0:0,0:0:0:0:
436,128,95736,1,0,0:0:0:0:
328,98,95910,2,0,P|335:80|345:63,1,40,8|0,0:0|0:0,0:0:0:0:
227,38,96085,2,0,P|232:57|240:76,1,40
164,120,96259,5,6,0:0:0:0:
164,120,96434,2,0,B|172:156|152:192|152:192|192:232|176:268|176:268|128:252|92:280,1,240,6|0,0:0|0:0,0:0:0:0:
24,192,97131,1,0,0:0:0:0:
60,84,97306,2,0,P|96:56|152:32,1,80,8|0,0:0|0:0,0:0:0:0:
236,68,97655,6,0,L|260:112,1,40,2|0,0:0|0:0,0:0:0:0:
336,112,97829,2,0,L|360:156,1,40
436,156,98003,1,8,0:0:0:0:
484,56,98178,1,0,0:0:0:0:
336,112,98352,5,2,0:0:0:0:
308,112,98439,1,0,0:0:0:0:
280,112,98527,1,0,0:0:0:0:
252,112,98614,1,0,0:0:0:0:
224,112,98701,2,0,L|180:112,1,40,8|0,0:0|0:0,0:0:0:0:
104,192,98876,2,0,L|144:192,1,40
168,276,99050,5,6,0:0:0:0:
168,276,99224,2,0,B|232:248|232:248|308:296|308:296|328:204,1,240,6|0,0:0|0:0,0:0:0:0:
412,148,99922,1,0,0:0:0:0:
483,232,100096,2,0,P|469:246|457:261,1,40,8|0,0:0|0:0,0:0:0:0:
394,347,100271,2,0,P|394:327|392:308,1,40
320,272,100445,5,2,0:0:0:0:
228,340,100620,1,0,0:0:0:0:
304,164,100794,2,0,B|248:148|188:168|188:168|228:124,1,160,8|6,0:0|0:0,0:0:0:0:
288,52,101317,1,0,0:0:0:0:
392,96,101492,1,8,0:0:0:0:
404,120,101579,1,0,0:0:0:0:
412,148,101666,1,0,0:0:0:0:
412,176,101753,1,0,0:0:0:0:
404,204,101841,6,0,P|364:224|312:232,1,80,6|6,0:0|0:0,0:0:0:0:
244,300,102189,2,0,P|206:275|173:234,1,80,8|0,0:0|0:0,0:0:0:0:
56,280,102538,2,0,L|23:352,1,80,6|0,0:0|0:0,0:0:0:0:
12,176,102887,1,8,0:0:0:0:
96,100,103062,1,0,0:0:0:0:
200,140,103236,6,0,P|200:159|197:179,1,40,6|0,0:0|0:0,0:0:0:0:
136,232,103410,2,0,P|135:251|138:271,1,40
204,320,103585,1,8,0:0:0:0:
292,252,103759,1,0,0:0:0:0:
388,312,103934,6,0,L|429:296,1,40,6|0,0:0|0:0,0:0:0:0:
412,220,104108,2,0,L|453:204,1,40
460,112,104282,1,8,0:0:0:0:
433,121,104369,1,0,0:0:0:0:
407,131,104456,1,0,0:0:0:0:
381,140,104543,1,0,0:0:0:0:
354,150,104630,5,6,0:0:0:0:
252,100,104806,2,0,B|281:50|339:36|339:36|291:26,1,160,6|0,0:0|0:0,0:0:0:0:
180,24,105329,1,0,0:0:0:0:
108,112,105503,1,0,0:0:0:0:
172,204,105678,2,0,P|191:198|210:193,1,40,8|0,0:0|0:0,0:0:0:0:
301,193,105852,2,0,P|320:198|340:204,1,40
412,260,106027,5,2,0:0:0:0:
352,352,106201,1,0,0:0:0:0:
380,128,106376,2,0,P|308:108|204:108,1,160,8|0,0:0|0:0,0:0:0:0:
144,28,106899,1,0,0:0:0:0:
46,105,107073,2,0,L|84:120,1,40,8|0,0:0|0:0,0:0:0:0:
136,184,107248,2,0,L|98:198,1,40
44,259,107422,5,6,0:0:0:0:
44,259,107596,2,0,P|140:228|96:304,1,240,6|2,0:0|0:0,0:0:0:0:
224,352,108294,1,0,0:0:0:0:
320,292,108469,2,0,L|412:292,1,80,8|0,0:0|0:0,0:0:0:0:
471,207,108817,6,0,P|454:197|438:185,1,40,2|0,0:0|0:0,0:0:0:0:
360,172,108992,2,0,P|354:152|352:132,1,40
384,60,109166,1,8,0:0:0:0:
256,128,109341,1,0,0:0:0:0:
384,248,109515,5,2,0:0:0:0:
356,248,109602,1,0,0:0:0:0:
328,248,109689,1,0,0:0:0:0:
300,248,109777,1,0,0:0:0:0:
272,248,109864,2,0,L|228:272,1,40,8|0,0:0|0:0,0:0:0:0:
144,290,110038,2,0,L|156:252,1,40
80,152,110213,5,6,0:0:0:0:
80,152,110387,2,0,P|157:168|235:153,1,160,6|0,0:0|0:0,0:0:0:0:
348,168,110910,1,0,0:0:0:0:
408,72,111085,1,0,0:0:0:0:
308,20,111259,2,0,L|248:20,1,40,8|0,0:0|0:0,0:0:0:0:
212,80,111434,2,0,L|172:80,1,40
144,157,111608,6,0,P|94:99|111:24,1,160,6|8,0:0|0:0,0:0:0:0:
256,144,112131,1,0,0:0:0:0:
336,224,112306,6,0,L|324:268,1,40
245,342,112480,2,0,L|256:304,1,40
188,256,112655,1,8,0:0:0:0:
162,268,112742,1,0,0:0:0:0:
135,277,112829,1,8,0:0:0:0:
107,280,112916,1,0,0:0:0:0:
79,278,113003,5,6,0:0:0:0:
12,188,113178,2,0,L|94:46,1,160,6|0,0:0|0:0,0:0:0:0:
204,60,113701,2,0,L|151:150,1,80
232,220,114050,2,0,L|272:150,1,80,8|0,0:0|0:0,0:0:0:0:
364,80,114399,5,6,0:0:0:0:
378,103,114486,1,0,0:0:0:0:
391,128,114573,1,0,0:0:0:0:
403,154,114660,1,0,0:0:0:0:
432,156,114748,1,8,0:0:0:0:
425,183,114835,1,0,0:0:0:0:
417,209,114922,1,0,0:0:0:0:
407,236,115009,1,0,0:0:0:0:
419,260,115096,6,0,P|403:270|388:283,1,40,6|0,0:0|0:0,0:0:0:0:
328,348,115271,2,0,P|308:343|288:342,1,40
232,276,115445,2,0,L|280:248,1,40,8|0,0:0|0:0,0:0:0:0:
284,168,115620,2,0,L|322:178,1,40
240,92,115794,5,6,0:0:0:0:
148,156,115969,1,0,0:0:0:0:
44,116,116143,2,0,P|36:77|43:37,1,80
88,220,116492,1,8,0:0:0:0:
188,268,116666,2,0,L|292:248,1,80
328,160,117015,1,0,0:0:0:0:
306,50,117189,6,0,P|269:65|240:91,1,80,2|0,0:0|0:0,0:0:0:0:
348,268,117538,2,0,P|384:252|414:226,1,80
448,120,117887,1,8,0:0:0:0:
400,16,118062,1,0,0:0:0:0:
328,160,118236,1,0,0:0:0:0:
236,100,118410,1,0,0:0:0:0:
208,100,118498,1,0,0:0:0:0:
180,100,118585,6,0,L|72:100,1,80,2|0,0:0|0:0,0:0:0:0:
36,192,118934,2,0,L|116:192,1,80
196,268,119282,1,8,0:0:0:0:
116,348,119457,1,0,0:0:0:0:
276,344,119631,2,0,B|332:352|332:352|364:328,1,80
460,308,119980,5,2,0:0:0:0:
432,200,120155,1,0,0:0:0:0:
348,128,120329,2,0,P|346:88|360:50,1,80
360,50,120591,1,0,0:0:0:0:
360,50,120678,1,8,0:0:0:0:
456,108,120852,1,0,0:0:0:0:
312,192,121027,5,0,0:0:0:0:
284,192,121114,1,0,0:0:0:0:
256,192,121201,1,0,0:0:0:0:
228,192,121288,1,0,0:0:0:0:
200,192,121376,1,6,0:0:0:0:
256,192,121463,12,0,126782,0:0:0:0:
