osu file format v14

[General]
AudioFilename: bgm_s2ep1.mp3
AudioLeadIn: 2000
PreviewTime: 71143
Countdown: 0
SampleSet: Soft
StackLeniency: 0.7
Mode: 0
LetterboxInBreaks: 0
WidescreenStoryboard: 0

[Editor]
DistanceSpacing: 1.4
BeatDivisor: 4
GridSize: 4
TimelineZoom: 1.8

[Metadata]
Title:Crescent Moon Island Boss Theme
TitleUnicode:초승달 섬 보스 테마
Artist:Studio EIM
ArtistUnicode:스튜디오EIM
Creator:Rakuen
Version:Easy Collab
Source:마비노기 영웅전
Tags:theramdans [_-Scarlet-_] ffstar0716 mabinogi heroes vindictus season 2 nexon action mmorpg Jungle Troll's Snake God Lakiora Naver Games OST BGM
BeatmapID:434709
BeatmapSetID:173422

[Difficulty]
HPDrainRate:2
CircleSize:3
OverallDifficulty:2
ApproachRate:3
SliderMultiplier:0.6
SliderTickRate:1

[Events]
//Background and Video events
0,0,"73db444176.png",0,0
//Break Periods
//Storyboard Layer 0 (Background)
//Storyboard Layer 1 (Fail)
//Storyboard Layer 2 (Pass)
//Storyboard Layer 3 (Foreground)
//Storyboard Sound Samples

[TimingPoints]
330,348.837209302326,4,2,1,50,1,0
1376,348.837209302326,4,2,1,50,1,0
12538,-100,4,2,1,60,0,0
23701,-100,4,2,1,70,0,1
24748,-100,4,2,2,70,0,1
24922,-100,4,2,1,70,0,1
26841,-100,4,2,2,70,0,1
27015,-100,4,2,1,70,0,1
27538,-100,4,2,2,70,0,1
27713,-100,4,2,1,70,0,1
30329,-100,4,2,2,70,0,1
30503,-100,4,2,1,70,0,1
32422,-100,4,2,2,70,0,1
32596,-100,4,2,1,70,0,1
33120,-100,4,2,2,70,0,1
33294,-100,4,2,1,70,0,1
34515,-100,4,2,1,70,0,0
34864,-100,4,2,1,70,0,1
36608,-100,4,2,2,70,0,1
36782,-100,4,2,1,70,0,1
38003,-100,4,2,2,70,0,1
38178,-100,4,2,1,70,0,1
38701,-100,4,2,2,70,0,1
38876,-100,4,2,1,70,0,1
42189,-100,4,2,2,70,0,1
42364,-100,4,2,1,70,0,1
43585,-100,4,2,2,70,0,1
43759,-100,4,2,1,70,0,1
44282,-100,4,2,2,70,0,1
44457,-100,4,2,1,70,0,1
47073,-100,4,2,2,70,0,1
47248,-100,4,2,1,70,0,0
49166,-100,4,2,2,70,0,0
49341,-100,4,2,1,70,0,0
50562,-100,4,2,2,70,0,0
50736,-100,4,2,1,70,0,0
51957,-100,4,2,2,70,0,0
52131,-100,4,2,1,70,0,0
53352,-100,4,2,2,70,0,0
53527,-100,4,2,1,70,0,0
54748,-100,4,2,2,70,0,0
54922,-100,4,2,1,70,0,0
56143,-100,4,2,2,70,0,0
56317,-100,4,2,1,70,0,0
57538,-100,4,2,2,70,0,0
57713,-100,4,2,1,70,0,0
58934,-100,4,2,2,70,0,0
59108,-100,4,2,1,70,0,0
61027,-100,4,2,2,70,0,0
61201,-100,4,2,1,70,0,0
63120,-100,4,2,2,70,0,0
63294,-100,4,2,1,70,0,0
64515,-100,4,2,2,70,0,0
64689,-100,4,2,1,70,0,0
66608,-100,4,2,2,70,0,0
66782,-100,4,2,1,70,0,0
68701,-100,4,2,2,70,0,0
68876,-100,4,2,1,70,0,0
69399,-100,4,2,2,70,0,0
69573,-100,4,2,1,70,0,0
71143,-100,4,2,1,70,0,1
71492,-100,4,2,2,70,0,1
71666,-100,4,2,1,70,0,1
72887,-100,4,2,2,70,0,1
73062,-100,4,2,1,70,0,1
74282,-100,4,2,2,70,0,1
74457,-100,4,2,1,70,0,1
77073,-100,4,2,2,70,0,1
77248,-100,4,2,1,70,0,1
78469,-100,4,2,2,70,0,1
78643,-100,4,2,1,70,0,1
81957,-100,4,2,1,70,0,0
82306,-100,4,2,1,70,0,1
82655,-100,4,2,2,70,0,1
82829,-100,4,2,1,70,0,1
84050,-100,4,2,2,70,0,1
84224,-100,4,2,1,70,0,1
85445,-100,4,2,2,70,0,1
85620,-100,4,2,1,70,0,1
89631,-100,4,2,2,70,0,1
89806,-100,4,2,1,70,0,1
91027,-100,4,2,2,70,0,1
91201,-100,4,2,1,70,0,1
91724,-100,4,2,2,70,0,1
91899,-100,4,2,1,70,0,1
93120,-100,4,2,1,70,0,0
93469,-100,4,2,1,70,0,1
93817,-100,4,2,2,70,0,1
93992,-100,4,2,1,70,0,1
94515,-100,4,2,2,70,0,1
94689,-100,4,2,1,70,0,1
96608,-100,4,2,2,70,0,1
96782,-100,4,2,1,70,0,1
97306,-100,4,2,2,70,0,1
97480,-100,4,2,1,70,0,1
99399,-100,4,2,2,70,0,1
99573,-100,4,2,1,70,0,1
100096,-100,4,2,2,70,0,1
100271,-100,4,2,1,70,0,1
102189,-100,4,2,2,70,0,1
102364,-100,4,2,1,70,0,1
102887,-100,4,2,2,70,0,1
103062,-100,4,2,1,70,0,1
104980,-100,4,2,2,70,0,1
105155,-100,4,2,1,70,0,1
105678,-100,4,2,2,70,0,1
105852,-100,4,2,1,70,0,1
107771,-100,4,2,2,70,0,1
107945,-100,4,2,1,70,0,1
109166,-100,4,2,2,70,0,1
109341,-100,4,2,1,70,0,1
110562,-100,4,2,2,70,0,1
110736,-100,4,2,1,70,0,1
111957,-100,4,2,2,70,0,1
112131,-100,4,2,1,70,0,1
113352,-100,4,2,2,70,0,1
113527,-100,4,2,1,70,0,1
115794,-100,4,2,1,70,0,0
117189,-100,4,2,1,60,0,0
118585,-100,4,2,1,50,0,0
119980,-100,4,2,1,40,0,0
121376,-100,4,2,1,30,0,0
122771,-100,4,2,1,20,0,0
124166,-100,4,2,1,10,0,0
126782,-100,4,2,2,5,0,0

[Colours]
Combo1 : 233,233,233
Combo2 : 2,94,185
Combo3 : 255,223,0
Combo4 : 0,128,0

[HitObjects]
380,52,1376,6,0,P|419:97|445:150,1,120,6|10,0:0|0:0,0:0:0:0:
416,228,2422,1,2,0:0:0:0:
352,284,2771,2,0,L|241:331,1,120,2|10,0:0|0:0,0:0:0:0:
96,248,4166,6,0,L|207:201,2,120,2|10|2,0:0|0:0|0:0,0:0:0:0:
40,184,5910,1,2,0:0:0:0:
52,100,6259,2,0,P|84:96|124:100,1,60,10|10,0:0|0:0,0:0:0:0:
188,60,6957,6,0,B|232:72|232:72|312:56,1,120,6|10,0:0|0:0,0:0:0:0:
372,108,8003,1,2,0:0:0:0:
360,192,8352,2,0,L|396:316,1,120,2|10,0:0|0:0,0:0:0:0:
224,312,9748,6,0,P|176:284|152:220,2,120,10|10|10,0:0|0:0|0:0,0:0:0:0:
240,228,11492,1,2,0:0:0:0:
296,164,11841,2,0,L|284:100,1,60,14|10,0:0|0:0,0:0:0:0:
340,40,12538,6,0,B|400:28|400:60|460:44,2,120,6|10|2,0:0|0:0|0:0,0:0:0:0:
256,28,14282,1,2,0:0:0:0:
192,84,14631,2,0,L|124:84,1,60,10|2,0:0|0:0,0:0:0:0:
64,136,15329,6,0,P|48:193|63:250,1,120,2|10,0:0|0:0,0:0:0:0:
136,292,16376,1,2,0:0:0:0:
204,244,16724,2,0,P|261:228|318:244,1,120,2|10,0:0|0:0,0:0:0:0:
460,152,18120,6,0,L|476:20,2,120,6|10|2,0:0|0:0|0:0,0:0:0:0:
396,208,19864,1,2,0:0:0:0:
324,168,20213,2,0,P|294:164|264:167,1,60,10|2,0:0|0:0,0:0:0:0:
216,236,20910,6,0,P|156:244|97:236,1,120,2|14,0:0|0:0,0:0:0:0:
32,184,21957,1,2,0:0:0:0:
44,100,22306,2,0,P|103:91|162:99,1,120,6|14,0:0|0:0,0:0:0:0:
228,148,23352,1,2,0:0:0:0:
276,216,23701,6,0,L|260:284,1,60,6|14,0:0|0:0,0:0:0:0:
340,304,24399,2,0,L|366:186,1,120,2|2,0:0|0:0,0:0:0:0:
328,112,25445,1,10,0:0:0:0:
248,140,25794,2,0,P|216:132|184:116,1,60,2|10,0:0|0:0,0:0:0:0:
128,176,26492,6,0,P|108:121|136:56,2,120,6|2|2,0:0|0:0|0:0,0:0:0:0:
200,216,28236,1,10,0:0:0:0:
280,196,28585,2,0,L|348:212,1,60,2|10,0:0|0:0,0:0:0:0:
416,180,29282,6,0,P|424:152|428:116,1,60,6|14,0:0|0:0,0:0:0:0:
436,36,29980,2,0,L|308:56,1,120,2|2,0:0|0:0,0:0:0:0:
256,112,31027,1,10,0:0:0:0:
172,96,31376,2,0,P|148:72|128:40,1,60,2|10,0:0|0:0,0:0:0:0:
56,84,32073,6,0,L|32:212,2,120,6|6|6,0:0|0:0|0:0,0:0:0:0:
164,216,34166,2,0,L|152:280,1,60,6|10,0:0|0:0,0:0:0:0:
204,340,34864,6,0,P|240:344|276:340,1,60,6|14,0:0|0:0,0:0:0:0:
340,308,35562,1,2,0:0:0:0:
400,248,35910,1,10,0:0:0:0:
420,168,36259,2,0,P|402:111|364:64,1,120,2|2,0:0|0:0,0:0:0:0:
284,48,37306,1,10,0:0:0:0:
208,84,37655,6,0,B|144:82|155:52|88:49,2,120,6|2|2,0:0|0:0|0:0,0:0:0:0:
256,152,39399,1,10,0:0:0:0:
212,224,39748,2,0,L|216:288,1,60,2|10,0:0|0:0,0:0:0:0:
292,319,40445,6,0,P|321:312|350:308,1,60,6|14,0:0|0:0,0:0:0:0:
396,236,41143,2,0,P|366:228|337:224,1,60,2|10,0:0|0:0,0:0:0:0:
252,232,41841,2,0,P|196:236|128:228,1,120,2|2,0:0|0:0,0:0:0:0:
52,204,42887,1,10,0:0:0:0:
4,136,43236,6,0,L|40:16,2,120,6|6|6,0:0|0:0|0:0,0:0:0:0:
172,128,45329,2,0,P|200:120|232:116,1,60,6|10,0:0|0:0,0:0:0:0:
280,184,46027,6,0,B|272:252,1,60,6|14,0:0|0:0,0:0:0:0:
352,272,46724,2,0,L|364:176,1,90,14|6,0:0|0:0,0:0:0:0:
363,182,48817,6,0,L|235:182,1,120,6|10,0:0|0:0,0:0:0:0:
168,216,49864,1,8,0:0:0:0:
87,187,50213,2,0,P|75:129|90:71,1,120,6|10,0:0|0:0,0:0:0:0:
164,32,51259,1,8,0:0:0:0:
244,64,51608,6,0,P|258:121|246:180,1,120,6|10,0:0|0:0,0:0:0:0:
168,216,52655,1,8,0:0:0:0:
144,296,53003,2,0,L|264:288,1,120,6|10,0:0|0:0,0:0:0:0:
340,328,54050,1,8,0:0:0:0:
420,352,54399,6,0,P|447:298|468:242,1,120,6|10,0:0|0:0,0:0:0:0:
476,160,55445,1,8,0:0:0:0:
424,92,55794,2,0,B|384:80|384:80|305:90,1,120,6|10,0:0|0:0,0:0:0:0:
256,160,56841,1,8,0:0:0:0:
187,208,57189,6,0,P|128:212|68:206,1,120,6|10,0:0|0:0,0:0:0:0:
20,136,58236,1,8,0:0:0:0:
40,52,58585,2,0,P|99:47|159:53,1,120,6|10,0:0|0:0,0:0:0:0:
232,96,59631,1,8,0:0:0:0:
284,160,59980,6,0,L|352:152,1,60,6|14,0:0|0:0,0:0:0:0:
372,232,60678,2,0,L|252:246,1,120,10|6,0:0|0:0,0:0:0:0:
192,304,61724,1,8,0:0:0:0:
116,272,62073,2,0,P|112:248|112:212,1,60,10|8,0:0|0:0,0:0:0:0:
132,132,62771,6,0,B|211:142|211:142|248:130,1,120,6|10,0:0|0:0,0:0:0:0:
308,68,63817,1,8,0:0:0:0:
388,92,64166,2,0,P|395:151|389:210,1,120,6|10,0:0|0:0,0:0:0:0:
332,276,65213,1,8,0:0:0:0:
268,224,65562,6,0,P|240:220|196:224,1,60,6|14,0:0|0:0,0:0:0:0:
164,292,66259,2,0,L|44:284,1,120,10|6,0:0|0:0,0:0:0:0:
32,200,67306,1,8,0:0:0:0:
68,124,67655,2,0,L|132:128,1,60,10|8,0:0|0:0,0:0:0:0:
204,96,68352,6,0,P|236:140|264:204,2,120,6|10|6,0:0|0:0|0:0,0:0:0:0:
256,32,70096,1,8,0:0:0:0:
336,52,70445,2,0,P|368:48|400:48,1,60,14|8,0:0|0:0,0:0:0:0:
452,112,71143,6,0,B|432:244,1,120,6|2,0:0|0:0,0:0:0:0:
384,300,72189,1,8,0:0:0:0:
303,328,72538,2,0,P|246:311|194:281,1,120,2|2,0:0|0:0,0:0:0:0:
72,168,73934,6,0,P|124:139|182:123,1,120,6|2,0:0|0:0,0:0:0:0:
256,164,74980,1,8,0:0:0:0:
320,220,75329,2,0,L|304:284,1,60,2|8,0:0|0:0,0:0:0:0:
380,320,76027,2,0,L|394:261,1,60,2|8,0:0|0:0,0:0:0:0:
468,220,76724,6,0,L|444:100,1,120,6|2,0:0|0:0,0:0:0:0:
372,60,77771,1,8,0:0:0:0:
300,100,78120,2,0,P|240:104|168:96,1,120,2|2,0:0|0:0,0:0:0:0:
12,112,79515,6,0,L|15:171,1,60,6|8,0:0|0:0,0:0:0:0:
92,204,80213,2,0,L|95:263,1,60,6|8,0:0|0:0,0:0:0:0:
152,324,80910,2,0,P|181:323|211:320,1,60,6|8,0:0|0:0,0:0:0:0:
292,348,81608,2,0,P|313:326|331:302,1,60,6|8,0:0|0:0,0:0:0:0:
404,260,82306,6,0,P|386:203|401:145,1,120,6|2,0:0|0:0,0:0:0:0:
456,80,83352,1,8,0:0:0:0:
388,28,83701,2,0,L|268:28,1,120,2|2,0:0|0:0,0:0:0:0:
116,100,85096,6,0,P|107:159|115:218,1,120,6|2,0:0|0:0,0:0:0:0:
176,276,86143,1,8,0:0:0:0:
256,248,86492,2,0,L|316:248,1,60,2|8,0:0|0:0,0:0:0:0:
332,164,87189,2,0,L|272:164,1,60,2|8,0:0|0:0,0:0:0:0:
187,155,87887,6,0,P|158:151|130:140,1,60,6|14,0:0|0:0,0:0:0:0:
64,88,88585,2,0,P|88:70|115:58,1,60,2|8,0:0|0:0,0:0:0:0:
196,76,89282,2,0,B|316:76,1,120,6|2,0:0|0:0,0:0:0:0:
392,116,90329,1,8,0:0:0:0:
448,180,90678,6,0,P|460:238|446:296,2,120,6|6|6,0:0|0:0|0:0,0:0:0:0:
280,200,92771,2,0,P|252:200|212:204,1,60,6|14,0:0|0:0,0:0:0:0:
180,276,93469,6,0,L|60:248,2,120,6|2|2,0:0|0:0|0:0,0:0:0:0:
256,308,95213,1,8,0:0:0:0:
324,256,95562,2,0,P|344:232|376:204,1,60,6|8,0:0|0:0,0:0:0:0:
432,160,96259,6,0,P|447:110|416:39,2,120,6|2|2,0:0|0:0|0:0,0:0:0:0:
364,107,98003,1,8,0:0:0:0:
288,144,98352,2,0,L|216:132,1,60,2|8,0:0|0:0,0:0:0:0:
184,204,99050,6,0,B|160:224|160:224|116:204|74:219,2,120,6|2|2,0:0|0:0|0:0,0:0:0:0:
256,248,100794,1,8,0:0:0:0:
328,288,101143,2,0,P|336:260|336:224,1,60,6|8,0:0|0:0,0:0:0:0:
416,200,101841,6,0,L|388:72,2,120,6|6|6,0:0|0:0|0:0,0:0:0:0:
256,248,103934,1,6,0:0:0:0:
192,304,104282,1,8,0:0:0:0:
120,264,104631,6,0,B|87:265|62:275|62:275|31:264|2:265,2,120,6|2|2,0:0|0:0|0:0,0:0:0:0:
168,192,106376,1,8,0:0:0:0:
108,132,106724,2,0,P|104:108|108:60,1,60,2|8,0:0|0:0,0:0:0:0:
188,96,107422,6,0,B|305:118,1,120,6|2,0:0|0:0,0:0:0:0:
368,176,108469,1,8,0:0:0:0:
380,260,108817,2,0,B|262:237,1,120,2|2,0:0|0:0,0:0:0:0:
192,284,109864,1,8,0:0:0:0:
124,236,110213,6,0,B|146:118,1,120,6|2,0:0|0:0,0:0:0:0:
212,68,111259,1,8,0:0:0:0:
284,108,111608,2,0,P|343:115|403:112,1,120,6|2,0:0|0:0,0:0:0:0:
456,180,112655,1,8,0:0:0:0:
428,260,113003,6,0,P|368:252|308:255,1,120,6|2,0:0|0:0,0:0:0:0:
256,324,114050,1,8,0:0:0:0:
172,312,114399,2,0,L|154:254,1,60,6|8,0:0|0:0,0:0:0:0:
80,212,115096,2,0,L|107:158,1,60,6|8,0:0|0:0,0:0:0:0:
88,76,115794,6,0,P|147:68|206:73,2,120,6|8|2,0:0|0:0|0:0,0:0:0:0:
36,140,117538,1,0,0:0:0:0:
80,212,117887,2,0,L|152:212,1,60,8|0,0:0|0:0,0:0:0:0:
196,276,118585,6,0,L|328:276,2,120,2|8|2,0:0|0:0|0:0,0:0:0:0:
204,192,120329,1,0,0:0:0:0:
152,124,120678,2,0,P|120:124|84:128,2,60,8|0|6,0:0|0:0|0:0,0:0:0:0:
256,192,121550,12,0,126782,0:0:0:0:
