osu file format v14

[General]
AudioFilename: Examination Hell (The Final Round).mp3
AudioLeadIn: 0
PreviewTime: 68770
Countdown: 0
SampleSet: Normal
StackLeniency: 1
Mode: 3
LetterboxInBreaks: 0
EpilepsyWarning: 1
SpecialStyle: 0
WidescreenStoryboard: 1

[Editor]
DistanceSpacing: 1.1
BeatDivisor: 4
GridSize: 32
TimelineZoom: 0.8

[Metadata]
Title:Exam Hell(The Final Round)
TitleUnicode:입시지옥 (The Final Round)
Artist:Studio Doma
ArtistUnicode:Studio Doma
Creator:gudrnjs9217
Version:Normal
Source:O2JAM
Tags:Studio_Doma gudrnjs9217 Exam_hell(The_Final_Round)
BeatmapID:623439
BeatmapSetID:274741

[Difficulty]
HPDrainRate:7
CircleSize:4
OverallDifficulty:7
ApproachRate:5
SliderMultiplier:1.4
SliderTickRate:1

[Events]
//Background and Video events
0,0,"NormalMix.png",0,0
//Break Periods
//Storyboard Layer 0 (Background)
//Storyboard Layer 1 (Fail)
//Storyboard Layer 2 (Pass)
//Storyboard Layer 3 (Foreground)
//Storyboard Sound Samples

[TimingPoints]
2911,365.853658536585,4,1,0,20,1,0
70005,-100,4,1,0,20,0,1
93670,-100,4,1,0,20,0,0

[HitObjects]
448,192,2910,5,0,0:0:0:0:
320,192,3642,1,0,0:0:0:0:
192,192,4374,1,0,0:0:0:0:
64,192,5106,1,0,0:0:0:0:
64,192,8764,1,0,0:0:0:0:
320,192,9496,1,0,0:0:0:0:
448,192,10228,1,0,0:0:0:0:
192,192,10959,1,0,0:0:0:0:
64,192,14618,128,8,15624:0:0:0:0:
448,192,14618,128,8,15624:0:0:0:0:
320,192,16081,1,0,0:0:0:0:
448,192,16173,1,0,0:0:0:0:
320,192,16264,1,0,0:0:0:0:
192,192,16447,1,0,0:0:0:0:
64,192,16630,1,0,0:0:0:0:
192,192,16813,128,0,17087:0:0:0:0:
64,192,17179,1,0,0:0:0:0:
448,192,17362,128,0,17453:0:0:0:0:
320,192,17636,1,0,0:0:0:0:
448,192,17728,1,0,0:0:0:0:
320,192,17910,1,0,0:0:0:0:
64,192,18093,1,0,0:0:0:0:
448,192,18276,128,0,18551:0:0:0:0:
64,192,18642,1,0,0:0:0:0:
320,192,19191,1,0,0:0:0:0:
64,192,19374,1,0,0:0:0:0:
448,192,19374,1,0,0:0:0:0:
320,192,19557,1,0,0:0:0:0:
320,192,19923,1,0,0:0:0:0:
192,192,20106,1,0,0:0:0:0:
448,192,20106,1,0,0:0:0:0:
320,192,20289,1,0,0:0:0:0:
192,192,20654,1,0,0:0:0:0:
64,192,20837,1,0,0:0:0:0:
448,192,20837,1,0,0:0:0:0:
192,192,21020,1,0,0:0:0:0:
192,192,21386,1,0,0:0:0:0:
64,192,21569,1,0,0:0:0:0:
320,192,21569,1,0,0:0:0:0:
192,192,21660,1,0,0:0:0:0:
64,192,21752,1,0,0:0:0:0:
448,192,21752,1,0,0:0:0:0:
192,192,21843,1,0,0:0:0:0:
320,192,21935,1,0,0:0:0:0:
448,192,22026,1,0,0:0:0:0:
320,192,22118,1,0,0:0:0:0:
192,192,22301,1,0,0:0:0:0:
64,192,22484,1,0,0:0:0:0:
192,192,22667,128,0,22941:0:0:0:0:
64,192,23032,1,0,0:0:0:0:
448,192,23215,128,0,23307:0:0:0:0:
320,192,23490,1,0,0:0:0:0:
448,192,23581,1,0,0:0:0:0:
320,192,23764,1,0,0:0:0:0:
64,192,23947,1,0,0:0:0:0:
448,192,24130,128,0,24404:0:0:0:0:
64,192,24496,1,0,0:0:0:0:
320,192,25045,1,0,0:0:0:0:
64,192,25228,1,0,0:0:0:0:
448,192,25228,1,0,0:0:0:0:
320,192,25410,1,0,0:0:0:0:
320,192,25776,1,0,0:0:0:0:
192,192,25959,1,0,0:0:0:0:
448,192,25959,1,0,0:0:0:0:
320,192,26142,1,0,0:0:0:0:
192,192,26508,1,0,0:0:0:0:
320,192,26508,1,0,0:0:0:0:
64,192,26874,1,0,0:0:0:0:
448,192,26874,1,0,0:0:0:0:
192,192,27240,1,0,0:0:0:0:
320,192,27240,1,0,0:0:0:0:
64,192,27423,1,0,0:0:0:0:
192,192,27514,1,0,0:0:0:0:
320,192,27606,1,0,0:0:0:0:
192,192,27697,1,0,0:0:0:0:
64,192,27789,1,0,0:0:0:0:
448,192,27789,1,0,0:0:0:0:
320,192,28154,128,0,28429:0:0:0:0:
192,192,28520,128,0,28795:0:0:0:0:
320,192,28886,128,0,29160:0:0:0:0:
448,192,29252,128,0,29526:0:0:0:0:
320,192,29618,128,0,29892:0:0:0:0:
192,192,29984,128,0,30258:0:0:0:0:
320,192,30350,128,0,30624:0:0:0:0:
192,192,30715,128,0,31173:0:0:0:0:
64,192,31264,128,0,32087:0:0:0:0:
192,192,32179,1,0,0:0:0:0:
192,192,32362,1,0,0:0:0:0:
64,192,32545,1,0,0:0:0:0:
320,192,32910,1,0,0:0:0:0:
320,192,33093,1,0,0:0:0:0:
448,192,33276,1,0,0:0:0:0:
192,192,34008,128,0,34282:0:0:0:0:
64,192,34374,128,0,34648:0:0:0:0:
320,192,34740,128,0,35014:0:0:0:0:
192,192,35106,128,0,35380:0:0:0:0:
320,192,35471,128,0,35746:0:0:0:0:
448,192,35837,128,0,36112:0:0:0:0:
320,192,36203,128,0,36478:0:0:0:0:
192,192,36569,128,0,37026:0:0:0:0:
64,192,37118,128,0,37941:0:0:0:0:
448,192,38032,1,0,0:0:0:0:
192,192,38215,1,0,0:0:0:0:
448,192,38398,1,0,0:0:0:0:
192,192,38581,1,0,0:0:0:0:
320,192,38764,1,0,0:0:0:0:
64,192,38947,1,0,0:0:0:0:
320,192,39130,1,0,0:0:0:0:
64,192,39313,1,0,0:0:0:0:
320,192,39496,1,0,0:0:0:0:
192,192,40959,1,0,0:0:0:0:
320,192,42423,1,0,0:0:0:0:
192,192,43886,1,0,0:0:0:0:
448,192,44069,1,0,0:0:0:0:
192,192,44252,1,0,0:0:0:0:
448,192,44435,1,0,0:0:0:0:
192,192,44618,1,0,0:0:0:0:
448,192,44801,1,0,0:0:0:0:
192,192,44984,1,0,0:0:0:0:
320,192,45075,1,0,0:0:0:0:
192,192,45167,1,0,0:0:0:0:
320,192,45258,1,0,0:0:0:0:
448,192,45350,1,0,0:0:0:0:
192,192,45532,1,0,0:0:0:0:
64,192,45715,1,0,0:0:0:0:
448,192,45715,1,0,0:0:0:0:
192,192,45898,1,0,0:0:0:0:
192,192,46264,1,0,0:0:0:0:
64,192,46447,1,0,0:0:0:0:
448,192,46447,1,0,0:0:0:0:
192,192,46630,1,0,0:0:0:0:
320,192,46996,1,0,0:0:0:0:
448,192,47179,1,0,0:0:0:0:
64,192,47179,1,0,0:0:0:0:
320,192,47362,1,0,0:0:0:0:
320,192,47728,1,0,0:0:0:0:
448,192,47910,1,0,0:0:0:0:
64,192,47910,1,0,0:0:0:0:
320,192,48093,1,0,0:0:0:0:
320,192,48459,1,0,0:0:0:0:
192,192,48642,1,0,0:0:0:0:
448,192,48642,1,0,0:0:0:0:
320,192,48825,1,0,0:0:0:0:
192,192,49191,1,0,0:0:0:0:
320,192,49374,1,0,0:0:0:0:
64,192,49374,1,0,0:0:0:0:
192,192,49557,1,0,0:0:0:0:
320,192,49923,1,0,0:0:0:0:
192,192,50106,1,0,0:0:0:0:
448,192,50106,1,0,0:0:0:0:
320,192,50289,1,0,0:0:0:0:
192,192,50654,1,0,0:0:0:0:
448,192,50837,128,0,50929:0:0:0:0:
64,192,50837,1,0,0:0:0:0:
64,192,51020,128,0,51112:0:0:0:0:
448,192,51203,1,0,0:0:0:0:
192,192,51203,1,0,0:0:0:0:
320,192,51386,1,0,0:0:0:0:
192,192,51569,1,0,0:0:0:0:
64,192,51569,1,0,0:0:0:0:
448,192,51752,1,0,0:0:0:0:
320,192,51935,1,0,0:0:0:0:
192,192,52118,1,0,0:0:0:0:
448,192,52301,1,0,0:0:0:0:
64,192,52301,1,0,0:0:0:0:
320,192,52484,1,0,0:0:0:0:
192,192,52667,1,0,0:0:0:0:
448,192,52850,1,0,0:0:0:0:
320,192,53032,1,0,0:0:0:0:
64,192,53032,1,0,0:0:0:0:
192,192,53215,1,0,0:0:0:0:
448,192,53398,1,0,0:0:0:0:
320,192,53490,1,0,0:0:0:0:
192,192,53581,1,0,0:0:0:0:
64,192,53673,1,0,0:0:0:0:
448,192,53764,1,0,0:0:0:0:
192,192,53764,1,0,0:0:0:0:
320,192,53856,1,0,0:0:0:0:
192,192,53947,1,0,0:0:0:0:
64,192,54039,1,0,0:0:0:0:
192,192,54130,128,0,55502:0:0:0:0:
448,192,54496,1,0,0:0:0:0:
448,192,55228,1,0,0:0:0:0:
320,192,55593,128,0,56965:0:0:0:0:
64,192,55776,1,0,0:0:0:0:
192,192,56142,1,0,0:0:0:0:
192,192,56325,1,0,0:0:0:0:
448,192,57057,1,0,0:0:0:0:
192,192,57057,1,0,0:0:0:0:
64,192,57240,1,0,0:0:0:0:
64,192,57606,1,0,0:0:0:0:
64,192,57971,1,0,0:0:0:0:
64,192,58337,1,0,0:0:0:0:
448,192,58703,1,0,0:0:0:0:
448,192,59069,1,0,0:0:0:0:
448,192,59435,1,0,0:0:0:0:
448,192,59801,1,0,0:0:0:0:
192,192,60167,1,0,0:0:0:0:
192,192,60532,1,0,0:0:0:0:
192,192,60898,1,0,0:0:0:0:
192,192,61264,1,0,0:0:0:0:
448,192,61447,1,0,0:0:0:0:
448,192,61630,1,0,0:0:0:0:
64,192,61813,1,0,0:0:0:0:
448,192,61813,1,0,0:0:0:0:
448,192,62179,1,0,0:0:0:0:
448,192,62362,1,0,0:0:0:0:
64,192,62545,1,0,0:0:0:0:
448,192,62545,1,0,0:0:0:0:
64,192,62910,1,0,0:0:0:0:
448,192,63093,1,0,0:0:0:0:
64,192,63276,1,0,0:0:0:0:
448,192,63459,1,0,0:0:0:0:
448,192,63642,1,0,0:0:0:0:
320,192,63734,1,0,0:0:0:0:
192,192,63825,1,0,0:0:0:0:
64,192,63917,1,0,0:0:0:0:
448,192,64008,1,0,0:0:0:0:
320,192,64100,1,0,0:0:0:0:
192,192,64191,1,0,0:0:0:0:
64,192,64282,1,0,0:0:0:0:
192,192,64374,1,0,0:0:0:0:
320,192,64557,1,0,0:0:0:0:
192,192,64740,1,0,0:0:0:0:
320,192,64923,1,0,0:0:0:0:
448,192,65106,1,0,0:0:0:0:
320,192,65197,1,0,0:0:0:0:
192,192,65289,1,0,0:0:0:0:
64,192,65380,1,0,0:0:0:0:
448,192,65471,1,0,0:0:0:0:
320,192,65563,1,0,0:0:0:0:
192,192,65654,1,0,0:0:0:0:
64,192,65746,1,0,0:0:0:0:
192,192,65837,1,0,0:0:0:0:
320,192,66020,1,0,0:0:0:0:
192,192,66203,1,0,0:0:0:0:
320,192,66386,1,0,0:0:0:0:
192,192,66569,1,0,0:0:0:0:
320,192,66752,1,0,0:0:0:0:
192,192,66935,1,0,0:0:0:0:
320,192,67118,1,0,0:0:0:0:
64,192,67301,1,0,0:0:0:0:
448,192,67484,1,0,0:0:0:0:
64,192,67667,1,0,0:0:0:0:
448,192,67850,1,0,0:0:0:0:
64,192,68032,1,0,0:0:0:0:
448,192,68215,1,0,0:0:0:0:
64,192,68398,1,0,0:0:0:0:
448,192,68581,1,0,0:0:0:0:
64,192,68764,1,0,0:0:0:0:
320,192,68764,1,0,0:0:0:0:
64,192,68947,1,0,0:0:0:0:
320,192,68947,1,0,0:0:0:0:
192,192,69130,1,0,0:0:0:0:
448,192,69130,1,0,0:0:0:0:
192,192,69313,1,0,0:0:0:0:
448,192,69313,1,0,0:0:0:0:
320,192,69496,1,0,0:0:0:0:
64,192,69496,1,0,0:0:0:0:
320,192,69679,1,0,0:0:0:0:
64,192,69679,1,0,0:0:0:0:
448,192,69862,1,0,0:0:0:0:
192,192,69862,1,0,0:0:0:0:
448,192,70045,1,0,0:0:0:0:
192,192,70045,1,0,0:0:0:0:
64,192,70228,1,0,0:0:0:0:
64,192,70593,1,0,0:0:0:0:
448,192,70593,1,0,0:0:0:0:
64,192,70959,1,0,0:0:0:0:
64,192,71325,1,0,0:0:0:0:
448,192,71325,1,0,0:0:0:0:
320,192,71691,1,0,0:0:0:0:
320,192,72057,1,0,0:0:0:0:
192,192,72057,1,0,0:0:0:0:
320,192,72423,1,0,0:0:0:0:
320,192,72789,1,0,0:0:0:0:
192,192,72789,1,0,0:0:0:0:
448,192,73154,1,0,0:0:0:0:
320,192,73246,1,0,0:0:0:0:
192,192,73337,1,0,0:0:0:0:
64,192,73429,1,0,0:0:0:0:
192,192,73520,1,0,0:0:0:0:
448,192,73703,1,0,0:0:0:0:
320,192,73795,1,0,0:0:0:0:
192,192,73886,1,0,0:0:0:0:
64,192,73978,1,0,0:0:0:0:
192,192,74069,1,0,0:0:0:0:
448,192,74252,1,0,0:0:0:0:
320,192,74343,1,0,0:0:0:0:
192,192,74435,1,0,0:0:0:0:
64,192,74526,1,0,0:0:0:0:
192,192,74618,1,0,0:0:0:0:
448,192,74801,1,0,0:0:0:0:
320,192,74892,1,0,0:0:0:0:
192,192,74984,1,0,0:0:0:0:
64,192,75075,1,0,0:0:0:0:
192,192,75167,1,0,0:0:0:0:
192,192,75350,1,0,0:0:0:0:
64,192,75441,1,0,0:0:0:0:
192,192,75532,1,0,0:0:0:0:
320,192,75624,1,0,0:0:0:0:
448,192,75715,1,0,0:0:0:0:
320,192,75898,1,0,0:0:0:0:
64,192,76081,1,0,0:0:0:0:
64,192,76447,1,0,0:0:0:0:
448,192,76447,1,0,0:0:0:0:
64,192,76813,1,0,0:0:0:0:
64,192,77179,1,0,0:0:0:0:
448,192,77179,1,0,0:0:0:0:
320,192,77545,1,0,0:0:0:0:
320,192,77910,1,0,0:0:0:0:
192,192,77910,1,0,0:0:0:0:
320,192,78276,1,0,0:0:0:0:
320,192,78642,1,0,0:0:0:0:
192,192,78642,1,0,0:0:0:0:
448,192,79008,1,0,0:0:0:0:
320,192,79100,1,0,0:0:0:0:
192,192,79191,1,0,0:0:0:0:
64,192,79282,1,0,0:0:0:0:
192,192,79374,1,0,0:0:0:0:
448,192,79557,1,0,0:0:0:0:
320,192,79648,1,0,0:0:0:0:
192,192,79740,1,0,0:0:0:0:
64,192,79831,1,0,0:0:0:0:
192,192,79923,1,0,0:0:0:0:
448,192,80106,1,0,0:0:0:0:
320,192,80197,1,0,0:0:0:0:
192,192,80289,1,0,0:0:0:0:
64,192,80380,1,0,0:0:0:0:
192,192,80471,1,0,0:0:0:0:
448,192,80654,1,0,0:0:0:0:
320,192,80746,1,0,0:0:0:0:
192,192,80837,1,0,0:0:0:0:
64,192,80929,1,0,0:0:0:0:
192,192,81020,1,0,0:0:0:0:
192,192,81203,1,0,0:0:0:0:
64,192,81295,1,0,0:0:0:0:
192,192,81386,1,0,0:0:0:0:
320,192,81478,1,0,0:0:0:0:
448,192,81569,1,0,0:0:0:0:
320,192,81752,1,0,0:0:0:0:
448,192,81935,1,0,0:0:0:0:
320,192,82026,1,0,0:0:0:0:
448,192,82118,1,0,0:0:0:0:
64,192,82484,1,0,0:0:0:0:
192,192,82575,1,0,0:0:0:0:
64,192,82667,1,0,0:0:0:0:
448,192,83032,1,0,0:0:0:0:
320,192,83124,1,0,0:0:0:0:
448,192,83215,1,0,0:0:0:0:
64,192,83581,1,0,0:0:0:0:
192,192,83673,1,0,0:0:0:0:
64,192,83764,1,0,0:0:0:0:
448,192,84130,1,0,0:0:0:0:
64,192,84130,1,0,0:0:0:0:
64,192,84496,1,0,0:0:0:0:
448,192,84496,1,0,0:0:0:0:
448,192,84862,1,0,0:0:0:0:
320,192,84953,1,0,0:0:0:0:
448,192,85045,1,0,0:0:0:0:
64,192,85410,1,0,0:0:0:0:
192,192,85502,1,0,0:0:0:0:
64,192,85593,1,0,0:0:0:0:
448,192,85959,1,0,0:0:0:0:
320,192,86051,1,0,0:0:0:0:
448,192,86142,1,0,0:0:0:0:
64,192,86508,1,0,0:0:0:0:
192,192,86600,1,0,0:0:0:0:
64,192,86691,1,0,0:0:0:0:
64,192,87057,1,0,0:0:0:0:
192,192,87240,1,0,0:0:0:0:
320,192,87423,1,0,0:0:0:0:
448,192,87606,1,0,0:0:0:0:
64,192,87789,1,0,0:0:0:0:
320,192,87880,1,0,0:0:0:0:
192,192,87971,1,0,0:0:0:0:
448,192,88063,1,0,0:0:0:0:
64,192,88154,1,0,0:0:0:0:
320,192,88246,1,0,0:0:0:0:
192,192,88337,1,0,0:0:0:0:
448,192,88429,1,0,0:0:0:0:
64,192,88520,1,0,0:0:0:0:
320,192,88612,1,0,0:0:0:0:
192,192,88703,1,0,0:0:0:0:
448,192,88795,1,0,0:0:0:0:
64,192,88886,1,0,0:0:0:0:
320,192,88978,1,0,0:0:0:0:
192,192,89069,1,0,0:0:0:0:
448,192,89160,1,0,0:0:0:0:
64,192,89252,1,0,0:0:0:0:
320,192,89343,1,0,0:0:0:0:
192,192,89435,1,0,0:0:0:0:
448,192,89526,1,0,0:0:0:0:
64,192,89618,1,0,0:0:0:0:
320,192,89709,1,0,0:0:0:0:
192,192,89801,1,0,0:0:0:0:
448,192,89892,1,0,0:0:0:0:
64,192,89984,1,0,0:0:0:0:
320,192,90075,1,0,0:0:0:0:
192,192,90167,1,0,0:0:0:0:
448,192,90258,1,0,0:0:0:0:
64,192,90350,1,0,0:0:0:0:
320,192,90441,1,0,0:0:0:0:
192,192,90532,1,0,0:0:0:0:
448,192,90624,1,0,0:0:0:0:
64,192,90715,1,0,0:0:0:0:
448,192,90807,1,0,0:0:0:0:
192,192,90898,1,0,0:0:0:0:
320,192,90990,1,0,0:0:0:0:
64,192,91081,1,0,0:0:0:0:
448,192,91173,1,0,0:0:0:0:
192,192,91264,1,0,0:0:0:0:
320,192,91356,1,0,0:0:0:0:
64,192,91447,1,0,0:0:0:0:
448,192,91539,1,0,0:0:0:0:
192,192,91630,1,0,0:0:0:0:
320,192,91721,1,0,0:0:0:0:
64,192,91813,1,0,0:0:0:0:
448,192,91904,1,0,0:0:0:0:
192,192,91996,1,0,0:0:0:0:
320,192,92087,1,0,0:0:0:0:
64,192,92179,1,0,0:0:0:0:
448,192,92270,1,0,0:0:0:0:
192,192,92362,1,0,0:0:0:0:
320,192,92453,1,0,0:0:0:0:
64,192,92545,1,0,0:0:0:0:
448,192,92636,1,0,0:0:0:0:
192,192,92728,1,0,0:0:0:0:
320,192,92819,1,0,0:0:0:0:
64,192,92910,1,0,0:0:0:0:
448,192,93002,1,0,0:0:0:0:
192,192,93093,1,0,0:0:0:0:
320,192,93185,1,0,0:0:0:0:
64,192,93276,1,0,0:0:0:0:
448,192,93368,1,0,0:0:0:0:
192,192,93459,1,0,0:0:0:0:
320,192,93551,1,0,0:0:0:0:
64,192,93642,1,0,0:0:0:0:
448,192,93642,1,0,0:0:0:0:
192,192,94374,1,0,0:0:0:0:
320,192,95106,1,0,0:0:0:0:
64,192,95837,1,0,0:0:0:0:
64,192,99496,1,0,0:0:0:0:
320,192,100228,1,0,0:0:0:0:
448,192,100959,1,0,0:0:0:0:
192,192,101691,1,0,0:0:0:0:
64,192,105350,1,4,0:0:0:0:
448,192,105350,1,4,0:0:0:0:
