osu file format v14

[General]
AudioFilename: Cat Symphony.mp3
AudioLeadIn: 0
PreviewTime: 35213
Countdown: 0
SampleSet: Soft
StackLeniency: 0.7
Mode: 3
LetterboxInBreaks: 0
SpecialStyle: 0
WidescreenStoryboard: 0

[Editor]
DistanceSpacing: 0.6
BeatDivisor: 4
GridSize: 8
TimelineZoom: 1.5

[Metadata]
Title:Cat Symphony
TitleUnicode:Cat Symphony
Artist:Studio Doma
ArtistUnicode:Studio Doma
Creator:Sangahlolo
Version:Normal
Source:O2JAM
Tags:Classical
BeatmapID:433639
BeatmapSetID:179887

[Difficulty]
HPDrainRate:7
CircleSize:4
OverallDifficulty:7.5
ApproachRate:5
SliderMultiplier:1.4
SliderTickRate:1

[Events]
//Background and Video events
0,0,"Cat+Symphony+BG-1.jpg",0,0
//Break Periods
//Storyboard Layer 0 (Background)
//Storyboard Layer 1 (Fail)
//Storyboard Layer 2 (Pass)
//Storyboard Layer 3 (Foreground)
//Storyboard Sound Samples

[TimingPoints]
2207,416.666666666667,4,2,0,27,1,0
113873,307.692307692308,4,2,0,27,1,0
115103,300,4,2,0,27,1,0
116303,285.714285714286,4,2,0,27,1,0
116874,300,4,2,0,27,1,0
118674,272.727272727273,4,2,0,27,1,0

[HitObjects]
320,192,2207,128,0,5540:0:0:0:0:
448,192,5540,1,4,2:2:0:0:
64,192,5540,1,4,2:2:0:0:
320,192,7207,1,0,2:2:0:0:
192,192,8665,1,0,2:2:0:0:
320,192,8769,1,0,2:2:0:0:
448,192,8873,1,0,2:2:0:0:
64,192,9082,1,2,2:2:0:0:
64,192,9290,1,2,2:2:0:0:
192,192,9498,1,0,2:2:0:0:
320,192,9602,1,0,2:2:0:0:
448,192,9707,1,0,2:2:0:0:
64,192,9915,1,2,2:2:0:0:
64,192,10123,1,2,2:2:0:0:
192,192,10332,1,0,2:2:0:0:
320,192,10436,1,0,2:2:0:0:
448,192,10540,1,0,2:2:0:0:
64,192,10748,1,2,2:2:0:0:
448,192,10957,1,0,2:2:0:0:
192,192,11165,1,2,2:2:0:0:
320,192,11373,1,0,2:2:0:0:
64,192,11582,1,2,2:2:0:0:
64,192,11790,1,2,2:2:0:0:
320,192,11998,1,0,0:0:0:0:
192,192,12102,1,0,0:0:0:0:
64,192,12207,1,0,0:0:0:0:
448,192,12415,1,2,2:2:0:0:
448,192,12623,1,2,2:2:0:0:
320,192,12832,1,0,2:2:0:0:
192,192,12936,1,0,2:2:0:0:
64,192,13040,1,0,2:2:0:0:
448,192,13248,1,2,2:2:0:0:
448,192,13457,1,2,2:2:0:0:
320,192,13665,1,0,2:2:0:0:
192,192,13769,1,0,2:2:0:0:
64,192,13873,1,0,2:2:0:0:
192,192,14082,1,2,2:2:0:0:
320,192,14290,1,0,2:2:0:0:
64,192,14498,1,2,2:2:0:0:
448,192,14707,1,0,2:2:0:0:
192,192,14915,1,2,2:2:0:0:
192,192,15123,1,2,2:2:0:0:
448,192,15332,1,0,2:2:0:0:
320,192,15436,1,0,2:2:0:0:
192,192,15540,1,0,2:2:0:0:
64,192,15748,1,0,2:2:0:0:
64,192,15957,1,8,2:2:0:0:
192,192,16165,1,0,2:2:0:0:
320,192,16269,1,0,2:2:0:0:
448,192,16373,1,0,2:2:0:0:
64,192,16582,1,0,2:2:0:0:
64,192,16790,1,8,2:2:0:0:
448,192,16998,1,0,2:2:0:0:
320,192,17102,1,0,2:2:0:0:
192,192,17207,1,0,2:2:0:0:
64,192,17415,1,8,2:2:0:0:
448,192,17623,1,0,2:2:0:0:
192,192,17832,1,8,2:2:0:0:
320,192,18040,1,0,2:2:0:0:
192,192,18248,1,8,2:2:0:0:
192,192,18457,1,8,2:2:0:0:
448,192,18457,1,0,2:2:0:0:
64,192,18665,1,0,2:2:0:0:
320,192,18769,1,0,2:2:0:0:
448,192,18873,1,0,2:2:0:0:
192,192,19082,1,0,2:2:0:0:
192,192,19290,1,8,2:2:0:0:
448,192,19498,1,0,2:2:0:0:
192,192,19602,1,0,2:2:0:0:
64,192,19707,1,0,2:2:0:0:
320,192,19915,1,0,2:2:0:0:
320,192,20123,1,8,2:2:0:0:
64,192,20332,1,0,2:2:0:0:
320,192,20436,1,0,2:2:0:0:
448,192,20540,1,0,2:2:0:0:
192,192,20748,1,8,2:2:0:0:
320,192,20957,1,0,2:2:0:0:
64,192,21165,1,8,2:2:0:0:
448,192,21373,1,0,2:2:0:0:
64,192,21582,1,8,2:2:0:0:
64,192,21790,1,8,2:2:0:0:
448,192,21790,1,8,2:2:0:0:
320,192,21998,1,2,2:2:0:0:
192,192,22102,1,2,2:2:0:0:
64,192,22207,128,2,22623:0:0:0:0:
448,192,22415,1,8,2:2:0:0:
448,192,22623,1,8,2:2:0:0:
320,192,22832,1,2,2:2:0:0:
192,192,22936,1,2,2:2:0:0:
64,192,23040,128,2,23457:0:0:0:0:
448,192,23248,1,10,2:2:0:0:
448,192,23457,1,8,2:2:0:0:
320,192,23665,1,0,2:2:0:0:
192,192,23769,1,0,2:2:0:0:
64,192,23873,1,0,2:2:0:0:
448,192,24082,1,8,2:2:0:0:
64,192,24290,1,2,2:2:0:0:
320,192,24498,1,8,2:2:0:0:
192,192,24707,1,2,2:2:0:0:
448,192,24915,1,8,2:2:0:0:
448,192,25123,1,8,2:2:0:0:
192,192,25332,1,2,2:2:0:0:
320,192,25436,1,2,2:2:0:0:
448,192,25540,128,2,25957:0:0:0:0:
64,192,25748,1,8,2:2:0:0:
64,192,25957,1,8,2:2:0:0:
192,192,26165,1,2,2:2:0:0:
320,192,26269,1,2,2:2:0:0:
448,192,26373,128,2,26790:0:0:0:0:
64,192,26582,1,8,2:2:0:0:
64,192,26790,1,8,2:2:0:0:
192,192,26998,1,2,2:2:0:0:
320,192,27102,1,2,2:2:0:0:
448,192,27207,1,2,2:2:0:0:
64,192,27415,1,8,2:2:0:0:
448,192,27623,1,2,2:2:0:0:
192,192,27832,1,8,2:2:0:0:
320,192,28040,1,2,2:2:0:0:
64,192,28248,1,8,2:2:0:0:
64,192,28457,1,8,2:2:0:0:
448,192,28665,1,0,2:2:0:0:
320,192,28769,1,0,2:2:0:0:
448,192,28873,1,0,2:2:0:0:
192,192,29082,1,2,2:2:0:0:
192,192,29290,1,2,2:2:0:0:
448,192,29498,1,0,2:2:0:0:
320,192,29602,1,0,2:2:0:0:
448,192,29707,1,0,2:2:0:0:
64,192,29915,1,2,2:2:0:0:
64,192,30123,1,2,2:2:0:0:
448,192,30332,1,0,2:2:0:0:
320,192,30436,1,0,2:2:0:0:
448,192,30540,1,0,2:2:0:0:
192,192,30748,1,2,2:2:0:0:
320,192,30957,1,0,2:2:0:0:
64,192,31165,1,2,2:2:0:0:
448,192,31373,1,0,2:2:0:0:
192,192,31582,1,2,2:2:0:0:
192,192,31790,1,2,2:2:0:0:
64,192,31998,1,0,2:2:0:0:
192,192,32102,1,0,2:2:0:0:
64,192,32207,1,0,2:2:0:0:
320,192,32415,1,2,2:2:0:0:
320,192,32623,1,2,2:2:0:0:
64,192,32832,1,0,2:2:0:0:
192,192,32936,1,0,2:2:0:0:
64,192,33040,1,0,2:2:0:0:
448,192,33248,1,2,2:2:0:0:
448,192,33457,1,2,2:2:0:0:
64,192,33665,1,0,2:2:0:0:
192,192,33769,1,0,2:2:0:0:
64,192,33873,1,0,2:2:0:0:
320,192,34082,1,2,2:2:0:0:
64,192,34290,1,0,2:2:0:0:
448,192,34498,1,2,2:2:0:0:
192,192,34707,1,0,2:2:0:0:
320,192,34915,1,2,2:2:0:0:
192,192,35123,128,2,35540:2:2:0:0:
448,192,35123,1,2,0:0:0:0:
448,192,35540,1,4,2:2:0:0:
320,192,35540,1,2,0:0:0:0:
64,192,35748,1,8,2:2:0:0:
64,192,35957,1,8,2:2:0:0:
448,192,36165,1,2,2:2:0:0:
320,192,36269,1,2,2:2:0:0:
192,192,36373,1,2,2:2:0:0:
64,192,36582,1,8,2:2:0:0:
64,192,36790,1,8,2:2:0:0:
448,192,36998,1,2,2:2:0:0:
320,192,37102,1,2,2:2:0:0:
192,192,37207,1,2,2:2:0:0:
64,192,37415,1,8,2:2:0:0:
448,192,37623,1,2,2:2:0:0:
64,192,37832,1,8,2:2:0:0:
448,192,38040,1,2,2:2:0:0:
192,192,38248,1,8,2:2:0:0:
192,192,38457,1,8,2:2:0:0:
64,192,38665,1,2,2:2:0:0:
192,192,38769,1,2,2:2:0:0:
320,192,38873,1,2,2:2:0:0:
448,192,38873,1,4,0:0:0:0:
192,192,39082,1,8,2:2:0:0:
192,192,39290,1,8,2:2:0:0:
64,192,39498,1,2,2:2:0:0:
192,192,39602,1,2,2:2:0:0:
320,192,39707,1,2,2:2:0:0:
448,192,39915,1,8,2:2:0:0:
448,192,40123,1,8,2:2:0:0:
64,192,40332,1,2,2:2:0:0:
192,192,40436,1,2,2:2:0:0:
320,192,40540,1,2,2:2:0:0:
448,192,40748,1,8,2:2:0:0:
64,192,40957,1,2,2:2:0:0:
448,192,41165,1,8,2:2:0:0:
192,192,41373,1,2,2:2:0:0:
320,192,41582,1,8,2:2:0:0:
320,192,41790,1,8,2:2:0:0:
64,192,41998,1,2,2:2:0:0:
192,192,42102,1,2,2:2:0:0:
320,192,42207,1,2,2:2:0:0:
448,192,42207,1,4,0:0:0:0:
64,192,42415,1,8,2:2:0:0:
448,192,42623,1,2,2:2:0:0:
64,192,42832,1,8,2:2:0:0:
320,192,43040,1,2,2:2:0:0:
64,192,43248,1,8,2:2:0:0:
448,192,43457,1,2,2:2:0:0:
64,192,43665,1,8,2:2:0:0:
320,192,43873,1,2,2:2:0:0:
448,192,44082,1,2,2:2:0:0:
320,192,44290,1,2,2:2:0:0:
192,192,44498,1,2,2:2:0:0:
64,192,44707,1,2,2:2:0:0:
448,192,44915,1,8,2:2:0:0:
448,192,45123,1,8,2:2:0:0:
192,192,45332,1,2,2:2:0:0:
320,192,45436,1,2,2:2:0:0:
448,192,45540,1,2,2:2:0:0:
192,192,45540,1,4,0:0:0:0:
64,192,45748,1,8,2:2:0:0:
448,192,45957,1,2,2:2:0:0:
64,192,46165,1,8,2:2:0:0:
320,192,46373,1,2,2:2:0:0:
64,192,46582,1,8,2:2:0:0:
448,192,46790,1,2,2:2:0:0:
64,192,46998,1,8,2:2:0:0:
320,192,47207,1,2,2:2:0:0:
448,192,47415,1,2,2:2:0:0:
192,192,47623,1,2,2:2:0:0:
64,192,47832,1,2,2:2:0:0:
320,192,48040,1,2,2:2:0:0:
192,192,48248,1,8,2:2:0:0:
192,192,48457,1,8,2:2:0:0:
448,192,48665,128,0,48873:0:0:0:0:
320,192,48873,1,4,2:2:0:0:
192,192,48873,1,4,2:2:0:0:
320,192,49290,1,2,0:0:0:0:
64,192,49498,128,0,49707:0:0:0:0:
192,192,49707,1,4,2:2:0:0:
320,192,49707,1,4,2:2:0:0:
192,192,50123,1,2,0:0:0:0:
448,192,50332,128,0,50540:0:0:0:0:
320,192,50540,1,4,0:0:0:0:
64,192,50540,1,4,0:0:0:0:
192,192,50957,1,4,2:2:0:0:
448,192,50957,1,4,2:2:0:0:
320,192,51373,1,4,2:2:0:0:
192,192,51373,1,4,2:2:0:0:
64,192,51790,1,2,0:0:0:0:
448,192,51998,128,0,52207:0:0:0:0:
320,192,52207,1,4,2:2:0:0:
192,192,52207,1,4,2:2:0:0:
448,192,52623,1,2,0:0:0:0:
64,192,52832,128,0,53040:0:0:0:0:
320,192,53040,1,4,2:2:0:0:
192,192,53040,1,4,2:2:0:0:
64,192,53457,1,2,0:0:0:0:
448,192,53665,128,0,53873:0:0:0:0:
320,192,53873,1,4,2:2:0:0:
192,192,53873,1,4,2:2:0:0:
448,192,54290,1,4,2:2:0:0:
64,192,54290,1,4,2:2:0:0:
448,192,54915,1,4,2:2:0:0:
192,192,54915,1,4,2:2:0:0:
64,192,55123,1,4,2:2:0:0:
320,192,55123,1,4,2:2:0:0:
448,192,55332,1,2,0:1:0:0:
64,192,55540,128,2,56373:2:2:0:0:
320,192,55540,1,2,0:0:0:0:
448,192,56582,1,2,2:2:0:0:
320,192,56790,1,2,2:2:0:0:
192,192,56998,1,2,2:2:0:0:
64,192,57207,128,2,57832:2:2:0:0:
448,192,57832,128,2,58457:0:0:0:0:
320,192,58457,1,2,2:2:0:0:
192,192,58665,1,2,2:2:0:0:
64,192,58873,128,2,59498:0:0:0:0:
320,192,59498,1,2,2:2:0:0:
192,192,59707,128,2,60332:0:0:0:0:
448,192,59707,1,0,0:0:0:0:
320,192,60332,1,2,2:2:0:0:
448,192,60540,1,2,2:2:0:0:
64,192,60957,1,2,2:2:0:0:
192,192,61165,1,2,2:2:0:0:
448,192,61373,1,2,2:2:0:0:
320,192,61582,1,2,2:2:0:0:
192,192,61790,1,2,2:2:0:0:
64,192,61998,1,2,2:2:0:0:
192,192,62207,1,2,0:0:0:0:
448,192,62207,1,2,0:0:0:0:
64,192,62623,1,2,2:2:0:0:
192,192,62832,1,2,2:2:0:0:
320,192,63040,1,2,2:2:0:0:
448,192,63248,1,2,2:2:0:0:
192,192,63457,1,2,2:2:0:0:
64,192,63665,1,2,2:2:0:0:
320,192,63873,1,2,0:0:0:0:
64,192,64290,1,2,2:2:0:0:
192,192,64498,1,2,2:2:0:0:
320,192,64707,1,2,2:2:0:0:
448,192,64915,1,2,2:2:0:0:
320,192,65123,1,2,2:2:0:0:
64,192,65332,1,2,2:2:0:0:
192,192,65540,1,2,0:0:0:0:
448,192,65957,1,2,2:2:0:0:
192,192,66165,1,2,2:2:0:0:
64,192,66373,1,2,2:2:0:0:
320,192,66582,1,2,2:2:0:0:
192,192,66790,1,2,2:2:0:0:
320,192,66998,1,2,2:2:0:0:
64,192,67207,128,2,68873:2:2:0:0:
448,192,67207,128,2,68873:2:2:0:0:
64,192,69290,1,2,2:2:0:0:
192,192,69707,1,2,2:2:0:0:
320,192,70123,1,2,2:2:0:0:
448,192,70540,128,2,71373:0:0:0:0:
64,192,71373,1,8,2:2:0:0:
192,192,71998,1,0,2:2:0:0:
320,192,72102,1,0,2:2:0:0:
448,192,72207,1,0,2:2:0:0:
64,192,72415,1,2,2:2:0:0:
64,192,72623,1,2,2:2:0:0:
192,192,72832,1,0,2:2:0:0:
320,192,72936,1,0,2:2:0:0:
448,192,73040,1,0,2:2:0:0:
64,192,73248,1,2,2:2:0:0:
64,192,73457,1,2,2:2:0:0:
192,192,73665,1,0,2:2:0:0:
320,192,73769,1,0,2:2:0:0:
448,192,73873,1,0,2:2:0:0:
64,192,74082,1,2,2:2:0:0:
448,192,74290,1,0,2:2:0:0:
192,192,74498,1,2,2:2:0:0:
320,192,74707,1,0,2:2:0:0:
448,192,74915,1,2,2:2:0:0:
448,192,75123,1,2,2:2:0:0:
64,192,75332,1,0,2:2:0:0:
192,192,75436,1,0,2:2:0:0:
320,192,75540,1,0,2:2:0:0:
448,192,75748,1,2,2:2:0:0:
448,192,75957,1,2,2:2:0:0:
64,192,76165,1,0,2:2:0:0:
192,192,76269,1,0,2:2:0:0:
320,192,76373,1,0,2:2:0:0:
448,192,76582,1,2,2:2:0:0:
448,192,76790,1,2,2:2:0:0:
64,192,76998,1,0,2:2:0:0:
192,192,77102,1,0,2:2:0:0:
320,192,77207,1,0,2:2:0:0:
448,192,77415,1,2,2:2:0:0:
192,192,77623,1,0,2:2:0:0:
64,192,77832,1,2,2:2:0:0:
320,192,78040,1,0,2:2:0:0:
64,192,78248,1,2,2:2:0:0:
64,192,78457,1,2,2:2:0:0:
320,192,78665,1,0,2:2:0:0:
192,192,78769,1,0,2:2:0:0:
64,192,78873,1,0,2:2:0:0:
448,192,79082,1,8,2:2:0:0:
448,192,79290,1,8,2:2:0:0:
320,192,79498,1,0,2:2:0:0:
192,192,79602,1,0,2:2:0:0:
64,192,79707,1,0,2:2:0:0:
448,192,79915,1,8,2:2:0:0:
448,192,80123,1,8,2:2:0:0:
320,192,80332,1,0,2:2:0:0:
192,192,80436,1,0,2:2:0:0:
64,192,80540,1,0,2:2:0:0:
448,192,80748,1,8,2:2:0:0:
64,192,80957,1,0,2:2:0:0:
320,192,81165,1,8,2:2:0:0:
64,192,81373,1,0,2:2:0:0:
320,192,81582,1,8,2:2:0:0:
320,192,81790,1,8,2:2:0:0:
448,192,81998,1,0,2:2:0:0:
320,192,82102,1,0,2:2:0:0:
192,192,82207,1,0,2:2:0:0:
64,192,82415,1,8,2:2:0:0:
64,192,82623,1,8,2:2:0:0:
448,192,82832,1,0,2:2:0:0:
320,192,82936,1,0,2:2:0:0:
192,192,83040,1,0,2:2:0:0:
64,192,83248,1,8,2:2:0:0:
64,192,83457,1,8,2:2:0:0:
448,192,83665,1,0,2:2:0:0:
320,192,83769,1,0,2:2:0:0:
192,192,83873,1,0,2:2:0:0:
64,192,84082,1,8,2:2:0:0:
448,192,84290,1,0,2:2:0:0:
192,192,84498,1,8,2:2:0:0:
320,192,84707,1,0,2:2:0:0:
192,192,84915,1,8,2:2:0:0:
448,192,85123,128,8,85540:2:2:0:0:
192,192,85540,1,6,2:2:0:0:
320,192,85540,1,4,0:0:0:0:
64,192,85748,1,8,2:2:0:0:
64,192,85957,1,8,2:2:0:0:
192,192,86165,1,2,2:2:0:0:
320,192,86269,1,2,2:2:0:0:
448,192,86373,1,2,2:2:0:0:
64,192,86582,1,8,2:2:0:0:
64,192,86790,1,8,2:2:0:0:
192,192,86998,1,2,2:2:0:0:
320,192,87102,1,2,2:2:0:0:
448,192,87207,1,2,2:2:0:0:
64,192,87415,1,8,2:2:0:0:
448,192,87623,1,2,2:2:0:0:
192,192,87832,1,8,2:2:0:0:
320,192,88040,1,2,2:2:0:0:
64,192,88248,1,8,2:2:0:0:
64,192,88457,1,8,2:2:0:0:
320,192,88665,1,2,2:2:0:0:
192,192,88769,1,2,2:2:0:0:
64,192,88873,1,2,2:2:0:0:
320,192,88873,1,4,0:0:0:0:
448,192,89082,1,8,2:2:0:0:
448,192,89290,1,8,2:2:0:0:
320,192,89498,1,2,2:2:0:0:
192,192,89602,1,2,2:2:0:0:
64,192,89707,1,2,2:2:0:0:
448,192,89915,1,8,2:2:0:0:
448,192,90123,1,8,2:2:0:0:
320,192,90332,1,2,2:2:0:0:
192,192,90436,1,2,2:2:0:0:
64,192,90540,1,2,2:2:0:0:
448,192,90748,1,8,2:2:0:0:
320,192,90957,1,2,2:2:0:0:
192,192,91165,1,8,2:2:0:0:
64,192,91373,1,2,2:2:0:0:
448,192,91582,1,8,2:2:0:0:
448,192,91790,1,8,2:2:0:0:
64,192,91998,1,2,0:0:0:0:
192,192,92102,1,2,0:0:0:0:
448,192,92207,1,4,2:2:0:0:
320,192,92207,1,2,0:0:0:0:
192,192,92415,1,8,2:2:0:0:
320,192,92623,1,2,2:2:0:0:
192,192,92832,1,8,2:2:0:0:
448,192,93040,1,2,2:2:0:0:
64,192,93248,1,8,2:2:0:0:
448,192,93457,1,2,2:2:0:0:
64,192,93665,1,8,2:2:0:0:
320,192,93873,1,0,2:2:0:0:
448,192,94082,1,2,2:2:0:0:
320,192,94290,1,2,2:2:0:0:
192,192,94498,1,2,2:2:0:0:
64,192,94707,1,2,2:2:0:0:
64,192,95332,1,2,2:2:0:0:
192,192,95436,1,2,2:2:0:0:
320,192,95540,1,2,2:2:0:0:
448,192,95540,1,4,0:0:0:0:
64,192,95748,1,8,2:2:0:0:
448,192,95957,1,2,2:2:0:0:
64,192,96165,1,8,2:2:0:0:
320,192,96373,1,2,2:2:0:0:
192,192,96582,1,8,2:2:0:0:
320,192,96790,1,2,2:2:0:0:
192,192,96998,1,8,2:2:0:0:
448,192,97207,1,2,2:2:0:0:
64,192,97415,1,2,2:2:0:0:
192,192,97623,1,2,2:2:0:0:
320,192,97832,1,2,2:2:0:0:
448,192,98040,1,2,2:2:0:0:
320,192,98248,1,8,2:2:0:0:
320,192,98457,1,8,2:2:0:0:
64,192,98665,128,0,98873:0:0:0:0:
192,192,98873,1,4,2:2:0:0:
320,192,98873,1,4,2:2:0:0:
64,192,99290,1,2,0:0:0:0:
448,192,99498,128,0,99707:0:0:0:0:
192,192,99707,1,4,0:0:0:0:
320,192,99707,1,4,0:0:0:0:
320,192,100123,1,2,0:0:0:0:
64,192,100332,128,0,100540:0:0:0:0:
192,192,100540,1,4,0:0:0:0:
448,192,100540,1,4,0:0:0:0:
320,192,100957,1,4,2:2:0:0:
64,192,100957,1,4,2:2:0:0:
320,192,101373,1,4,2:2:0:0:
192,192,101373,1,4,2:2:0:0:
64,192,101790,1,2,0:0:0:0:
448,192,101998,128,0,102207:0:0:0:0:
320,192,102207,1,4,2:2:0:0:
192,192,102207,1,4,2:2:0:0:
448,192,102623,1,2,0:0:0:0:
64,192,102832,128,0,103040:0:0:0:0:
320,192,103040,1,4,2:2:0:0:
192,192,103040,1,4,2:2:0:0:
192,192,103457,1,2,0:0:0:0:
448,192,103665,128,0,103873:0:0:0:0:
320,192,103873,1,4,2:2:0:0:
64,192,103873,1,4,2:2:0:0:
448,192,104290,1,4,2:2:0:0:
192,192,104290,1,4,2:2:0:0:
448,192,104915,1,4,2:2:0:0:
192,192,104915,1,4,2:2:0:0:
64,192,105123,1,4,2:2:0:0:
320,192,105123,1,4,2:2:0:0:
192,192,105540,1,4,2:2:0:0:
320,192,105540,1,4,2:2:0:0:
448,192,105957,1,4,2:2:0:0:
64,192,105957,1,4,2:2:0:0:
448,192,106582,1,4,2:2:0:0:
64,192,106582,1,4,2:2:0:0:
448,192,106998,1,4,2:2:0:0:
64,192,106998,1,4,2:2:0:0:
320,192,107207,128,4,110540:0:0:0:0:
192,192,107207,128,4,110540:0:0:0:0:
448,192,110540,1,4,0:0:0:0:
64,192,110540,1,4,0:0:0:0:
448,192,113873,128,0,115103:0:0:0:0:
64,192,113873,128,0,115103:0:0:0:0:
192,192,115103,1,2,2:2:0:0:
192,192,115403,1,2,2:2:0:0:
448,192,115703,1,2,2:2:0:0:
64,192,115853,1,2,2:2:0:0:
320,192,116003,1,2,2:2:0:0:
192,192,116303,1,2,2:2:0:0:
192,192,116588,1,2,2:2:0:0:
320,192,116874,1,2,2:2:0:0:
192,192,117024,1,2,2:2:0:0:
448,192,117174,1,2,2:2:0:0:
64,192,117324,1,2,2:2:0:0:
192,192,117474,1,2,2:2:0:0:
448,192,117774,1,2,2:2:0:0:
64,192,118074,128,0,118524:2:2:0:0:
192,192,118524,1,2,2:2:0:0:
448,192,118674,1,2,2:2:0:0:
64,192,118810,1,2,2:2:0:0:
64,192,118946,1,2,2:2:0:0:
192,192,119083,1,2,2:2:0:0:
448,192,119219,1,2,2:2:0:0:
64,192,119355,1,2,2:2:0:0:
64,192,119492,1,2,2:2:0:0:
192,192,119628,1,2,2:2:0:0:
448,192,119764,1,2,2:2:0:0:
64,192,119901,1,2,2:2:0:0:
448,192,120037,1,2,2:2:0:0:
192,192,120174,1,2,2:2:0:0:
448,192,120310,1,2,2:2:0:0:
64,192,120446,1,2,2:2:0:0:
64,192,120583,1,2,2:2:0:0:
192,192,120719,1,2,2:2:0:0:
448,192,120855,1,2,2:2:0:0:
64,192,120992,1,2,2:2:0:0:
64,192,121128,1,2,2:2:0:0:
192,192,121264,1,2,2:2:0:0:
448,192,121401,1,2,2:2:0:0:
64,192,121537,1,2,2:2:0:0:
64,192,121674,1,2,2:2:0:0:
192,192,121810,1,2,2:2:0:0:
448,192,121946,1,2,2:2:0:0:
192,192,122083,1,2,2:2:0:0:
320,192,122219,1,2,2:2:0:0:
64,192,122355,1,2,2:2:0:0:
448,192,122492,1,2,2:2:0:0:
64,192,122628,1,2,2:2:0:0:
64,192,122764,1,2,2:2:0:0:
320,192,122901,1,2,2:2:0:0:
64,192,123037,1,2,2:2:0:0:
448,192,123174,1,8,2:2:0:0:
448,192,123310,1,8,2:2:0:0:
320,192,123446,1,2,2:2:0:0:
64,192,123583,1,2,2:2:0:0:
448,192,123719,1,8,2:2:0:0:
448,192,123855,1,8,2:2:0:0:
320,192,123992,1,0,2:2:0:0:
64,192,124128,1,0,2:2:0:0:
448,192,124264,1,8,2:2:0:0:
192,192,124401,1,2,2:2:0:0:
448,192,124537,1,8,2:2:0:0:
64,192,124674,1,2,2:2:0:0:
448,192,124810,1,8,2:2:0:0:
448,192,124946,1,8,2:2:0:0:
320,192,125083,1,2,2:2:0:0:
64,192,125219,1,2,2:2:0:0:
448,192,125355,1,8,2:2:0:0:
448,192,125492,1,8,2:2:0:0:
320,192,125628,1,2,2:2:0:0:
64,192,125764,1,2,2:2:0:0:
448,192,125901,1,8,2:2:0:0:
448,192,126037,1,8,2:2:0:0:
320,192,126174,1,2,2:2:0:0:
64,192,126310,1,2,2:2:0:0:
448,192,126446,1,8,2:2:0:0:
192,192,126583,1,2,2:2:0:0:
320,192,126719,1,8,2:2:0:0:
64,192,126855,1,2,2:2:0:0:
448,192,126992,1,8,2:2:0:0:
448,192,127128,1,8,2:2:0:0:
448,192,127401,1,2,2:2:0:0:
64,192,127537,1,2,2:2:0:0:
448,192,127674,1,2,2:2:0:0:
64,192,127810,1,2,2:2:0:0:
448,192,127946,1,2,2:2:0:0:
64,192,128083,1,2,2:2:0:0:
448,192,128219,1,2,2:2:0:0:
64,192,128355,1,2,2:2:0:0:
192,192,128492,1,8,2:2:0:0:
320,192,128492,1,8,2:2:0:0:
192,192,128764,1,8,2:2:0:0:
448,192,128764,1,8,2:2:0:0:
64,192,129037,1,8,2:2:0:0:
320,192,129037,1,8,2:2:0:0:
320,192,129583,1,2,2:2:0:0:
192,192,129719,1,2,2:2:0:0:
320,192,129855,1,2,2:2:0:0:
192,192,129992,1,2,2:2:0:0:
320,192,130128,1,2,2:2:0:0:
192,192,130264,1,2,2:2:0:0:
320,192,130401,1,2,2:2:0:0:
192,192,130537,1,2,2:2:0:0:
448,192,130674,1,8,2:2:0:0:
64,192,130674,1,8,2:2:0:0:
192,192,130946,1,8,2:2:0:0:
320,192,130946,1,8,2:2:0:0:
448,192,131219,1,8,2:2:0:0:
192,192,131219,1,8,2:2:0:0:
448,192,131628,128,0,131764:0:0:0:0:
320,192,131764,1,4,2:2:0:0:
192,192,131764,1,4,2:2:0:0:
64,192,132174,128,0,132310:0:0:0:0:
192,192,132310,1,4,0:0:0:0:
320,192,132310,1,4,0:0:0:0:
448,192,132719,128,0,132855:0:0:0:0:
320,192,132855,1,4,0:0:0:0:
192,192,132855,1,4,0:0:0:0:
448,192,133128,1,4,0:0:0:0:
64,192,133128,1,4,0:0:0:0:
192,192,133401,1,4,0:0:0:0:
320,192,133401,1,4,0:0:0:0:
64,192,133810,128,0,133946:0:0:0:0:
192,192,133946,1,4,0:0:0:0:
320,192,133946,1,4,0:0:0:0:
448,192,134355,128,0,134492:0:0:0:0:
320,192,134492,1,4,0:0:0:0:
192,192,134492,1,4,0:0:0:0:
64,192,134901,128,0,135037:0:0:0:0:
192,192,135037,1,4,2:2:0:0:
320,192,135037,1,4,2:2:0:0:
64,192,135310,1,4,0:0:0:0:
448,192,135310,1,4,0:0:0:0:
448,192,135583,1,4,0:0:0:0:
64,192,135583,1,4,0:0:0:0:
192,192,135719,1,4,0:0:0:0:
320,192,135719,1,4,0:0:0:0:
192,192,135855,1,4,0:0:0:0:
320,192,135855,1,4,0:0:0:0:
