osu file format v14

[General]
AudioFilename: dudududu.mp3
AudioLeadIn: 0
PreviewTime: -1
Countdown: 1
SampleSet: None
StackLeniency: 1
Mode: 0
LetterboxInBreaks: 1
WidescreenStoryboard: 0

[Editor]
DistanceSpacing: 0.7
BeatDivisor: 16
GridSize: 32
TimelineZoom: 1

[Metadata]
Title:The System Is Down
TitleUnicode:The System Is Down
Artist:Strongbad
ArtistUnicode:Strongbad
Creator:Coolpop33
Version:Normal
Source:
Tags:
BeatmapID:687904
BeatmapSetID:307479

[Difficulty]
HPDrainRate:5
CircleSize:5
OverallDifficulty:5
ApproachRate:6.4
SliderMultiplier:1.4
SliderTickRate:1

[Events]
//Background and Video events
//Break Periods
//Storyboard Layer 0 (Background)
//Storyboard Layer 1 (Fail)
//Storyboard Layer 2 (Pass)
//Storyboard Layer 3 (Foreground)
//Storyboard Sound Samples

[TimingPoints]
188.61756948333,114.72275334608,4,1,0,100,1,0

[HitObjects]
32,0,15,5,0,0:0:0:0:
64,0,42,1,0,0:0:0:0:
96,0,69,1,0,0:0:0:0:
128,0,97,1,0,0:0:0:0:
160,0,124,1,0,0:0:0:0:
192,0,151,1,0,0:0:0:0:
224,0,178,1,0,0:0:0:0:
256,0,205,1,0,0:0:0:0:
288,0,232,1,0,0:0:0:0:
320,0,259,1,0,0:0:0:0:
352,0,286,1,0,0:0:0:0:
384,0,313,1,0,0:0:0:0:
416,0,341,1,0,0:0:0:0:
448,0,368,1,0,0:0:0:0:
480,0,395,1,0,0:0:0:0:
512,0,422,1,0,0:0:0:0:
512,32,449,5,0,0:0:0:0:
480,32,476,1,0,0:0:0:0:
448,32,503,1,0,0:0:0:0:
416,32,530,1,0,0:0:0:0:
384,32,557,1,0,0:0:0:0:
352,32,585,1,0,0:0:0:0:
320,32,612,1,0,0:0:0:0:
288,32,639,1,0,0:0:0:0:
256,32,666,1,0,0:0:0:0:
224,32,693,1,0,0:0:0:0:
192,32,720,1,0,0:0:0:0:
192,32,747,1,0,0:0:0:0:
160,32,774,1,0,0:0:0:0:
128,32,801,1,0,0:0:0:0:
96,32,829,1,0,0:0:0:0:
64,32,856,1,0,0:0:0:0:
32,32,883,1,0,0:0:0:0:
0,32,910,1,0,0:0:0:0:
256,64,937,1,0,0:0:0:0:
224,96,964,1,0,0:0:0:0:
288,96,991,1,0,0:0:0:0:
192,128,1018,1,0,0:0:0:0:
320,128,1045,1,0,0:0:0:0:
160,160,1073,1,0,0:0:0:0:
352,160,1100,1,0,0:0:0:0:
384,192,1127,1,0,0:0:0:0:
128,192,1154,1,0,0:0:0:0:
96,224,1181,1,0,0:0:0:0:
416,224,1208,5,0,0:0:0:0:
64,256,1235,1,0,0:0:0:0:
448,256,1262,1,0,0:0:0:0:
96,288,1289,1,0,0:0:0:0:
416,288,1317,1,0,0:0:0:0:
128,320,1344,1,0,0:0:0:0:
384,320,1371,1,0,0:0:0:0:
160,352,1398,1,0,0:0:0:0:
352,352,1425,1,0,0:0:0:0:
192,352,1452,1,0,0:0:0:0:
320,352,1479,1,0,0:0:0:0:
224,352,1506,1,0,0:0:0:0:
288,352,1533,1,0,0:0:0:0:
256,352,1561,1,0,0:0:0:0:
256,320,1588,1,0,0:0:0:0:
256,288,1615,1,0,0:0:0:0:
256,256,1642,1,0,0:0:0:0:
256,224,1669,1,0,0:0:0:0:
224,224,1696,1,0,0:0:0:0:
288,224,1723,1,0,0:0:0:0:
192,256,1750,1,0,0:0:0:0:
320,256,1778,1,0,0:0:0:0:
160,288,1805,1,0,0:0:0:0:
352,288,1832,1,0,0:0:0:0:
256,192,1859,1,0,0:0:0:0:
256,128,1886,1,0,0:0:0:0:
256,160,1913,1,0,0:0:0:0:
256,96,1940,1,0,0:0:0:0:
256,64,1967,1,0,0:0:0:0:
256,32,1994,1,0,0:0:0:0:
160,128,2022,2,0,L|352:128,1,218.75
160,96,2076,6,0,L|384:96,1,218.75
160,64,2103,2,0,L|384:64,1,218.75
160,32,2157,2,0,L|384:32,1,218.75
160,160,2211,2,0,L|384:160,1,218.75
160,192,2266,2,0,L|384:192,1,218.75
160,224,2320,2,0,L|384:224,1,218.75
160,256,2374,2,0,L|384:256,1,218.75
160,288,2428,2,0,L|384:288,1,253.75
96,32,2510,1,0,0:0:0:0:
448,32,2537,1,0,0:0:0:0:
96,64,2564,1,0,0:0:0:0:
448,64,2591,1,0,0:0:0:0:
96,96,2618,1,0,0:0:0:0:
448,96,2645,1,0,0:0:0:0:
96,128,2672,1,0,0:0:0:0:
448,128,2699,1,0,0:0:0:0:
96,160,2726,1,0,0:0:0:0:
448,160,2781,1,0,0:0:0:0:
96,192,2808,1,0,0:0:0:0:
448,192,2835,1,0,0:0:0:0:
96,224,2862,1,0,0:0:0:0:
448,224,2889,1,0,0:0:0:0:
96,256,2916,1,0,0:0:0:0:
448,256,2943,1,0,0:0:0:0:
448,288,2998,1,0,0:0:0:0:
96,288,3025,1,0,0:0:0:0:
128,160,3079,1,0,0:0:0:0:
160,160,3106,1,0,0:0:0:0:
192,128,3160,1,0,0:0:0:0:
224,96,3187,1,0,0:0:0:0:
256,64,3215,1,0,0:0:0:0:
288,96,3242,1,0,0:0:0:0:
320,128,3269,1,0,0:0:0:0:
352,160,3296,1,0,0:0:0:0:
384,160,3323,1,0,0:0:0:0:
416,160,3350,1,0,0:0:0:0:
256,96,3377,1,0,0:0:0:0:
256,128,3404,1,0,0:0:0:0:
256,160,3431,1,0,0:0:0:0:
256,192,3459,1,0,0:0:0:0:
256,224,3486,1,0,0:0:0:0:
256,256,3513,1,0,0:0:0:0:
256,288,3540,1,0,0:0:0:0:
224,288,3567,1,0,0:0:0:0:
320,288,3594,1,0,0:0:0:0:
224,256,3621,1,0,0:0:0:0:
288,256,3648,1,0,0:0:0:0:
288,224,3675,1,0,0:0:0:0:
224,224,3703,1,0,0:0:0:0:
224,192,3730,1,0,0:0:0:0:
288,192,3757,1,0,0:0:0:0:
288,160,3784,1,0,0:0:0:0:
0,0,3811,1,0,0:0:0:0:
0,32,3838,1,0,0:0:0:0:
32,0,3865,1,0,0:0:0:0:
32,32,3919,1,0,0:0:0:0:
448,384,3947,1,0,0:0:0:0:
480,384,3974,1,0,0:0:0:0:
448,352,4001,1,0,0:0:0:0:
480,352,4028,1,0,0:0:0:0:
448,0,4082,1,0,0:0:0:0:
480,0,4109,1,0,0:0:0:0:
448,32,4136,1,0,0:0:0:0:
480,32,4163,1,0,0:0:0:0:
0,352,4191,1,0,0:0:0:0:
32,352,4218,1,0,0:0:0:0:
0,320,4245,1,0,0:0:0:0:
32,320,4272,1,0,0:0:0:0:
256,384,4435,5,0,0:0:0:0:
224,352,4462,1,0,0:0:0:0:
288,352,4489,1,0,0:0:0:0:
192,320,4516,1,0,0:0:0:0:
320,320,4543,1,0,0:0:0:0:
352,288,4570,1,0,0:0:0:0:
160,288,4597,1,0,0:0:0:0:
384,256,4624,1,0,0:0:0:0:
128,256,4651,1,0,0:0:0:0:
96,224,4679,1,0,0:0:0:0:
416,224,4706,1,0,0:0:0:0:
64,192,4733,1,0,0:0:0:0:
448,192,4760,1,0,0:0:0:0:
32,160,4787,1,0,0:0:0:0:
480,160,4814,1,0,0:0:0:0:
32,128,4841,1,0,0:0:0:0:
448,128,4868,1,0,0:0:0:0:
64,96,4896,1,0,0:0:0:0:
416,96,4923,1,0,0:0:0:0:
96,64,4950,1,0,0:0:0:0:
384,64,4977,1,0,0:0:0:0:
128,64,5004,1,0,0:0:0:0:
352,64,5031,1,0,0:0:0:0:
160,64,5058,1,0,0:0:0:0:
320,64,5085,1,0,0:0:0:0:
192,96,5112,1,0,0:0:0:0:
288,96,5140,1,0,0:0:0:0:
224,128,5167,1,0,0:0:0:0:
256,128,5194,1,0,0:0:0:0:
224,32,5248,1,0,0:0:0:0:
448,32,5275,1,0,0:0:0:0:
416,32,5302,1,0,0:0:0:0:
256,32,5329,1,0,0:0:0:0:
384,32,5356,1,0,0:0:0:0:
288,32,5384,1,0,0:0:0:0:
352,32,5411,1,0,0:0:0:0:
320,32,5438,1,0,0:0:0:0:
224,64,5465,1,0,0:0:0:0:
224,96,5492,1,0,0:0:0:0:
224,160,5519,1,0,0:0:0:0:
224,192,5546,1,0,0:0:0:0:
224,224,5573,1,0,0:0:0:0:
224,256,5600,1,0,0:0:0:0:
224,288,5628,1,0,0:0:0:0:
256,128,5655,1,0,0:0:0:0:
288,128,5682,1,0,0:0:0:0:
352,128,5709,1,0,0:0:0:0:
320,128,5736,1,0,0:0:0:0:
384,128,5763,1,0,0:0:0:0:
32,64,5817,1,0,0:0:0:0:
32,96,5844,1,0,0:0:0:0:
32,192,5926,1,0,0:0:0:0:
32,224,5953,1,0,0:0:0:0:
32,224,5980,1,0,0:0:0:0:
32,256,6007,1,0,0:0:0:0:
32,288,6034,1,0,0:0:0:0:
32,320,6061,1,0,0:0:0:0:
96,320,6088,1,0,0:0:0:0:
64,320,6116,1,0,0:0:0:0:
128,320,6143,1,0,0:0:0:0:
160,320,6170,1,0,0:0:0:0:
192,320,6197,1,0,0:0:0:0:
192,288,6224,1,0,0:0:0:0:
192,256,6251,1,0,0:0:0:0:
192,224,6278,1,0,0:0:0:0:
192,192,6305,1,0,0:0:0:0:
192,192,6332,1,0,0:0:0:0:
192,160,6360,1,0,0:0:0:0:
192,128,6387,1,0,0:0:0:0:
192,96,6414,1,0,0:0:0:0:
192,64,6441,1,0,0:0:0:0:
480,64,6468,1,0,0:0:0:0:
416,64,6495,1,0,0:0:0:0:
448,64,6522,1,0,0:0:0:0:
384,64,6549,1,0,0:0:0:0:
352,64,6577,1,0,0:0:0:0:
320,64,6604,1,0,0:0:0:0:
320,64,6631,1,0,0:0:0:0:
288,64,6658,1,0,0:0:0:0:
256,64,6685,1,0,0:0:0:0:
256,96,6712,1,0,0:0:0:0:
256,128,6739,1,0,0:0:0:0:
256,160,6766,1,0,0:0:0:0:
256,192,6793,1,0,0:0:0:0:
256,224,6821,1,0,0:0:0:0:
256,256,6848,1,0,0:0:0:0:
256,288,6875,1,0,0:0:0:0:
256,320,6902,1,0,0:0:0:0:
288,320,6929,1,0,0:0:0:0:
320,352,6956,1,0,0:0:0:0:
320,320,6983,1,0,0:0:0:0:
352,320,7010,1,0,0:0:0:0:
384,320,7037,1,0,0:0:0:0:
416,320,7065,1,0,0:0:0:0:
448,320,7092,1,0,0:0:0:0:
480,320,7119,1,0,0:0:0:0:
32,64,7146,1,0,0:0:0:0:
32,96,7173,1,0,0:0:0:0:
32,128,7227,1,0,0:0:0:0:
32,192,7281,1,0,0:0:0:0:
32,160,7309,1,0,0:0:0:0:
32,224,7336,1,0,0:0:0:0:
32,256,7363,1,0,0:0:0:0:
32,288,7390,1,0,0:0:0:0:
32,320,7417,1,0,0:0:0:0:
64,160,7444,1,0,0:0:0:0:
64,192,7471,1,0,0:0:0:0:
96,128,7498,1,0,0:0:0:0:
96,224,7525,1,0,0:0:0:0:
128,96,7553,1,0,0:0:0:0:
128,256,7580,1,0,0:0:0:0:
160,64,7607,1,0,0:0:0:0:
160,288,7634,5,0,0:0:0:0:
192,32,7661,1,0,0:0:0:0:
192,320,7688,1,0,0:0:0:0:
224,0,7715,1,0,0:0:0:0:
64,32,7878,6,0,L|416:32|416:32,1,350
416,32,7932,2,0,L|416:320,1,288.75
416,320,7986,2,0,L|64:320,1,350
66,320,8041,2,0,P|64:32|64:0,1,315
32,352,8068,1,0,0:0:0:0:
64,320,8095,1,0,0:0:0:0:
96,288,8122,1,0,0:0:0:0:
128,256,8149,1,0,0:0:0:0:
160,224,8176,1,0,0:0:0:0:
192,192,8203,1,0,0:0:0:0:
224,160,8230,1,0,0:0:0:0:
256,128,8258,1,0,0:0:0:0:
288,96,8285,1,0,0:0:0:0:
320,64,8312,1,0,0:0:0:0:
352,32,8339,1,0,0:0:0:0:
384,0,8366,1,0,0:0:0:0:
32,0,8393,1,0,0:0:0:0:
64,32,8420,1,0,0:0:0:0:
96,64,8447,1,0,0:0:0:0:
128,64,8474,1,0,0:0:0:0:
128,96,8502,1,0,0:0:0:0:
160,128,8529,1,0,0:0:0:0:
192,160,8556,1,0,0:0:0:0:
224,192,8583,1,0,0:0:0:0:
256,224,8610,1,0,0:0:0:0:
288,256,8637,1,0,0:0:0:0:
320,256,8664,1,0,0:0:0:0:
320,288,8691,1,0,0:0:0:0:
352,320,8718,1,0,0:0:0:0:
384,352,8746,1,0,0:0:0:0:
448,352,8773,1,0,0:0:0:0:
416,384,8800,1,0,0:0:0:0:
0,192,9071,1,0,0:0:0:0:
32,160,9098,1,0,0:0:0:0:
32,192,9125,1,0,0:0:0:0:
96,224,9152,1,0,0:0:0:0:
64,192,9179,1,0,0:0:0:0:
96,192,9206,1,0,0:0:0:0:
128,160,9234,1,0,0:0:0:0:
128,192,9261,1,0,0:0:0:0:
160,192,9288,1,0,0:0:0:0:
160,224,9315,1,0,0:0:0:0:
192,192,9342,1,0,0:0:0:0:
192,160,9369,1,0,0:0:0:0:
224,192,9396,1,0,0:0:0:0:
224,224,9423,1,0,0:0:0:0:
224,160,9450,1,0,0:0:0:0:
256,192,9478,1,0,0:0:0:0:
256,160,9505,1,0,0:0:0:0:
256,224,9532,1,0,0:0:0:0:
288,192,9559,1,0,0:0:0:0:
288,160,9586,1,0,0:0:0:0:
288,224,9613,1,0,0:0:0:0:
320,192,9640,1,0,0:0:0:0:
320,160,9667,1,0,0:0:0:0:
320,224,9695,1,0,0:0:0:0:
352,192,9722,1,0,0:0:0:0:
352,160,9749,1,0,0:0:0:0:
352,224,9776,1,0,0:0:0:0:
384,192,9803,1,0,0:0:0:0:
384,160,9830,1,0,0:0:0:0:
384,224,9857,1,0,0:0:0:0:
416,192,9884,1,0,0:0:0:0:
416,160,9939,1,0,0:0:0:0:
416,224,9966,1,0,0:0:0:0:
448,192,9993,1,0,0:0:0:0:
448,160,10020,1,0,0:0:0:0:
448,256,10047,1,0,0:0:0:0:
0,0,10074,1,0,0:0:0:0:
0,32,10101,1,0,0:0:0:0:
0,64,10128,1,0,0:0:0:0:
32,64,10155,1,0,0:0:0:0:
32,64,10183,1,0,0:0:0:0:
64,64,10210,1,0,0:0:0:0:
64,64,10237,1,0,0:0:0:0:
96,64,10264,1,0,0:0:0:0:
96,64,10291,1,0,0:0:0:0:
96,64,10318,1,0,0:0:0:0:
96,64,10345,1,0,0:0:0:0:
96,64,10372,1,0,0:0:0:0:
128,64,10399,1,0,0:0:0:0:
160,64,10427,1,0,0:0:0:0:
192,64,10454,1,0,0:0:0:0:
192,64,10481,1,0,0:0:0:0:
224,64,10508,1,0,0:0:0:0:
224,64,10535,1,0,0:0:0:0:
256,64,10562,1,0,0:0:0:0:
288,64,10589,1,0,0:0:0:0:
320,64,10616,1,0,0:0:0:0:
352,64,10643,1,0,0:0:0:0:
160,32,10671,1,0,0:0:0:0:
96,32,10725,1,0,0:0:0:0:
64,32,10752,1,0,0:0:0:0:
128,32,10779,1,0,0:0:0:0:
192,32,10806,1,0,0:0:0:0:
128,96,10860,1,0,0:0:0:0:
128,128,10887,1,0,0:0:0:0:
128,128,10915,1,0,0:0:0:0:
128,160,10942,1,0,0:0:0:0:
160,128,10969,1,0,0:0:0:0:
96,128,10996,1,0,0:0:0:0:
256,192,11023,1,0,0:0:0:0:
224,224,11050,1,0,0:0:0:0:
288,160,11077,1,0,0:0:0:0:
224,160,11104,1,0,0:0:0:0:
288,224,11131,1,0,0:0:0:0:
192,192,11159,1,0,0:0:0:0:
320,192,11186,1,0,0:0:0:0:
256,128,11213,1,0,0:0:0:0:
288,128,11240,1,0,0:0:0:0:
320,160,11267,1,0,0:0:0:0:
320,224,11294,1,0,0:0:0:0:
256,256,11321,1,0,0:0:0:0:
224,256,11348,1,0,0:0:0:0:
192,224,11376,1,0,0:0:0:0:
192,256,11403,1,0,0:0:0:0:
192,160,11430,1,0,0:0:0:0:
192,128,11457,1,0,0:0:0:0:
224,128,11484,1,0,0:0:0:0:
320,128,11511,1,0,0:0:0:0:
320,192,11538,1,0,0:0:0:0:
320,224,11565,1,0,0:0:0:0:
320,256,11592,1,0,0:0:0:0:
288,256,11620,1,0,0:0:0:0:
256,192,11647,1,0,0:0:0:0:
288,160,11674,1,0,0:0:0:0:
224,160,11701,1,0,0:0:0:0:
224,224,11728,1,0,0:0:0:0:
288,224,11755,1,0,0:0:0:0:
320,128,11782,1,0,0:0:0:0:
192,128,11809,1,0,0:0:0:0:
192,256,11836,1,0,0:0:0:0:
320,256,11864,1,0,0:0:0:0:
352,96,11891,1,0,0:0:0:0:
160,96,11918,1,0,0:0:0:0:
160,288,11945,1,0,0:0:0:0:
352,288,11972,1,0,0:0:0:0:
224,96,11999,1,0,0:0:0:0:
288,96,12026,1,0,0:0:0:0:
224,288,12053,1,0,0:0:0:0:
288,288,12080,1,0,0:0:0:0:
160,224,12108,1,0,0:0:0:0:
160,160,12135,1,0,0:0:0:0:
352,160,12162,1,0,0:0:0:0:
352,224,12189,1,0,0:0:0:0:
256,192,12297,12,0,12596,0:0:0:0:
256,192,12623,12,0,15714,0:0:0:0:
256,192,12650,12,0,12704,0:0:0:0:
256,192,12731,12,0,12758,0:0:0:0:
256,192,12785,12,0,12813,0:0:0:0:
256,192,12867,12,0,12894,0:0:0:0:
256,192,12921,12,0,12948,0:0:0:0:
0,32,13111,6,0,L|32:0,1,43.75
0,64,13138,2,0,L|64:0,1,87.5
0,96,13219,2,0,L|96:0,1,131.25
0,128,13273,2,0,L|128:0,1,175
0,160,13328,2,0,L|160:0,1,218.75
192,0,13382,2,0,L|0:192|-32:224,1,315
0,224,13436,2,0,L|224:0,1,315
256,0,13490,2,0,L|0:256,1,341.25
0,288,13572,2,0,L|288:0,1,402.5
320,0,13599,2,0,L|0:320,1,446.25
0,352,13653,2,0,P|352:0|384:0,1,577.5
384,0,13707,2,0,L|0:384|32:352,1,586.25
64,384,13734,2,0,L|416:0,1,516.25
0,0,15741,6,0,P|0:32|32:0,1,105
64,0,15822,2,0,P|64:32|96:0,1,105
128,0,15849,2,0,B|128:64|160:0|192:0,1,87.5
192,32,15931,2,0,L|128:64,1,70
256,192,15985,2,0,L|256:96,1,96.25
256,192,16012,2,0,L|160:192,1,96.25
256,192,16039,2,0,L|256:288|256:288,1,157.5
256,192,16093,2,0,L|352:192,1,157.5
352,192,16175,2,0,L|256:96,1,131.25
256,96,16202,2,0,L|160:192,1,175
160,192,16229,2,0,L|256:288,1,131.25
256,288,16256,2,0,L|352:192,1,175
256,192,16337,2,0,L|384:64|416:32,1,218.75
256,192,16391,2,0,L|96:352,1,218.75
256,192,16446,2,0,L|96:64,1,201.25
256,192,16500,2,0,L|416:352,1,682.5
101,346,16608,2,0,L|416:352,1,315
96,64,16663,2,0,L|384:64,1,455
96,64,16744,2,0,L|96:352,1,288.75
96,352,16798,2,0,L|544:64|544:64,1,560
192,160,16879,2,0,P|256:128|192:224,1,332.5
0,352,17318,1,0,0:0:0:0:
512,0,17332,1,0,0:0:0:0:
0,0,17339,1,0,0:0:0:0:
512,384,17346,1,0,0:0:0:0:
32,320,17354,1,0,0:0:0:0:
480,32,17361,1,0,0:0:0:0:
32,32,17368,1,0,0:0:0:0:
480,352,17375,1,0,0:0:0:0:
448,64,17382,1,0,0:0:0:0:
64,64,17389,1,0,0:0:0:0:
64,288,17397,1,0,0:0:0:0:
448,320,17404,1,0,0:0:0:0:
416,96,17411,1,0,0:0:0:0:
96,96,17418,1,0,0:0:0:0:
96,256,17425,1,0,0:0:0:0:
416,288,17432,1,0,0:0:0:0:
384,128,17440,1,0,0:0:0:0:
128,128,17447,1,0,0:0:0:0:
128,224,17454,1,0,0:0:0:0:
384,256,17461,1,0,0:0:0:0:
352,160,17468,1,0,0:0:0:0:
160,160,17475,1,0,0:0:0:0:
160,192,17483,1,0,0:0:0:0:
352,224,17490,1,0,0:0:0:0:
320,192,17497,1,0,0:0:0:0:
192,192,17504,1,0,0:0:0:0:
192,192,17511,2,0,L|320:192,1,122.5
256,128,17518,2,0,L|256:256,1,122.5
256,96,17526,2,0,L|160:96,1,96.25
256,96,17533,2,0,L|352:96,1,96.25
256,256,17540,2,0,L|160:256,1,96.25
256,256,17554,2,0,L|352:256,1,96.25
352,96,17561,2,0,L|448:0,1,131.25
160,96,17569,2,0,L|64:0,1,131.25
160,256,17576,2,0,L|96:320,1,87.5
352,256,17583,2,0,L|448:352,1,385
159,96,17597,2,0,L|160:256,1,157.5
352,256,17612,2,0,L|352:96,1,157.5
160,64,17626,2,0,L|320:64,1,157.5
160,32,17640,2,0,L|352:32,1,192.5
160,288,17655,2,0,L|352:288,1,192.5
160,320,17669,2,0,L|352:320,1,192.5
160,352,17683,2,0,L|352:352,1,192.5
384,160,17698,2,0,B|384:128|384:192|384:224,1,105
416,96,17726,2,0,P|416:256|384:160,1,638.75
448,64,17748,2,0,P|448:288|128:96,1,787.5
160,160,18601,2,0,L|224:160,9,96.25
160,128,19289,2,0,L|192:128,1,26.25
160,192,19813,2,0,L|160:128,1,61.25
192,192,19820,2,0,L|192:128,1,61.25
224,192,19834,2,0,L|224:160,1,26.25
256,192,19849,2,0,L|256:160,1,26.25
0,384,19863,2,0,L|0:0,1,411.25
32,384,19877,2,0,L|32:0,1,385
64,384,19885,2,0,L|64:32,1,350
96,384,19892,2,0,L|96:64,1,315
128,384,19906,2,0,L|128:96,1,288.75
160,384,19913,2,0,L|160:128,1,253.75
192,384,19928,2,0,L|192:160,1,218.75
224,384,19942,2,0,L|224:160,1,218.75
256,384,19949,2,0,L|256:192,1,218.75
288,384,19963,2,0,L|288:192|288:224,1,218.75
320,384,19978,2,0,L|320:256,1,122.5
352,384,19992,2,0,L|352:288,1,96.25
384,384,19999,2,0,L|384:320,1,61.25
416,384,20014,2,0,L|416:352,1,26.25
96,0,20021,2,0,L|480:384,1,542.5
160,0,20028,6,0,L|512:352,1,498.75
224,0,20035,2,0,L|512:320,1,428.75
256,0,20049,2,0,L|512:288,1,385
288,0,20064,2,0,L|512:256,1,402.5
320,0,20078,2,0,L|512:224,1,288.75
384,0,20093,2,0,L|512:160,1,201.25
0,352,20100,5,0,0:0:0:0:
32,352,20107,1,0,0:0:0:0:
64,352,20114,1,0,0:0:0:0:
96,352,20128,1,0,0:0:0:0:
128,352,20136,1,0,0:0:0:0:
160,352,20143,1,0,0:0:0:0:
0,320,20150,1,0,0:0:0:0:
0,288,20157,1,0,0:0:0:0:
0,256,20164,1,0,0:0:0:0:
0,224,20171,1,0,0:0:0:0:
0,192,20179,1,0,0:0:0:0:
0,160,20186,1,0,0:0:0:0:
0,128,20193,1,0,0:0:0:0:
0,64,20200,1,0,0:0:0:0:
0,96,20207,1,0,0:0:0:0:
0,32,20214,1,0,0:0:0:0:
0,0,20222,1,0,0:0:0:0:
32,320,20229,1,0,0:0:0:0:
32,288,20236,1,0,0:0:0:0:
32,256,20243,1,0,0:0:0:0:
32,224,20250,1,0,0:0:0:0:
32,192,20257,1,0,0:0:0:0:
32,160,20265,1,0,0:0:0:0:
32,128,20272,1,0,0:0:0:0:
32,96,20279,1,0,0:0:0:0:
32,64,20286,1,0,0:0:0:0:
32,32,20293,1,0,0:0:0:0:
64,320,20300,1,0,0:0:0:0:
64,288,20308,1,0,0:0:0:0:
64,256,20315,1,0,0:0:0:0:
64,224,20322,1,0,0:0:0:0:
64,192,20329,1,0,0:0:0:0:
64,160,20336,1,0,0:0:0:0:
64,128,20343,1,0,0:0:0:0:
64,96,20351,1,0,0:0:0:0:
64,64,20358,1,0,0:0:0:0:
96,320,20365,1,0,0:0:0:0:
96,288,20372,1,0,0:0:0:0:
96,256,20379,1,0,0:0:0:0:
96,224,20386,1,0,0:0:0:0:
96,192,20394,1,0,0:0:0:0:
128,160,20401,1,0,0:0:0:0:
96,160,20408,1,0,0:0:0:0:
96,128,20415,1,0,0:0:0:0:
96,96,20422,1,0,0:0:0:0:
128,320,20430,1,0,0:0:0:0:
128,288,20437,1,0,0:0:0:0:
128,256,20444,1,0,0:0:0:0:
128,224,20451,1,0,0:0:0:0:
128,192,20458,1,0,0:0:0:0:
128,128,20465,1,0,0:0:0:0:
160,320,20473,1,0,0:0:0:0:
160,288,20480,1,0,0:0:0:0:
160,256,20487,1,0,0:0:0:0:
160,224,20494,1,0,0:0:0:0:
160,192,20501,1,0,0:0:0:0:
160,160,20508,1,0,0:0:0:0:
192,352,20523,1,0,0:0:0:0:
192,320,20530,1,0,0:0:0:0:
192,288,20537,1,0,0:0:0:0:
192,256,20544,1,0,0:0:0:0:
192,224,20551,1,0,0:0:0:0:
192,192,20559,1,0,0:0:0:0:
224,352,20566,1,0,0:0:0:0:
224,320,20573,1,0,0:0:0:0:
224,288,20580,1,0,0:0:0:0:
224,256,20587,1,0,0:0:0:0:
224,224,20594,1,0,0:0:0:0:
256,352,20602,1,0,0:0:0:0:
256,320,20609,1,0,0:0:0:0:
256,288,20616,1,0,0:0:0:0:
256,256,20623,1,0,0:0:0:0:
288,352,20630,1,0,0:0:0:0:
288,320,20637,1,0,0:0:0:0:
288,288,20645,1,0,0:0:0:0:
320,352,20652,1,0,0:0:0:0:
320,320,20659,1,0,0:0:0:0:
320,288,20666,1,0,0:0:0:0:
352,352,20673,1,0,0:0:0:0:
352,320,20680,1,0,0:0:0:0:
384,352,20688,1,0,0:0:0:0:
